#TITLE:Believe Again (HYPER MEGA MIX);
#SUBTITLE:;
#ARTIST:dj nagureo featuring miryam;
#TITLETRANSLIT:;
#SUBTITLETRANSLIT:;
#ARTISTTRANSLIT:;
#CREDIT:;
#BANNER:Believe Again (HYPER MEGA MIX)-bn.PNG;
#BACKGROUND:Believe Again (HYPER MEGA MIX)-bg.PNG;
#LYRICSPATH:;
#CDTITLE:;
#MUSIC:Believe again (HYPER MEGA MIX).mp3;
#OFFSET:-0.436;
#SAMPLESTART:7.780;
#SAMPLELENGTH:11.980;
#SELECTABLE:YES;
#BPMS:0.000=130.000;
#STOPS:;
#BGCHANGES:;

//---------------dance-single - ----------------
#NOTES:
     dance-single:
     :
     Hard:
     6:
     0.358,0.387,0.126,0.038,0.013:
0000
0000
0000
0000
,
0000
0000
0000
0000
,
0000
0000
0000
0000
,
0000
0000
0000
0000
,
1000
0010
0100
0000
,
0010
0001
0100
1000
0010
0000
0000
0000
,
0010
0001
0100
0000
,
0010
1000
0100
0001
0010
0000
0000
0000
,
0001
0100
1000
0000
0101
0000
0000
0000
,
1000
0100
0001
0100
1000
0000
0000
0000
,
1000
0100
0001
0000
1100
0000
0000
0000
,
0001
0010
1000
0010
0001
0000
0000
0000
,
1000
0000
0100
0000
0010
0001
0001
0000
,
0001
0000
0100
0000
0010
1000
1000
0000
,
0010
0100
0010
0000
0001
1000
0001
0000
,
0100
0000
0010
1000
0001
0000
0100
0000
,
1000
0001
0100
0000
0010
1000
0001
0000
,
0001
0010
0100
0000
1000
0010
0100
0000
,
0001
0001
0001
0000
1000
1000
1000
0000
,
0010
0000
0100
0000
0001
1000
0100
0000
,
0010
0000
0000
1000
0000
0000
0001
0000
2002
0000
0000
0000
0000
0000
3003
0000
,
0100
0000
0010
0000
0100
1000
0010
0000
,
0001
0000
1000
0000
0010
0001
1000
0000
,
0010
0001
0100
0000
0010
1000
0100
0000
,
0001
0100
1000
0100
0001
0100
1000
0000
,
0001
0101
1000
1100
,
0001
0011
1000
1010
,
0010
0001
0101
0000
0010
1000
1100
0000
,
0001
0010
0100
1000
,
0010
0001
1000
0000
0010
1000
0001
0000
,
1000
0001
0100
0000
0001
1000
0100
0000
,
1000
0100
0100
0000
0001
0100
0100
0000
,
0001
0010
0100
1000
0010
0100
0001
0000
,
1000
1000
0001
0001
,
0010
0010
0100
0100
,
1000
0000
1000
0100
0100
0000
0001
0000
,
0001
0010
0100
1000
0001
0000
1000
0000
,
0020
0000
0000
0000
0000
0000
0030
0100
,
0010
0000
1000
0000
1000
0001
1000
0000
,
0010
0000
0000
0000
0001
0000
0000
0000
0001
0000
0100
0000
1000
0000
0000
0010
,
1000
0000
0100
0000
0010
0001
0100
1001
;

//---------------dance-single - ----------------
#NOTES:
     dance-single:
     :
     Medium:
     5:
     0.292,0.336,0.151,0.063,0.057:
0000
0000
0000
0000
,
0000
0000
0000
0000
,
0000
0000
0000
0000
,
0000
0000
0000
0000
,
1000
0001
0001
0000
,
0001
0000
1000
0001
1000
0000
0000
0000
,
0010
0100
0100
0000
,
0100
0000
0010
0100
0010
0000
0000
0000
,
1000
0100
0001
0000
,
0010
1000
0001
0000
1001
0000
0000
0000
,
0010
1000
0100
0000
,
0001
0100
0001
0000
1001
0000
0000
0000
,
0001
0000
0000
0001
0100
0000
0000
0000
,
1000
0000
0000
0010
0100
0000
0000
0000
,
0001
0000
0000
1000
0010
0000
0100
0000
,
0001
0000
1000
0000
0001
0100
1000
0000
,
0100
0001
0100
0101
,
0010
1000
0010
0000
1001
0000
1001
0000
,
0010
0000
0001
0000
0010
1000
0010
0000
,
1000
0000
0100
0000
0001
0100
0001
0000
,
0100
0000
0000
0010
0000
0000
0100
0000
0110
0000
0000
0000
0000
0000
0000
0000
,
1000
0000
0000
1000
0000
0000
1000
0000
0001
0000
0000
0000
0000
0000
0000
0000
,
0010
0000
0000
0010
0000
0000
0010
0000
0100
0000
0000
0000
0000
0000
0000
0000
,
1000
0000
0000
0100
0000
0000
0010
0000
0001
0000
0000
0000
0000
0000
0000
0000
,
0001
0000
0000
0100
0000
0000
0010
0000
1000
0000
0000
1000
0000
0000
1000
0000
,
0100
0000
0000
0010
0000
0000
0100
0000
0001
0000
0000
0000
0000
0000
0000
0000
,
0010
0000
0000
1000
0000
0000
1000
0000
0100
0000
0000
0000
0000
0000
0000
0000
,
0001
0000
0000
0100
0000
0000
0010
0000
1000
0000
0000
0000
0000
0000
0000
0000
,
1100
0002
0203
0320
,
1030
1000
0100
0100
,
0010
0010
0001
0001
,
0001
0100
0010
1000
,
1000
0100
0010
0000
0100
0010
0001
0000
,
1000
1100
0001
0101
,
0010
0110
0001
1001
,
0100
0001
0100
0010
,
1000
1000
0001
0001
,
2000
0000
0000
3000
,
0002
0000
0000
0003
,
0010
1000
0100
0100
,
0010
0001
0100
0100
,
1001
0000
0000
0000
;

//---------------dance-single - ----------------
#NOTES:
     dance-single:
     :
     Beginner:
     1:
     0.101,0.155,0.050,0.000,0.000:
0000
0000
0000
0000
,
0000
0000
0000
0000
,
0000
0000
0000
0000
,
0000
0000
0000
0000
,
0010
0000
0000
0000
,
0010
0000
0000
0000
,
0100
0000
0000
0000
,
0100
0000
0000
0000
,
0001
0000
0000
0000
,
0001
0000
0000
0000
,
1000
0000
0000
0000
,
1000
0000
0000
0000
,
0001
0000
0000
0000
,
1001
0000
0000
0000
,
1000
0000
0000
0000
,
1001
0000
0000
0000
,
0010
0000
0010
0000
,
0100
0000
0100
0000
,
0001
0000
0001
0000
,
1000
0000
1000
0000
,
1001
0000
0000
0000
,
1000
0000
0000
0000
,
0100
0000
0000
0000
,
0010
0000
0000
0000
,
0001
0000
0000
0000
,
0001
0000
0000
0000
,
0010
0000
0000
0000
,
0100
0000
0000
0000
,
1000
0000
0000
0000
,
1000
0000
1000
0000
,
0001
0000
0001
0000
,
0010
0000
0010
0000
,
0100
0000
0100
0000
,
1000
0000
0001
0000
,
0010
0000
0100
0000
,
0100
0000
0010
0000
,
0001
0000
1000
0000
,
0001
0000
0000
0000
,
0100
0000
0000
0000
,
1000
1000
0000
0000
,
0001
0001
0000
0000
,
1001
0000
0000
0000
;

//---------------dance-single - ----------------
#NOTES:
     dance-single:
     :
     Easy:
     3:
     0.218,0.284,0.126,0.025,0.000: // measure 1
0000
0000
0000
0000
,  // measure 2
0000
0000
0000
0000
,  // measure 3
0000
0000
0000
0000
,  // measure 4
0000
0000
0000
0000
,  // measure 5
1000
0010
0000
0000
,  // measure 6
0100
0001
0000
0000
,  // measure 7
0010
0001
0000
0000
,  // measure 8
1000
0100
0000
0000
,  // measure 9
0001
0000
0001
0000
,  // measure 10
1000
1000
1000
0000
,  // measure 11
0010
0000
0010
0000
,  // measure 12
0100
0100
0100
0000
,  // measure 13
0001
0000
1001
0000
,  // measure 14
1000
0000
0110
0000
,  // measure 15
0010
0000
0100
0000
,  // measure 16
0010
0001
0001
0000
,  // measure 17
0010
1000
0100
0110
,  // measure 18
0010
0001
0100
0110
,  // measure 19
1000
0000
0100
0000
,  // measure 20
0010
0001
1000
0000
,  // measure 21
0100
0000
1001
0000
,  // measure 22
1000
1000
1000
1000
,  // measure 23
0001
0001
0001
0001
,  // measure 24
0010
0010
0100
0100
,  // measure 25
0010
0001
1000
0100
,  // measure 26
1000
1001
0001
1001
,  // measure 27
0010
0110
0100
0110
,  // measure 28
0001
0100
1000
0100
,  // measure 29
0010
0001
0010
1000
,  // measure 30
0010
0001
0001
0001
,  // measure 31
0010
1000
1000
1000
,  // measure 32
0100
0001
0001
0001
,  // measure 33
0100
1000
1000
1000
,  // measure 34
0001
0001
0100
0010
,  // measure 35
1000
1000
0010
0100
,  // measure 36
0001
0000
1000
0000
,  // measure 37
0010
0000
0100
0000
,  // measure 38
0002
0000
0000
0000
,  // measure 39
2003
0000
0000
0000
,  // measure 40
3100
0000
0100
0000
,  // measure 41
0010
0000
0010
0000
,  // measure 42
1001
0000
0000
0000
;
