#VERSION:0.83;
#TITLE:VEGAS;
#SUBTITLE:;
#ARTIST:SATO;
#TITLETRANSLIT:;
#SUBTITLETRANSLIT:;
#ARTISTTRANSLIT:;
#GENRE:;
#ORIGIN:;
#CREDIT:;
#BANNER:vegas-bn.png;
#BACKGROUND:vegas-bg.png;
#PREVIEWVID:;
#JACKET:vegas-jacket.png;
#CDIMAGE:;
#DISCIMAGE:;
#LYRICSPATH:;
#CDTITLE:pecd.png;
#MUSIC:VEGAS.ogg;
#OFFSET:-0.305000;
#SAMPLESTART:7.804000;
#SAMPLELENGTH:12.000000;
#SELECTABLE:YES;
#BPMS:0.000=128.000;
#STOPS:76.000=1.400;
#DELAYS:;
#WARPS:;
#TIMESIGNATURES:0.000=4=4;
#TICKCOUNTS:0.000=4;
#COMBOS:0.000=1;
#SPEEDS:0.000=1.000=0.000=0;
#SCROLLS:0.000=1.000;
#FAKES:;
#LABELS:0.000=Song Start;
#BGCHANGES:;
#KEYSOUNDS:;
#ATTACKS:
;

//---------------dance-single - ----------------
#NOTEDATA:;
#CHARTNAME:;
#STEPSTYPE:dance-single;
#DESCRIPTION:;
#CHARTSTYLE:;
#DIFFICULTY:Beginner;
#METER:1;
#RADARVALUES:0.111730,0.149484,0.000000,0.067278,0.000000,93.000000,93.000000,0.000000,8.000000,0.000000,0.000000,0.000000,0.000000,0.000000,0.111730,0.149484,0.000000,0.067278,0.000000,93.000000,93.000000,0.000000,8.000000,0.000000,0.000000,0.000000,0.000000,0.000000;
#CREDIT:SHAYMIN;
#NOTES:
// measure 0
0000
0000
0000
0000
,  // measure 1
0000
0000
0000
0000
,  // measure 2
0000
0000
0000
0000
,  // measure 3
0000
0000
0000
0000
,  // measure 4
1000
0000
1000
0000
,  // measure 5
0001
0000
0001
0000
,  // measure 6
1000
0000
1000
0000
,  // measure 7
0001
0000
0000
0000
,  // measure 8
1000
0000
1000
0000
,  // measure 9
0001
0000
0001
0000
,  // measure 10
1000
0000
1000
0000
,  // measure 11
0001
0000
0000
0000
,  // measure 12
0010
0000
0000
0000
,  // measure 13
0010
0000
0000
0000
,  // measure 14
0100
0000
0000
0000
,  // measure 15
0100
0000
0000
0000
,  // measure 16
1000
0000
1000
0000
,  // measure 17
1000
0000
1000
0000
,  // measure 18
0001
0000
0001
0000
,  // measure 19
0001
0000
0010
0000
,  // measure 20
0010
0000
0010
0000
,  // measure 21
0010
0000
0100
0000
,  // measure 22
0100
0000
0000
0000
,  // measure 23
0000
0010
0010
0000
,  // measure 24
0000
0010
0000
0010
,  // measure 25
0000
1000
1000
0000
,  // measure 26
1000
1000
0000
0000
,  // measure 27
0000
0002
0000
0003
,  // measure 28
0000
2000
0000
3000
,  // measure 29
0000
0002
0000
0003
,  // measure 30
0000
2000
0000
3000
,  // measure 31
0000
0010
0000
0100
,  // measure 32
0000
0010
0000
0100
,  // measure 33
0000
0100
0000
0010
,  // measure 34
0000
0100
0000
0010
,  // measure 35
0000
2000
0000
3000
,  // measure 36
0000
2000
0000
3000
,  // measure 37
0000
0002
0000
0003
,  // measure 38
0000
0002
0000
0003
,  // measure 39
0000
1000
0000
0100
,  // measure 40
0000
1000
0000
0100
,  // measure 41
0000
0010
0000
0001
,  // measure 42
0000
0010
0000
0001
,  // measure 43
0000
1000
1000
0000
,  // measure 44
0000
1000
1000
0000
,  // measure 45
0000
0001
0001
0000
,  // measure 46
0000
0001
0001
0000
,  // measure 47
0000
1000
0000
0001
,  // measure 48
0000
1000
0000
0001
,  // measure 49
0000
1000
0000
0001
,  // measure 50
0000
1000
0000
0000
,  // measure 51
0000
0010
0000
0010
,  // measure 52
0000
0100
0000
0100
,  // measure 53
0000
0010
0000
0010
,  // measure 54
0000
0100
0000
0000
,  // measure 55
0000
1000
0000
1000
,  // measure 56
0000
0001
0000
0001
,  // measure 57
0000
1000
0000
1000
,  // measure 58
0000
0001
0000
0000
,  // measure 59
0000
0010
0000
0000
;

//---------------dance-single - ----------------
#NOTEDATA:;
#CHARTNAME:;
#STEPSTYPE:dance-single;
#DESCRIPTION:;
#CHARTSTYLE:;
#DIFFICULTY:Easy;
#METER:5;
#RADARVALUES:0.210245,0.249140,0.067278,0.151376,0.000000,175.000000,167.000000,8.000000,18.000000,0.000000,0.000000,0.000000,0.000000,0.000000,0.210245,0.249140,0.067278,0.151376,0.000000,175.000000,167.000000,8.000000,18.000000,0.000000,0.000000,0.000000,0.000000,0.000000;
#CREDIT:SHAYMIN;
#NOTES:
0000
0000
0000
0000
,
0000
0000
0000
0000
,
0000
0000
0000
0000
,
0000
0000
0000
0000
,
1000
0001
1000
0001
,
0000
0010
0100
0010
,
0001
1000
0001
1000
,
0020
0000
0000
0030
,
1000
0100
0010
0001
,
0000
0001
0010
0100
,
1000
0010
0100
0001
,
2000
0000
0000
3000
,
0002
0000
0013
0000
,
2000
0000
3010
0000
,
0100
0000
0010
0000
,
0100
0010
0100
0000
,
0001
0001
0100
0000
,
1000
1000
0100
0000
,
0001
1000
0001
1000
,
0010
0000
0100
0000
,
0100
0000
0100
0010
,
0100
0000
0001
0000
,
0001
2000
3000
0001
,
1001
1000
1000
1000
,
1000
0001
0001
0001
,
0001
1000
1000
0001
,
0001
0020
0000
0000
,
0030
0000
0000
1000
0000
0000
0000
0001
,
0000
0001
0000
0100
0000
0000
0000
0010
,
0000
0010
0000
1000
0000
0000
0000
1000
,
0000
1000
0000
0100
0000
0000
0000
0100
,
0000
0010
0010
0010
,
0000
0100
0010
1001
,
1001
0100
0100
0100
,
0000
0100
0010
1000
,
0001
0020
0030
0002
,
0003
2000
3000
0020
,
0030
0200
0300
0002
,
0003
2000
3000
0200
,
0300
0010
0100
0010
,
0100
1000
0001
1000
,
1000
0010
0100
0010
,
0100
0001
1000
0001
,
2000
3100
1100
0000
,
0001
0100
0101
0000
,
1000
0010
1010
0000
,
0001
0010
0011
0000
,
1000
0001
0001
0100
,
0100
0010
0010
1000
,
1000
0001
0010
0100
,
1000
0010
0000
0000
,
1001
0001
1000
0001
,
1000
0000
0010
0100
,
0010
1000
0001
1000
,
0001
0020
0000
0000
,
0030
0001
0100
0010
,
1000
0000
1000
0010
,
0100
0001
0010
0100
,
1000
0002
0000
0000
,
0020
0033
0000
0000
;

//---------------dance-single - ----------------
#NOTEDATA:;
#CHARTNAME:;
#STEPSTYPE:dance-single;
#DESCRIPTION:;
#CHARTSTYLE:;
#DIFFICULTY:Medium;
#METER:7;
#RADARVALUES:0.295544,0.348796,0.092508,0.201835,0.016820,246.000000,235.000000,11.000000,24.000000,0.000000,0.000000,0.000000,0.000000,0.000000,0.295544,0.348796,0.092508,0.201835,0.016820,246.000000,235.000000,11.000000,24.000000,0.000000,0.000000,0.000000,0.000000,0.000000;
#CREDIT:SHAYMIN;
#NOTES:
0000
0000
0000
0000
,
0000
0000
0000
0000
,
0000
0000
0000
0000
,
0000
0000
0000
0000
,
1000
0000
0001
0000
1000
0100
1000
0000
,
0001
1000
0100
1000
,
0001
0000
1000
0000
0001
0100
0001
0000
,
0020
0000
0230
0000
,
1300
0000
1010
0000
0010
1000
0010
0000
,
0100
0101
0001
1000
,
0100
0000
1100
0000
0100
1000
0100
0000
,
0020
0000
0032
1003
,
0020
0000
0100
0130
,
0002
0000
1000
1003
,
0020
0000
1000
1030
,
0002
0000
0010
0013
,
0100
1000
0100
0000
0010
0001
0010
0000
,
0100
1000
0001
0000
0100
0001
1000
0000
,
0100
0010
0001
1000
,
0010
0000
0000
0000
0100
0000
0000
0000
0100
0000
0000
0000
0010
0000
0000
0010
,
0000
0000
1000
0000
0001
0000
0010
0001
,
0010
0000
0000
0000
0100
0000
0000
0000
1000
0000
0000
0000
0001
0000
0000
0001
,
0000
2000
0000
3100
,
0110
0000
0000
0000
0010
0000
0000
0000
0010
0000
0000
0000
0100
0000
0000
0100
,
0000
0000
1000
0000
0010
0000
0100
0001
,
0100
0000
0000
0000
0010
0000
0000
0000
1000
0000
0000
0000
0001
0000
0000
0001
,
0000
0020
0000
0230
,
1300
0000
0001
0100
0010
0000
1000
1000
,
0000
0001
1000
0100
0010
0000
0001
0001
,
0000
1000
0001
0100
0010
0000
1000
1000
,
0000
0001
1000
0100
0010
0000
0001
0001
,
0000
1000
0010
0100
0010
0000
0110
0000
,
0000
0000
1000
0001
1000
0000
1001
0000
,
1001
0000
0001
1000
0001
0000
1001
0000
,
0000
0000
0100
0010
0100
0000
0001
0000
,
1000
0200
0300
2000
,
3000
0020
0030
0200
,
0300
0002
0003
0020
,
0030
0002
0003
0200
,
0300
0000
0010
1000
0010
0000
1000
0010
,
1000
0010
0100
0001
,
1000
0000
0001
0010
0001
0000
0010
0001
,
0010
0001
1000
0100
,
1000
0000
0010
0100
0001
0000
0010
0000
,
0010
0000
0010
0100
1000
0000
0010
0000
,
0010
0000
0100
0001
1000
0000
0100
0000
,
0100
0000
1000
0001
0100
0000
0010
0000
,
0010
0000
1000
0100
1000
0000
0001
0100
,
0001
0000
1000
0010
1000
0000
0001
0010
,
0001
1000
0010
0001
,
0100
0010
0000
0000
,
1001
0000
1000
0000
0100
0000
1000
0100
,
0010
0001
0100
0001
,
1000
0000
0001
0000
0010
0000
0001
0100
,
0010
2000
0000
3200
,
0000
0000
0310
0000
0011
0000
0001
0010
,
0001
0100
0001
1000
,
0100
0000
1000
0000
1010
0000
0010
1000
,
0010
0200
0000
0302
,
2000
3003
0000
0000
;

//---------------dance-single - ----------------
#NOTEDATA:;
#CHARTNAME:;
#STEPSTYPE:dance-single;
#DESCRIPTION:;
#CHARTSTYLE:;
#DIFFICULTY:Hard;
#METER:10;
#RADARVALUES:0.473351,0.448452,0.218655,0.327982,0.277523,394.000000,368.000000,26.000000,39.000000,0.000000,0.000000,0.000000,0.000000,0.000000,0.473351,0.448452,0.218655,0.327982,0.277523,394.000000,368.000000,26.000000,39.000000,0.000000,0.000000,0.000000,0.000000,0.000000;
#CREDIT:SHAYMIN;
#NOTES:
0000
0000
0000
0000
,
0000
0000
0000
0000
,
0000
0000
0000
0000
,
0000
0000
0000
0000
,
0000
0000
1000
0100
0000
0000
0100
0010
0000
0000
0010
0001
2000
0000
3000
0000
,
0000
0000
0001
0100
0000
0000
0100
0010
0000
0000
0010
1000
0002
0000
0013
0000
,
0100
0000
1000
0001
0000
0000
0001
0100
0000
0000
0100
0010
2000
0000
3000
0000
,
0100
0010
0001
0100
0010
1000
0001
0000
,
0000
0000
1000
0100
0000
0000
0001
0100
0000
0000
1000
0100
0020
0000
0030
0000
,
0000
0000
0001
0010
0000
0000
1000
0010
0000
0000
0001
0100
0020
0000
1030
0000
,
0001
0000
1000
0100
0000
0000
0010
0001
0000
0000
1000
0100
0020
0000
0030
0000
,
0001
0100
0010
1000
0010
0100
0110
0000
,
1000
0000
0000
1000
0000
0000
0100
0000
0000
0010
0000
0000
0001
0000
0010
0000
,
0001
0000
0000
0001
0000
0000
0100
0000
0000
0010
0000
0000
1000
0000
0010
0000
,
1000
0000
0000
0100
0000
0000
1000
0000
0000
0010
0000
0000
0100
0000
0001
0000
,
0010
0000
0000
0001
0000
0000
0100
0000
0000
0010
0000
0000
1000
0000
0001
0000
,
1000
0100
0000
0000
0101
0000
0000
0000
1000
0010
0000
0000
0011
0000
0000
0000
,
1000
0100
0000
0000
0011
0000
0000
0000
0001
0100
0000
0000
1010
0000
0000
0000
,
0100
0001
0010
0100
1000
0010
0100
0001
,
1000
0000
1001
0000
1000
0100
0010
0010
,
0010
0000
0001
0100
0001
0000
0010
0100
,
1000
0001
0010
0000
0100
1000
0001
0001
,
0001
0200
0320
2030
,
3001
0000
1100
0000
0010
0001
0010
0100
,
1000
0000
0001
0100
0010
0000
1000
0010
,
0100
0001
1000
0000
0100
0010
0001
0100
,
0010
2000
3200
0310
,
1001
0000
0100
0010
2000
0000
0100
0100
,
0000
3010
0100
0001
1000
0001
0200
0320
,
2030
3002
0013
0100
0020
0000
0001
0001
,
0000
0130
0001
0010
0100
0010
0002
0203
,
0320
2030
3001
0010
0100
1000
0010
0000
,
1001
0000
0100
0010
1010
0000
0101
0000
,
1100
0000
0010
0001
0100
0010
1000
0000
,
0110
0000
0001
0100
0101
0000
1010
0000
,
1100
0000
0000
0000
0010
0001
0000
0100
0000
0010
0000
0000
0010
1000
0000
0100
,
0000
0010
0000
0000
0010
0001
0000
0100
0000
0010
0000
0000
0010
1000
0000
0100
,
0000
0010
0000
0000
0001
1000
0000
0100
0000
1000
0000
0000
1000
0001
0000
0100
,
0000
0001
0000
0000
0001
0000
0010
0000
1000
0000
0010
0000
0001
0000
0100
0000
,
0120
0000
1030
0100
1000
0100
0010
0001
,
0010
0100
0010
0001
0010
0001
0100
0001
,
0010
0001
0100
0010
0100
0010
1000
0001
,
0010
0001
1000
0010
1000
0010
0100
0001
,
0020
0000
0130
1000
2100
0000
3001
0000
,
1100
0000
0100
0001
0102
0000
1003
0000
,
0101
0000
0010
0100
0210
0000
0301
0000
,
0110
0000
0001
1000
1002
0000
0103
0000
,
1001
0000
1000
0100
0020
0000
0031
0100
,
0020
0000
1030
0001
0200
0000
0301
1000
,
0200
0000
0310
0001
0100
0010
1000
0100
,
0010
0001
1000
0000
0001
0000
1000
0000
,
0110
0000
0000
0000
0000
0000
0001
0100
0000
0000
0100
0010
0000
0000
0010
1000
,
0002
0000
0003
0000
0000
0000
1000
0100
0000
0000
0100
0010
0000
0000
0010
0001
,
2000
0000
3010
0000
0100
0000
0001
1000
0000
0000
1000
0100
0000
0000
0100
0010
,
0002
0003
1000
0010
0100
0010
1000
0001
,
0010
0000
0000
0000
0000
0000
1000
0100
0000
0000
0001
0100
0000
0000
1000
0100
,
0020
0000
0030
0000
0000
0000
0001
0010
0000
0000
1000
0010
0000
0000
0001
0010
,
0200
0000
1300
0000
0010
0000
0100
0001
0000
0000
1000
0100
0000
0000
0010
0001
,
2000
3000
0010
0100
0001
1000
0100
0010
,
0200
0020
0330
0000
0000
0000
0000
0000
;

//---------------dance-single - ----------------
#NOTEDATA:;
#CHARTNAME:;
#STEPSTYPE:dance-single;
#DESCRIPTION:;
#CHARTSTYLE:;
#DIFFICULTY:Challenge;
#METER:14;
#RADARVALUES:0.663172,0.647764,0.227064,0.319572,0.937692,552.000000,525.000000,27.000000,38.000000,50.000000,0.000000,0.000000,0.000000,0.000000,0.663172,0.647764,0.227064,0.319572,0.937692,552.000000,525.000000,27.000000,38.000000,50.000000,0.000000,0.000000,0.000000,0.000000;
#CREDIT:SHAYMIN;
#NOTES:
0000
0000
0000
0000
,
0000
0000
0000
0000
,
0000
0000
0000
0000
,
0000
0000
0000
0000
,
1000
0000
0000
0100
0000
0000
0010
0000
0000
0001
0000
0000
0000
0000
0000
0100
0000
0000
0010
0000
0000
1000
0000
0000
0000
0000
0000
0001
0000
0000
0010
0000
0100
0000
1000
0000
0200
0000
0000
0000
0000
0000
0000
0000
0000
0000
0000
0000
,
0310
0001
1000
0010
0000
0100
0001
1000
0000
0100
1000
0001
0200
0000
0310
0000
,
1000
0000
0000
0100
0000
0000
0010
0000
0000
0001
0000
0000
0000
0000
0000
0010
0000
0000
0100
0000
0000
1000
0000
0000
0000
0000
0000
0010
0000
0000
0100
0000
0001
0000
0100
0000
0020
0000
0000
0000
0000
0000
0000
0000
0000
0000
0000
0000
,
1030
0000
0001
0000
0010
0000
0001
0000
0100
0010
1000
0010
0100
0001
1000
0000
,
0100
0000
0000
0010
0000
0000
0001
0000
0000
0010
0000
0000
0000
0000
0000
0100
0000
0000
1000
0000
0000
0001
0000
0000
0000
0000
0000
0100
0000
0000
0001
0000
1000
0000
0100
0000
2000
0000
0000
0000
0000
0000
0000
0000
0000
0000
0000
0000
,
3010
0100
0001
0010
0000
0100
1000
0010
0000
0100
0001
1000
0200
0000
0310
0000
,
0001
0000
0000
1000
0000
0000
0100
0000
0000
1000
0000
0000
0000
0000
0000
0001
0000
0000
0100
0000
0000
0010
0000
0000
0000
0000
0000
1000
0000
0000
0100
0000
0010
0000
0001
0000
0020
0000
0000
0000
0000
0000
0000
0000
0000
0000
0000
0000
,
0130
0000
1000
0000
0010
0000
0001
0000
1000
0100
0010
0001
0200
0310
1000
0000
,
1100
0000
0000
1100
0000
0000
1001
0000
0000
1010
0000
0000
0110
0000
0101
0000
,
0110
0000
0000
1010
0000
0000
1001
0000
0000
0011
0000
0000
0110
0000
1100
0000
,
0120
0000
0000
0001
0000
0000
0100
0000
0000
0001
0000
0000
0130
0000
1000
0000
,
1002
0000
0000
0100
0000
0000
0010
0000
0000
0100
0000
0000
0013
0000
0001
0000
,
1000
0100
0000
0000
0010
0000
0001
0000
0100
0010
0000
0000
0100
0000
0001
0000
,
0010
0100
0000
0000
1000
0000
0010
0000
0100
0001
0000
0000
1000
0000
0100
0000
,
0010
0000
0001
0000
0010
0000
0100
0000
1000
0001
1000
0001
0100
0010
0100
0010
,
2000
3000
0000
0000
0000
0000
0000
0000
0100
0000
0000
0000
0000
0000
0000
0000
0010
0000
0001
0000
0010
0000
0001
0000
0010
0000
0001
0000
0000
0000
0100
0000
,
0000
0000
0000
0010
0000
0000
1000
0000
0000
0001
0000
0000
0100
0000
0000
0010
0000
0000
0100
0000
0000
0010
0000
0000
0000
0000
0000
1000
0000
0000
0001
0000
0000
0100
0000
0000
0010
0000
1000
0000
0010
0000
1000
0000
0000
0010
0000
0000
,
1000
0010
0000
1000
0M00
0000
0000
0000
0001
0010
0001
0010
0001
0010
0000
0100
,
0000
1000
0001
0100
0010
0000
1000
0001
1000
0001
1000
0000
0010
0100
0010
0100
,
0020
0000
0000
0000
1030
0000
0000
0000
0100
1000
0100
1000
0100
1000
0000
0010
,
0000
0000
0000
0100
0000
0000
0001
0000
0000
1000
0000
0000
0100
0000
0000
0010
0000
0000
0100
0000
0000
0010
0000
0000
0000
0000
0000
0001
0000
0000
0100
0000
0000
0010
0000
0000
1000
0000
0100
0000
1000
0000
0100
0000
0000
1000
0000
0000
,
0100
1000
0000
0100
M000
0000
0000
0000
0010
0001
0010
0001
0010
0001
0000
0100
,
0000
0010
1000
0001
0100
0000
0010
1000
0010
1000
0010
0000
0110
0000
0000
0000
,
1001
0000
M10M
0010
2000
0000
31MM
0010
,
0000
0100
10MM
0010
0100
0001
MM20
0032
,
0203
0320
1M3M
0010
0200
0000
M3M1
0010
,
0000
0001
M1M0
0010
1000
0010
02MM
0302
,
0023
0230
130M
1000
00M1
0001
11M0
0000
,
MMMM
0000
0M01
0001
1M00
0000
M101
0000
,
1100
0000
00M1
0100
10M0
0100
01M1
0000
,
MMMM
0000
1M00
0010
0M01
0000
1M10
0000
,
0011
0000
0000
0000
1000
0100
0000
0010
0000
0100
0000
1000
0001
0100
0000
0001
,
0000
0010
0000
0001
0100
0010
0000
1000
0000
0010
0000
0100
0001
1000
0000
0100
,
0000
1000
0000
0010
0100
0010
0000
1000
0000
0001
0000
0010
0100
0010
0000
0001
,
0000
1000
0000
0010
0100
0010
0100
0010
1000
0010
1000
0010
0100
0001
1000
0100
,
0020
0000
0000
0000
0031
0100
0000
0010
1000
0010
0000
0100
0001
0100
0000
0010
,
1000
0010
0000
0100
0001
1000
0000
0100
1000
0001
0000
0100
0001
0010
0000
0100
,
1000
0010
0000
0100
0001
1000
0000
1000
0001
0100
0000
0010
1000
0100
0000
0100
,
1000
0010
0000
0100
0001
1000
0000
0100
1000
0001
0000
1000
0200
0000
0320
0000
,
0032
0000
1003
0100
1200
0000
M010
0000
,
03M1
0000
1000
0010
1020
0000
M100
0000
,
0M31
0000
1000
0001
1002
0000
M100
0000
,
0M13
0000
0001
1000
2001
0000
010M
0000
,
3M10
0000
100M
0100
1000
0100
M001
0100
,
0001
0100
10M0
0010
0100
0001
10M0
0100
,
0010
0000
0001
0000
1000
0100
1000
0100
0010
0001
0010
0001
1000
0010
0100
0001
,
1000
0100
0010
0001
1000
0000
0000
0000
0001
0000
0000
0000
1000
0000
0000
0000
,
0110
0000
0000
0000
0000
0000
0000
0000
0000
0000
0000
0000
1000
0000
0000
0100
0000
0000
0010
0000
0000
0100
0000
0000
0000
0000
0000
1000
0000
0000
0010
0000
0000
0100
0000
0000
0000
0000
0000
0001
0000
0000
0010
0000
0100
0000
1000
0000
,
0200
0000
0000
0000
0310
0001
1000
0010
0000
0100
0001
1000
0000
0100
1000
0001
,
0200
0000
0000
0000
0000
0000
0310
0000
0000
0000
0000
0000
1000
0000
0000
0100
0000
0000
0010
0000
0000
0001
0000
0000
0000
0000
0000
0010
0000
0000
0100
0000
0000
1000
0000
0000
0000
0000
0000
0010
0000
0000
0100
0000
0001
0000
1000
0000
,
0200
0000
0000
0000
0310
0000
0001
0000
1000
0000
0010
0000
0100
0001
1000
0001
,
0100
0000
0000
0010
0000
0000
1000
0000
0000
0000
0000
0000
0001
0000
0000
0010
0000
0000
0100
0000
0000
1000
0000
0000
0000
0000
0000
0010
0000
0000
0100
0000
0000
0001
0000
0000
0000
0000
0000
1000
0000
0000
0100
0000
0010
0000
0001
0000
,
0020
0000
0000
0000
0130
1000
0010
0100
0000
0001
0010
0100
0000
1000
0100
0010
,
0002
0000
0000
0000
0000
0000
0103
0000
0000
0000
0000
0000
0010
0000
0000
1000
0000
0000
0001
0000
0000
1000
0000
0000
0000
0000
0000
0010
0000
0000
0100
0000
0000
0001
0000
0000
0000
0000
0000
1000
0000
0000
0100
0000
1000
0000
0001
0000
,
2000
0000
0000
0000
3010
0000
0100
0000
0001
0000
1000
0000
0100
0010
0001
0010
,
0200
1300
0020
0200
0330
0000
0000
0000
0000
0000
0000
0000
0000
0000
0000
0000
;
