#VERSION:0.83;
#TITLE:Underground;
#SUBTITLE:;
#ARTIST:Lindsey Stirling;
#TITLETRANSLIT:;
#SUBTITLETRANSLIT:;
#ARTISTTRANSLIT:;
#GENRE:;
#ORIGIN:;
#CREDIT:;
#BANNER:underground-bn.png;
#BACKGROUND:underground-bg.png;
#PREVIEWVID:;
#JACKET:underground-album.png;
#CDIMAGE:pecd.png;
#DISCIMAGE:;
#LYRICSPATH:;
#CDTITLE:;
#MUSIC:Underground.ogg;
#OFFSET:-0.002000;
#SAMPLESTART:86.820000;
#SAMPLELENGTH:12.000000;
#SELECTABLE:YES;
#BPMS:0.000=94.000;
#STOPS:;
#DELAYS:;
#WARPS:;
#TIMESIGNATURES:0.000=4=4;
#TICKCOUNTS:0.000=4;
#COMBOS:0.000=1;
#SPEEDS:0.000=1.000=0.000=0;
#SCROLLS:0.000=1.000;
#FAKES:;
#LABELS:0.000=Song Start;
#BGCHANGES:;
#KEYSOUNDS:;
#ATTACKS:
;

//---------------dance-single - ----------------
#NOTEDATA:;
#CHARTNAME:;
#STEPSTYPE:dance-single;
#DESCRIPTION:;
#CHARTSTYLE:;
#DIFFICULTY:Beginner;
#METER:1;
#RADARVALUES:0.128494,0.173222,0.000000,0.038113,0.000000,118.000000,118.000000,0.000000,5.000000,0.000000,0.000000,0.000000,0.000000,0.000000,0.128494,0.173222,0.000000,0.038113,0.000000,118.000000,118.000000,0.000000,5.000000,0.000000,0.000000,0.000000,0.000000,0.000000;
#CREDIT:SHAYMIN;
#NOTES:
0000
0000
0000
0000
,
0000
0000
0000
0000
,
0010
0000
0010
0000
,
0100
0000
0100
0000
,
0001
0000
0001
0000
,
1000
0000
1000
0000
,
0100
0000
0010
0000
,
0100
0000
0010
0000
,
0001
0002
0000
0003
,
0100
0100
0000
0100
,
0010
0020
0000
0030
,
1000
1000
0000
0001
,
1000
2000
0000
3000
,
0001
0001
0000
0010
,
0010
0200
0000
0300
,
0010
0010
0000
0001
,
0100
0000
0010
0000
,
1000
0001
1000
0001
,
0010
0000
0001
0100
,
0001
0000
1000
0100
,
1000
0000
0001
0000
,
1000
0000
0010
0000
,
0100
0000
0010
1000
,
0010
0000
0100
0001
,
0100
0000
0010
0000
,
1000
0000
0001
0000
,
1000
0000
1000
0000
,
1000
0000
0001
0000
,
0010
0000
0010
0000
,
0010
0000
0100
0000
,
0010
0000
0001
0000
,
0100
0000
0010
0000
,
1000
1000
0100
0100
,
0010
0010
0001
0001
,
1000
0000
0100
1000
,
0100
0000
0010
0001
,
0010
0000
0001
0000
,
0100
0000
0010
0000
,
1000
0000
0001
1000
,
0001
0000
1000
0001
,
1000
0000
0010
0000
,
0100
0000
0010
0000
,
0000
1000
0000
1000
,
0001
0000
0100
0010
,
0100
0000
0001
0000
,
0010
0000
0001
0000
,
0100
0000
0010
1000
,
0010
0000
0100
0001
,
0100
0000
0010
0000
,
1000
0000
0100
0000
,
0020
0000
0030
0000
;

//---------------dance-single - ----------------
#NOTEDATA:;
#CHARTNAME:;
#STEPSTYPE:dance-single;
#DESCRIPTION:;
#CHARTSTYLE:;
#DIFFICULTY:Easy;
#METER:7;
#RADARVALUES:0.270055,0.269457,0.007623,0.129583,0.000000,248.000000,247.000000,1.000000,17.000000,0.000000,0.000000,0.000000,0.000000,0.000000,0.270055,0.269457,0.007623,0.129583,0.000000,248.000000,247.000000,1.000000,17.000000,0.000000,0.000000,0.000000,0.000000,0.000000;
#CREDIT:SHAYMIN;
#NOTES:
0000
0000
0000
0000
,
0000
0000
0000
0000
,
1000
1000
0100
1000
,
0001
0001
0100
0001
,
0010
0010
0100
1000
,
0010
0010
0100
0001
,
1000
0001
0100
0001
,
1000
0100
0010
0001
,
1000
1000
1000
0200
0000
0000
0300
0000
,
1000
0010
1000
0000
0001
0000
0010
0000
,
0001
0001
0001
0200
0000
0000
0300
0000
,
0010
1000
0001
0000
1000
0000
0100
0000
,
0010
0001
0010
0200
1000
0000
1300
0000
,
1000
0001
1000
0000
0001
1000
0001
0000
,
0010
0100
0010
0002
1000
0000
1003
0000
,
0100
0010
1000
0002
0000
0000
1003
0000
,
0100
0100
0010
0010
,
1000
0001
1000
0001
1000
0001
1000
0000
,
0002
0000
0103
0000
0010
0100
0010
0100
,
0020
0000
1030
0000
0001
1000
0100
0010
,
0001
0000
1000
0000
0100
1000
0100
0000
,
0010
0000
0001
0000
0100
0001
0100
0000
,
0020
0000
1030
0000
0001
0010
0100
0010
,
0002
0000
0103
0000
1000
0100
0010
0100
,
1000
0000
0010
0000
0100
0001
0100
0000
,
0010
1000
0001
1000
,
0100
0100
0010
0010
,
0001
0100
0001
0100
0001
0000
1000
0000
,
0001
0001
0010
0010
,
0001
0100
0010
0000
1000
0100
0010
0000
,
0001
0001
0010
0100
,
0001
0100
0010
1000
0001
1000
0001
0000
,
1000
0100
0001
0010
,
1000
0001
0010
0001
1000
0010
0100
0000
,
0020
0000
1030
0000
0001
0010
0001
0010
,
0002
0000
1003
0000
0001
0100
0010
1000
,
0001
0000
0010
0000
0100
1000
0100
0000
,
1000
0000
0010
0000
0100
0010
0100
0000
,
0002
0000
0013
0000
0100
1000
0100
1000
,
0200
0000
1300
0000
0010
0100
0001
0010
,
0100
0000
0010
0000
0001
0100
0010
0000
,
1000
0001
0100
0010
,
0000
0000
1001
0000
1000
0100
1000
0100
,
0020
0000
0031
0000
0001
0100
0001
0100
,
0010
0000
1000
0000
0001
0010
0100
0000
,
0010
0000
0001
0000
0100
0010
1000
0000
,
0002
0000
0103
0000
0010
1000
0001
1000
,
0020
0000
0130
0000
0001
0010
0100
1000
,
0001
0000
0100
0000
1000
0100
1000
0000
,
0001
0100
1000
0010
,
0200
0000
0300
0000
;

//---------------dance-single - ----------------
#NOTEDATA:;
#CHARTNAME:;
#STEPSTYPE:dance-single;
#DESCRIPTION:;
#CHARTSTYLE:;
#DIFFICULTY:Medium;
#METER:10;
#RADARVALUES:0.434484,0.423432,0.030490,0.312524,0.232487,399.000000,395.000000,4.000000,41.000000,0.000000,0.000000,0.000000,0.000000,0.000000,0.434484,0.423432,0.030490,0.312524,0.232487,399.000000,395.000000,4.000000,41.000000,0.000000,0.000000,0.000000,0.000000,0.000000;
#CREDIT:SHAYMIN;
#NOTES:
0000
0000
0000
0000
,
0000
0000
0000
0000
,
1000
0100
1000
0010
0100
0001
1000
0000
,
0001
0000
0010
0000
0100
0000
0010
0000
0001
0000
0100
0000
0010
0100
0010
0000
,
1000
0000
0000
1000
0100
0000
1000
0000
0001
0000
0100
0000
0010
0000
1000
0000
,
0001
0000
0000
0001
0010
0000
0001
0000
0100
0000
0010
0000
1000
0001
1000
0000
,
0010
0000
0000
0010
0100
0000
0001
0000
0100
0000
0010
0000
1000
0000
0100
0000
,
1000
0000
0000
1000
0001
0000
0100
0000
0010
0100
0010
0100
0001
0000
1000
0000
,
0010
0100
0001
1000
0010
0100
0002
0000
1000
0000
0000
0000
1003
0000
0000
0000
,
1000
0001
0100
0010
1000
0000
0001
0000
1000
0000
0100
0000
0010
0000
0001
0000
,
1000
0100
0010
0001
1000
0100
0020
0000
0000
0002
0000
0000
0033
0000
0000
0000
,
0001
0000
0100
0000
0010
0000
0100
0000
0001
1000
0001
1000
0001
0000
0010
0000
,
0100
0010
0001
1000
0100
0010
0002
0000
0000
0203
0000
0000
0320
0000
0000
0000
,
1030
0001
0010
0001
0100
0010
0000
0000
1000
0001
1000
0000
0010
0000
0100
0000
,
0001
0010
0100
1000
0001
0010
0200
0000
0000
2000
0000
0000
3300
0010
0100
0000
,
0001
1000
0001
0000
0100
0010
2000
0000
0100
0000
0010
0000
3100
0000
0000
0000
,
0001
0100
0001
0100
0010
1000
0010
1000
,
1001
0000
0001
0000
1001
0000
1000
0000
0010
0100
0010
0100
0020
0000
0000
0000
,
1030
0100
1000
0000
0010
0000
0100
0001
0100
0000
0010
0000
1000
0000
0001
0000
,
1000
0100
0010
0000
0100
0000
1000
0001
0100
0000
0100
0000
0010
0000
0010
0000
,
2000
0000
3100
0010
0001
0001
0100
0010
,
0200
0000
0000
0000
0302
0000
0000
0000
1003
0000
0100
0000
0010
0100
0010
0000
,
0001
1000
0001
0000
0010
0000
0100
1000
0100
0000
0010
0000
0001
0000
0100
0000
,
0010
1000
0010
0000
0100
0000
0001
1000
0001
0000
0100
0000
0010
0000
1000
0000
,
0002
0000
1003
0100
1000
1000
0010
0100
,
0002
0023
0230
2300
,
3001
0100
0001
0010
0100
0010
0001
1000
,
0010
0010
0100
0100
0001
1000
0001
1000
,
0100
0010
0010
0001
0010
0010
0100
1000
,
0001
1000
0001
0000
1000
0001
1000
0000
0001
0000
0001
0000
1000
0000
0010
0000
,
0100
0000
0001
0000
0100
0000
0010
0000
1000
0000
0010
0000
0100
0001
0100
0000
,
0010
0000
1000
0000
0010
0000
0100
0000
0001
0000
0100
0000
0010
1000
0010
0000
,
0100
0001
1000
0001
0100
0010
1000
0100
,
0020
0000
0032
0000
0103
0010
2002
3003
,
1000
0001
0010
0000
0001
0000
0100
0010
1000
0000
0001
0000
1000
0000
0010
0000
,
0100
0001
1000
0000
0001
0000
0100
0010
1000
0000
1000
0000
0001
0000
0001
0000
,
0020
0000
0130
1000
0010
0010
0100
0001
,
2000
0000
3200
0000
1300
0010
0200
0000
,
0301
0010
0001
0000
0100
0000
0010
1000
0010
0000
0100
0000
0001
0000
1000
0000
,
0100
0010
0001
0000
0100
0000
0010
1000
0100
0000
1000
0000
0010
0000
0100
0000
,
0002
0000
0013
0100
1000
1000
0010
0100
,
0020
2030
3002
0023
,
0030
0000
0110
0100
1000
0001
1000
0100
,
0010
0001
0100
0010
1000
0001
1000
0010
,
0200
0000
0301
0010
0001
0001
1000
1000
,
0020
0000
2030
0000
3001
0010
0200
0000
,
0310
0001
0010
0000
0100
0000
1000
0100
1000
0000
0010
0000
0100
0000
0001
0000
,
1000
0100
0010
0000
0100
0000
1000
0001
0100
0000
0010
0000
0100
0000
0001
0000
,
2000
0000
3100
0010
0100
0100
1000
0001
,
0200
0320
2030
3002
,
2000
0000
3003
0000
;

//---------------dance-single - ----------------
#NOTEDATA:;
#CHARTNAME:;
#STEPSTYPE:dance-single;
#DESCRIPTION:;
#CHARTSTYLE:;
#DIFFICULTY:Hard;
#METER:12;
#RADARVALUES:0.541200,0.558160,0.198186,0.556445,0.423051,497.000000,471.000000,26.000000,73.000000,13.000000,0.000000,0.000000,0.000000,0.000000,0.541200,0.558160,0.198186,0.556445,0.423051,497.000000,471.000000,26.000000,73.000000,13.000000,0.000000,0.000000,0.000000,0.000000;
#CREDIT:SHAYMIN;
#NOTES:
0000
0000
0000
0000
,
0000
0000
0000
0000
,
1000
0000
0001
0000
1000
0100
1000
0000
0001
0000
1000
0000
0001
0010
0001
0000
,
0100
0000
0010
0000
1000
0001
1000
0000
0001
0010
0100
1000
0010
0100
0001
1000
,
0010
0000
0000
1010
0000
0000
0110
0000
0100
0000
0001
0000
1001
0000
0000
0000
,
1000
0000
0000
1100
0000
0000
0110
0000
0010
0001
1000
0000
0001
0000
1000
0000
,
0010
0000
0000
1010
0000
0000
0110
0000
0100
0000
0001
0000
1001
0000
0000
0000
,
0010
0001
0010
0000
0100
1000
0100
0000
0010
0001
0010
0001
2000
0000
3100
0000
,
0010
0001
1000
0001
0010
0100
2000
0000
0000
0000
0000
0000
3010
0000
000M
0000
,
0100
0000
0010
0000
1000
0000
0010
0000
0100
0001
0100
0000
0010
0000
1000
0000
,
0001
0010
0100
1000
0010
0100
0002
0000
0000
0020
0003
0000
0130
0000
M000
0000
,
0100
0000
0010
0000
0001
0000
0010
0000
0100
1000
0001
0000
0100
0001
1000
0000
,
0010
1000
0001
0100
0010
1000
0200
0000
0000
0320
0000
0000
0032
0000
0M00
0000
,
1003
0000
0100
0000
1000
0000
0010
0000
0100
0001
0100
0000
0010
0000
1000
0000
,
0001
0010
0100
0010
0001
0100
0020
0000
0000
2030
0000
0000
3002
0000
0023
0000
,
0130
1000
0010
0100
0001
0010
0200
0000
1000
0000
1000
0000
1300
0000
0000
0000
,
1000
1000
0001
0001
1000
1000
0001
0001
,
0011
0001
1010
1000
0110
1001
0110
MMMM
,
1000
0100
0010
0001
1000
0000
0010
0100
0002
0000
0013
0000
2000
0000
3010
0000
,
0001
0100
0010
1000
0001
0000
0010
0100
2000
0000
3020
0000
0230
0000
0302
0000
,
1003
0100
0010
0100
1000
0000
0001
0000
0100
0000
0010
0000
1000
0001
1000
0000
,
0020
0000
0130
0000
0002
0000
0023
0030
0200
0000
1300
0000
0020
0000
0130
0000
,
0001
1000
0100
0010
0001
0000
1000
0010
0200
0000
0301
0000
0020
0000
0130
0000
,
1000
0010
0100
0010
1000
0000
0001
0010
0200
0000
2300
0000
3002
0000
0203
0000
,
0310
1000
0001
1000
0010
0000
0100
0000
0001
0000
1000
0000
0100
0010
0100
0000
,
2000
3010
0200
0301
0020
0130
2000
3001
,
0100
0100
0010
0010
1000
0001
0010
0001
,
0101
1100
0101
1100
0010
0001
0100
1000
,
0010
0000
1000
0000
0010
1000
0010
0000
0100
0000
0001
0000
0100
0001
0100
0000
,
1010
0000
0101
0000
0011
0000
1100
0000
0010
0001
0010
0001
1000
0100
1000
0100
,
0010
0000
0001
1000
0001
0000
0010
0000
0001
1000
0001
0000
0110
0000
1001
0000
,
0100
0000
0010
1000
0010
0000
0100
0001
1000
0000
0100
0000
0010
0001
1000
0000
,
0010
0000
0010
0100
0001
0000
0010
0000
0010
0100
1000
0000
0010
0000
0100
0000
,
0010
0000
1000
0001
0100
0000
0001
1000
0100
0000
0010
0000
1001
0000
MMMM
0000
,
0001
0100
0010
1000
0001
0000
0100
0010
2000
0000
3100
0000
0020
0000
0031
0000
,
0100
0010
1000
0001
0100
0000
0010
1000
0200
0000
0320
0000
0032
0000
2003
0000
,
3100
0010
0001
0010
0100
0000
1000
0000
0020
0000
0130
0000
0001
1000
0100
0010
,
0002
0103
0020
1030
0200
0310
0002
1003
,
0100
0010
0001
0010
0100
0000
1000
0010
0200
0000
0310
0000
2000
0000
3001
0000
,
1000
0100
0010
0100
1000
0000
0001
0100
0020
0000
2030
0000
3002
0000
0023
0000
,
0130
1000
0100
0010
0001
0000
1000
0010
0100
0000
0001
0000
0010
0100
1000
0000
,
0020
0130
0002
1003
0200
0310
0002
1003
,
0M00
0000
00M0
0000
2002
0000
3003
0000
1000
0100
0010
0001
1000
0000
0010
0000
,
0100
0001
0100
0000
0010
1000
0010
0000
0100
0001
1000
0001
0100
0010
1000
0000
,
0100
0010
0001
0000
0100
0000
0010
0000
0100
0010
1000
0000
0001
0010
0100
0000
,
0020
0031
0200
0310
2000
3001
0020
0130
,
0010
0001
1000
0010
0100
0000
0010
1000
0002
0000
0013
0000
2000
0000
3010
0000
,
0100
0001
0100
0010
1000
0000
0100
0010
0002
0000
0203
0000
0320
0000
2030
0000
,
3001
0010
0100
1000
0010
0000
0100
0010
2000
0000
3001
0000
0010
0100
1000
0001
,
0200
0310
2000
3001
0020
0130
2000
3001
,
0220
0000
0330
0000
;

//---------------dance-single - ----------------
#NOTEDATA:;
#CHARTNAME:;
#STEPSTYPE:dance-single;
#DESCRIPTION:;
#CHARTSTYLE:;
#DIFFICULTY:Challenge;
#METER:15;
#RADARVALUES:0.852635,0.846863,0.160073,0.525955,1.513073,783.000000,762.000000,21.000000,69.000000,27.000000,0.000000,0.000000,0.000000,0.000000,0.852635,0.846863,0.160073,0.525955,1.513073,783.000000,762.000000,21.000000,69.000000,27.000000,0.000000,0.000000,0.000000,0.000000;
#CREDIT:SHAYMIN;
#NOTES:
// measure 0
0000
0000
0000
0000
,  // measure 1
0000
0000
0000
0000
,  // measure 2
0010
0100
0010
0000
1000
0001
1000
0000
0001
0000
0100
0000
1000
0000
0010
0000
,  // measure 3
1000
0100
1000
0000
0001
0100
0001
0000
1000
0100
0010
0001
1000
0010
0100
0001
,  // measure 4
1000
0000
1000
0100
0000
0100
0010
0001
1000
0000
1010
0000
0110
0000
0100
0000
,  // measure 5
0001
0000
0000
0000
1000
0000
0100
0000
0000
0000
0010
0000
0001
0000
1000
0000
0010
0000
0000
0100
0000
0000
0010
0000
0110
0000
0000
0000
M00M
0000
0000
0000
,  // measure 6
1001
0000
1000
0100
0000
0001
0010
0100
1000
0000
1001
0000
0101
0000
0100
0000
,  // measure 7
0010
1000
0010
1000
0001
0010
0001
0010
0100
1000
0010
0100
0002
1000
1003
0010
,  // measure 8
M10M
0001
0100
0010
0100
1000
0200
0000
0010
0000
0010
0000
0310
0000
MMMM
0000
,  // measure 9
1000
0000
0001
0010
0001
0000
1000
0000
0010
0000
0100
0000
0000
0000
0100
0000
0010
0000
1000
0000
0001
0000
0010
0000
0001
0100
0001
0000
1000
0100
1000
0000
,  // measure 10
0010
0100
0010
1000
0010
0001
0020
0000
0100
0200
0030
0000
1300
0000
MMMM
0000
,  // measure 11
1000
0100
1000
0100
0001
0100
0001
0100
1000
0010
0100
0001
0010
0100
1000
0010
,  // measure 12
1000
0100
0001
0100
1000
0010
1020
0000
0130
0210
0000
0301
0202
0000
M3M3
0000
,  // measure 13
1000
0000
0000
0000
0000
0000
0000
0000
0000
0000
0000
0000
0100
0000
0000
0000
0000
0000
0010
0000
0000
0000
0000
0000
0100
0000
0000
0000
0000
0000
0000
0000
0000
0000
0000
0000
1000
0000
0000
0000
0000
0000
0000
0000
0000
0000
0000
0000
0010
0000
0000
0000
0000
0000
0000
0000
0000
0000
0000
0000
0100
0000
0000
0000
0000
0000
0000
0000
0000
0000
0000
0000
0000
0000
0000
0000
0000
0000
0000
0000
0000
0000
0000
0000
0100
0000
0000
0000
0000
0000
0000
0000
0000
0000
0000
0000
0001
0000
0000
0000
0000
0000
0000
0000
0000
0000
0000
0000
0010
0000
0000
0000
0000
0000
0000
0000
0000
0000
0000
0000
0001
0000
0000
0000
0000
0000
0000
0000
0000
0000
0000
0000
0100
0000
0000
0000
0000
0000
0000
0000
0000
0000
0000
0000
0010
0000
0000
0000
0000
0000
0000
0000
1000
0000
0000
0000
0000
0000
0000
0000
0100
0000
0000
0000
0000
0000
0000
0000
0010
0000
0000
0000
0000
0000
0000
0000
0000
0000
0000
0000
0001
0000
0000
0000
0000
0000
0000
0000
0000
0000
0000
0000
,  // measure 14
1000
0010
0001
0010
1000
0100
0020
0000
0001
0032
0000
0000
1003
0010
0100
0001
,  // measure 15
1000
0100
0001
0100
1000
0010
0200
0000
0010
0000
0010
0300
0110
0000
MMMM
0000
,  // measure 16
1000
1000
0100
0100
0010
0010
0001
0001
1000
1000
0010
0010
0100
0100
0001
0001
,  // measure 17
1000
0100
0001
0100
1000
0010
0001
0010
1000
0100
0010
0001
0110
1000
0001
0010
,  // measure 18
0001
0100
0001
0100
0010
0000
1000
0000
0001
0000
0000
0000
1000
0000
0001
0000
2000
0000
3100
0000
0020
0000
0130
0000
2000
0000
3010
0000
0200
0000
0301
0000
,  // measure 19
1000
0100
1000
0100
0010
0000
0001
0000
0100
0000
0000
0000
0010
0000
0010
0000
2000
0000
3001
0000
0020
0000
1030
0000
0020
0000
0031
0000
0200
0000
1300
0000
,  // measure 20
0010
0100
0010
1000
0001
0000
0010
0000
0001
0000
0100
0000
0010
0000
1000
0000
0001
0000
0010
0000
1000
0000
0010
0100
0001
0000
1000
0000
0100
0000
0001
0000
,  // measure 21
1000
0100
1000
0100
1000
0000
0010
0000
0102
0000
0000
0000
0013
0000
0000
0000
0001
0000
0100
0000
1000
0000
0100
0000
0110
0000
0010
0000
0001
0000
0010
0000
,  // measure 22
1000
0100
0010
0001
1000
0000
0010
0000
0100
0000
0010
0000
1000
0000
0001
0000
0020
0000
0130
0000
2000
0000
3001
0000
0020
0000
0031
0000
0200
0000
0310
0000
,  // measure 23
0010
0100
0001
1000
0010
0000
0100
0000
0010
0000
1000
0000
0001
0000
0010
0000
0200
0000
1300
0000
0020
0000
0130
0000
0002
0000
0013
0000
0200
0000
1300
0000
,  // measure 24
0001
0100
0010
0100
0001
0000
1000
0000
0100
0000
1000
0000
0010
0000
0100
0000
0001
0000
0010
0000
0001
0000
0100
0010
1000
0000
0001
0000
1000
0000
0100
0000
,  // measure 25
0001
0100
1000
0010
1020
0000
0130
0000
0201
0000
0310
0000
0220
0000
M33M
0000
,  // measure 26
0100
0100
0010
0010
0100
0010
0100
0010
1000
0001
0010
0001
1000
0010
0100
0001
,  // measure 27
2000
0000
3200
0000
0302
0000
0203
0000
2300
0000
3020
0000
0032
0000
0023
0000
1030
0000
0100
0000
0010
0000
0100
0000
1000
0001
0100
0000
0010
0000
0100
0000
,  // measure 28
0001
0000
1000
0000
1000
0000
1000
0000
1000
0000
1000
0000
0001
0000
0010
0000
0010
0000
0010
0000
0100
0000
0100
0000
1000
0001
0100
0000
0010
0000
1000
0000
,  // measure 29
0002
0023
0230
0320
0032
0203
0320
2030
3001
1000
0100
0001
1000
0010
0100
0001
,  // measure 30
1000
0000
0100
0000
0010
0000
0010
0000
0001
0000
0001
0000
1000
0000
0010
0000
0100
0000
0100
0000
0001
0000
0001
0000
1000
0100
0010
0000
0001
0010
0100
0000
,  // measure 31
1000
0000
0010
0000
0100
0000
0100
0000
0001
0000
0001
0000
1000
0000
0100
0000
0010
0000
0010
0000
0001
0000
0001
0000
1000
0001
1000
0001
1000
0010
0100
0000
,  // measure 32
1000
0000
0001
0000
0100
0000
1000
0000
0100
0000
0001
0000
1000
0000
0010
0000
0001
0000
0010
0000
1000
0100
0010
0000
0011
0000
0000
0000
1100
0000
0000
0000
,  // measure 33
0201
0000
0000
0000
0310
1000
0100
0010
0002
0000
0000
0000
0103
0010
1000
0001
0200
0000
0000
0000
0310
1000
0001
0100
0010
0000
0000
0000
MMMM
0000
0000
0000
,  // measure 34
1000
0100
0010
0001
1000
0000
0010
0000
0100
0000
0010
0000
1000
0000
0001
0000
2000
0000
3100
0000
0002
0000
0103
0000
2000
0000
3010
0000
0200
0000
0301
0000
,  // measure 35
1000
0100
0010
0100
1000
0000
0010
0000
0100
0000
0010
0000
1000
0000
0001
0000
0020
0000
0031
0000
0200
0000
0310
0000
2000
0000
3001
0000
0020
0000
0031
0000
,  // measure 36
0100
0010
1000
0010
0100
0000
0001
0000
1000
0000
0100
0000
0001
0000
0100
0000
1000
0000
0010
0000
0100
0000
0010
1000
0001
0000
0010
0000
0100
0000
1000
0000
,  // measure 37
0001
0100
0001
0100
0010
0000
1000
0000
0100
0000
1000
0000
0010
0000
0100
0000
0001
0000
1000
0000
0100
0000
0010
0001
1000
0000
0010
0000
0100
0000
0010
0000
,  // measure 38
1000
0100
0010
0100
1000
0000
0001
0000
0100
0000
1000
0000
0010
0000
0100
0000
0002
0000
0013
0000
0200
0000
0310
0000
0002
0000
0103
0000
0020
0000
1030
0000
,  // measure 39
0001
0010
0100
1000
0001
0000
0100
0000
0010
0000
1000
0000
0001
0000
1000
0000
0020
0000
0130
0000
0002
0000
0013
0000
0200
0000
1300
0000
0020
0000
0130
0000
,  // measure 40
0001
1000
0100
1000
0001
0000
0100
0000
0010
0000
1000
0000
0001
0000
1000
0000
0010
0000
0100
0000
0010
0000
1000
0001
0010
0000
0001
0000
0100
0000
1000
0000
,  // measure 41
0010
1000
0010
1000
0010
0000
0100
0000
0001
0100
0001
0100
0001
0000
0010
0000
0100
1000
0001
0100
0010
0000
1000
0000
0001
0010
0100
1000
0001
0000
0100
0000
,  // measure 42
0000
00M0
0M00
00M0
1000
0100
0010
1000
0010
0100
1000
0001
0100
1000
0010
0100
,  // measure 43
0001
0010
0100
0001
0100
0010
0001
0100
0010
1000
0001
1000
0010
0100
0001
1000
,  // measure 44
0100
0010
0001
0010
0100
0000
1000
0000
0010
0000
0100
0000
0010
0000
1000
0000
0001
0000
0010
0000
1000
0000
0010
0001
1000
0000
0010
0000
0100
0000
0010
0000
,  // measure 45
1000
0100
0010
0100
1000
0000
0001
0000
0100
0000
0010
0000
1000
0000
0001
0000
1000
0100
1000
0000
0001
0000
0100
0000
0010
0000
1000
0000
0001
0000
1000
0000
,  // measure 46
0010
0100
1000
0100
0010
0001
0100
1000
0010
0100
0010
1000
0001
0010
0100
0001
,  // measure 47
0100
0010
1000
0001
1000
0010
0100
0010
0001
0100
0010
1000
0100
0010
0001
1000
,  // measure 48
0100
0100
1000
1000
0010
0010
0100
0100
0001
0010
0001
0100
0010
1000
0100
1000
,  // measure 49
0010
0100
0010
0000
1000
0000
0001
0000
0010
0100
0010
0000
0001
0000
1000
0000
0010
0100
0001
0000
0010
0100
1000
0000
1001
0000
0010
0000
0100
0000
0010
0000
,  // measure 50
2002
0000
3003
0000
;
