#VERSION:0.83;
#TITLE:The Nexus;
#SUBTITLE:;
#ARTIST:Amaranthe;
#TITLETRANSLIT:;
#SUBTITLETRANSLIT:;
#ARTISTTRANSLIT:;
#GENRE:;
#ORIGIN:;
#CREDIT:;
#BANNER:the-nexus-bn.png;
#BACKGROUND:the-nexus-bg.png;
#PREVIEWVID:;
#JACKET:the-nexus-jacket.png;
#CDIMAGE:;
#DISCIMAGE:;
#LYRICSPATH:;
#CDTITLE:pecd.png;
#MUSIC:The Nexus.ogg;
#OFFSET:-0.012000;
#SAMPLESTART:45.726002;
#SAMPLELENGTH:12.000000;
#SELECTABLE:YES;
#BPMS:0.000=210.000;
#STOPS:;
#DELAYS:;
#WARPS:;
#TIMESIGNATURES:0.000=4=4;
#TICKCOUNTS:0.000=4;
#COMBOS:0.000=1;
#SPEEDS:0.000=1.000=0.000=0;
#SCROLLS:0.000=1.000;
#FAKES:;
#LABELS:0.000=Song Start;
#BGCHANGES:;
#KEYSOUNDS:;
#ATTACKS:
;

//---------------dance-single - ----------------
#NOTEDATA:;
#CHARTNAME:;
#STEPSTYPE:dance-single;
#DESCRIPTION:;
#CHARTSTYLE:;
#DIFFICULTY:Beginner;
#METER:7;
#RADARVALUES:0.224057,0.384027,0.028387,0.127743,0.000000,221.000000,217.000000,4.000000,18.000000,0.000000,0.000000,0.000000,0.000000,0.000000,0.224057,0.384027,0.028387,0.127743,0.000000,221.000000,217.000000,4.000000,18.000000,0.000000,0.000000,0.000000,0.000000,0.000000;
#CREDIT:SHAYMIN;
#NOTES:
0000
0000
0000
0000
,
0000
0000
0000
0000
,
0000
0000
0000
0000
,
0000
0000
0000
0000
,
0000
0000
0000
0000
,
0000
0000
0000
0000
,
0000
0000
0000
0000
,
0000
0000
0000
0000
,
1000
1000
0000
0000
,
0001
0001
0000
0000
,
1000
1000
0000
0000
,
0001
0000
1000
0000
,
0010
0010
0000
0000
,
0100
0100
0000
0000
,
0010
0010
0000
0000
,
0100
0000
0010
0000
,
0100
0100
0100
0000
,
1000
0000
0001
0000
,
1000
1000
1000
0000
,
0001
0000
1000
0000
,
0010
0010
0100
0100
,
0010
0100
0010
0100
,
0001
1000
0001
0001
,
1000
0001
1000
0001
,
0000
0010
0000
0010
,
0100
0010
0100
0010
,
0000
1000
0000
0001
,
1000
0000
0001
0000
,
0000
1000
0000
0001
,
1000
0100
0010
0001
,
0000
1000
0000
0010
,
0100
0000
0010
0000
,
0020
0000
0030
0000
,
2000
0000
3000
0000
,
0001
0000
0010
0000
,
0100
0000
1000
0000
,
0002
0000
0003
0000
,
0200
0000
0300
0000
,
0010
0000
0010
0000
,
0100
0000
0000
0000
,
1001
0000
0001
0000
,
1000
0000
0001
0000
,
0010
0000
0010
0000
,
0100
0000
0010
0000
,
0002
0000
0003
0000
,
2000
0000
3000
0000
,
0010
0000
0010
0000
,
0100
0000
0010
0000
,
1001
0000
0100
0000
,
0010
0000
0100
0000
,
0001
0000
0010
0000
,
0100
0000
1000
0000
,
0002
0000
0003
0000
,
0200
0000
0300
0000
,
0010
0000
1000
0000
,
0001
0000
1000
0000
,
0010
0010
0000
0010
,
0010
0000
0010
0010
,
0000
0010
0010
0000
,
1000
0001
1000
0000
,
0100
0100
0000
0100
,
0100
0000
0100
0100
,
0000
0100
0100
0000
,
1000
0001
1000
0000
,
0010
0000
0100
0000
,
0010
0000
0100
0000
,
0001
0000
1000
0000
,
0001
0000
1000
0000
,
0100
0000
1000
0000
,
0001
0000
1000
0000
,
0100
0000
0010
0000
,
0001
0000
1000
0000
,
0020
0000
0000
0000
,
0030
0000
0010
0000
,
1000
0000
1000
0000
,
1000
0000
1000
0000
,
0200
0000
0000
0000
,
0300
0000
0010
0000
,
0001
0000
0001
0000
,
0001
0000
0001
0000
,
0200
0000
0000
0000
,
0300
0000
0010
0000
,
1000
0000
0001
0000
,
1000
0000
0001
0000
,
0020
0000
0000
0000
,
0030
0000
0100
0000
,
1000
0000
0100
0000
,
0010
0000
0001
0000
,
2000
0000
0000
0000
,
0000
0000
0000
0000
,
3000
0000
0000
0000
,
0001
0000
0000
0000
,
0002
0000
0000
0000
,
0000
0000
0003
0000
,
0001
0001
0000
1000
,
1000
0000
0001
0000
,
1001
0000
0100
0000
,
0010
0000
0100
0000
,
0010
0000
1000
0000
,
0010
0000
1000
0000
,
0200
0000
0300
0000
,
2000
0000
3000
0000
,
0001
0000
0010
0000
,
0100
0000
1000
0000
,
1001
0000
0010
0000
,
0100
0000
0010
0000
,
1000
0000
0001
0000
,
0010
0000
0001
0000
,
0200
0000
0300
0000
,
0002
0000
0003
0000
,
0010
0000
0100
0000
,
1000
0000
0001
0000
,
1000
1000
0000
0000
,
0100
0100
0000
0000
,
0010
0010
0000
0000
,
0001
0000
0010
0000
,
0001
0001
0000
0000
,
0100
0100
0000
0000
,
0010
0010
0000
0000
,
1000
0000
0010
0000
,
0100
0100
0000
0000
;

//---------------dance-single - ----------------
#NOTEDATA:;
#CHARTNAME:;
#STEPSTYPE:dance-single;
#DESCRIPTION:;
#CHARTSTYLE:;
#DIFFICULTY:Easy;
#METER:11;
#RADARVALUES:0.524152,0.725385,0.269679,0.205808,0.000000,517.000000,479.000000,38.000000,29.000000,0.000000,0.000000,0.000000,0.000000,0.000000,0.524152,0.725385,0.269679,0.205808,0.000000,517.000000,479.000000,38.000000,29.000000,0.000000,0.000000,0.000000,0.000000,0.000000;
#CREDIT:SHAYMIN;
#NOTES:
0000
0000
0000
0000
,
0000
0000
0000
0000
,
0000
0000
0000
0000
,
0000
0000
0000
0000
,
0000
0000
0000
0000
,
0000
0000
0000
0000
,
0000
0000
0000
0000
,
0000
0000
0000
0000
,
1000
1000
0001
0010
,
0001
0001
0100
0010
,
0100
0100
0001
1000
,
0001
1000
0001
1000
0001
0000
0010
0000
,
0001
0001
0100
0010
,
1000
1000
0100
1000
,
0010
0010
0100
0001
,
1000
0100
1000
0000
0001
0100
0001
0000
,
1000
0100
2000
3000
,
0001
0100
0010
0000
1000
0000
0001
0000
,
1000
0010
0200
0300
,
0001
0010
0100
0010
0001
0000
0100
0000
,
1000
0000
0001
0010
0001
0000
0100
0000
,
0010
1000
0010
0000
0100
0000
0001
1000
,
0001
0000
0010
0000
0100
1000
0001
0000
,
0100
0010
1000
0001
0010
0100
1000
0000
,
0001
0100
1000
1000
,
0100
0001
0010
0001
,
0100
0010
0010
1000
,
2200
3300
2002
3003
,
0001
0100
0100
1000
,
0010
0010
0001
1000
,
0001
0010
0100
1000
,
2020
3030
0220
0330
,
0001
0000
1000
0000
0100
0000
0001
0200
,
0000
0000
0310
0000
1000
0000
0001
1000
,
0000
0001
1000
0000
0100
0000
1000
0000
,
0010
0100
0001
1000
,
0001
0000
0010
0000
0001
0000
0100
0020
,
0000
0000
1030
0000
0001
0000
0010
0001
,
0020
0000
0001
0000
,
0200
0000
0000
0330
,
1000
0000
0001
0000
0100
0001
0000
1001
,
0000
0001
0100
0000
1000
0000
0010
1000
,
0000
0001
0000
0010
0000
0001
0000
0100
,
0000
0010
1000
0000
1000
0000
0100
0000
,
0010
0000
0001
1000
0001
0000
0010
0000
,
0100
0000
1000
0001
1000
0000
0100
0000
,
0010
0000
0001
0100
0010
0000
1000
0000
,
0100
0010
0100
0000
1000
0001
1000
0000
,
0100
0000
0010
0000
0001
0100
0000
0101
,
0000
0100
0001
0000
0010
0000
0100
1000
,
0000
0010
0000
0100
0000
0010
0000
1000
,
0000
0100
0010
0000
0001
0000
0010
0000
,
0100
0000
1000
0010
1000
0000
0100
0000
,
0010
0000
0001
0100
0001
0000
0010
0000
,
0100
0000
1000
0001
0100
0000
0010
0000
,
1000
0001
0010
0100
1000
0000
0000
0000
,
0101
0101
1000
1100
,
1100
0001
0011
0011
,
0001
1010
1010
1000
,
0110
0110
1000
1001
,
1001
1001
0001
0101
,
0101
0100
0110
0110
,
0010
1010
1010
1000
,
1001
0000
0011
0000
0100
1000
0001
0000
,
0201
0000
0010
0310
,
1000
0000
0100
1000
0001
0000
0100
0000
,
0010
0000
1000
0001
0010
0000
0100
0000
,
1000
0010
1000
0000
2020
0000
3030
0000
,
0001
0100
0010
0010
,
1000
0001
0010
0000
1100
0000
0101
0000
,
1000
0100
1000
0000
0001
0100
0001
0000
,
0010
0100
0010
0100
0010
0000
0001
0000
,
0100
0000
0010
1000
0001
0100
0010
2000
,
0000
0001
0001
3001
,
1000
0100
0001
0010
,
0001
0100
1000
0010
,
0100
0001
0100
0000
0010
0000
0010
2000
,
0000
0100
0100
3100
,
0001
0100
1000
0010
,
1000
0100
0001
0010
,
0001
0000
0010
0001
0100
0010
1000
0002
,
0000
1000
1000
1003
,
1000
0100
1000
0000
0001
0100
0001
0000
,
1000
0010
0100
0001
1000
0000
0100
0000
,
0020
0000
0030
0000
0001
0000
0100
0002
,
0000
0003
1000
0100
,
1000
0010
1000
0010
1000
0010
1000
0010
,
0100
0001
0100
0001
0100
0001
0100
0001
,
0020
0000
0000
0000
,
0000
0000
0000
0000
,
0230
0000
0000
0000
,
0000
0000
0000
0000
,
2300
0000
0000
0000
,
0000
0000
3000
0000
,
0101
0000
1100
0000
,
2002
0000
0000
3003
,
1000
0000
0100
0000
0010
0001
0000
1001
,
0000
0001
0010
0000
0100
0000
1000
0001
,
0000
0100
0000
0001
0000
0010
0000
0100
,
0000
1000
0010
0000
0100
0000
0010
0000
,
1000
0000
0001
0010
0100
0000
0010
0000
,
0001
0000
0100
0010
1000
0000
0001
0000
,
1000
0000
0100
0010
0001
0000
0100
0000
,
0010
0010
1000
1000
,
0001
0000
0010
0000
0100
1000
0000
1001
,
0000
1000
0100
0000
0010
0000
0001
0100
,
0000
1000
0000
0100
0000
0001
0000
0010
,
0000
0001
0100
0000
0100
0000
0010
0000
,
1000
0000
0100
0010
0001
0000
0010
0000
,
0100
0000
1000
0010
0100
0000
0010
0000
,
1000
0000
0001
0010
0001
0000
0100
0000
,
0010
1000
0010
0100
0010
1000
0010
0000
,
0100
0100
0001
0010
,
0001
0001
0100
1000
,
0010
0010
1000
0100
,
0010
0001
0010
0001
0010
0000
0100
0000
,
1000
1000
0010
1000
,
0001
0001
0010
0001
,
0200
0000
0020
0330
,
0001
0010
0001
0000
1000
0010
1000
0000
,
1001
1001
0000
0000
;

//---------------dance-single - ----------------
#NOTEDATA:;
#CHARTNAME:;
#STEPSTYPE:dance-single;
#DESCRIPTION:;
#CHARTSTYLE:;
#DIFFICULTY:Medium;
#METER:13;
#RADARVALUES:0.666088,0.768054,0.333551,0.212905,0.000000,657.000000,610.000000,47.000000,30.000000,0.000000,0.000000,0.000000,0.000000,0.000000,0.666088,0.768054,0.333551,0.212905,0.000000,657.000000,610.000000,47.000000,30.000000,0.000000,0.000000,0.000000,0.000000,0.000000;
#CREDIT:SHAYMIN;
#NOTES:
0000
0000
0000
0000
,
0000
0000
0000
0000
,
0000
0000
0000
0000
,
0000
0000
0000
0000
,
0000
0000
0000
0000
,
0000
0000
0000
0000
,
0000
0000
0000
0000
,
0000
0000
0000
0000
,
0010
0100
0010
0000
1000
0001
0000
0001
,
0010
0100
1000
0000
0001
0100
0000
0100
,
0010
1000
0001
0000
1000
0100
0000
0100
,
0010
0001
0010
0100
1000
0010
0100
0001
,
1000
0100
0010
0000
0100
1000
0000
0001
,
0100
0010
1000
0000
0100
0010
0000
0001
,
0100
0010
0100
0000
0001
0010
0000
0100
,
1000
0001
1000
0100
0010
0001
0100
0010
,
1000
0100
1100
0001
,
0100
0001
0100
0001
1000
0100
0010
0000
,
0001
0100
0101
1000
,
0100
1000
0010
0100
0001
0010
0100
0000
,
1000
0000
0001
0010
0100
0000
0010
0001
,
0100
0010
1000
0000
0100
1000
0010
0100
,
0001
0000
1000
0100
0001
0100
1000
0000
,
0010
0100
0010
0100
0001
1000
0100
0010
,
0001
0001
0100
0100
,
1000
0000
0010
0001
0010
0000
1000
0000
,
0100
1000
1000
0010
,
1020
0130
0220
0330
,
1000
0000
0001
0100
0010
0000
1000
0000
,
0100
0010
0001
0000
1000
0000
0001
0000
,
1000
0000
0001
0010
0100
0000
1000
0000
,
0010
0100
0001
0100
0010
1000
0100
1000
,
0010
0000
0100
0000
0001
0000
1000
0200
,
0000
0000
0310
0000
0001
0000
1000
0020
,
0000
0100
1000
0130
,
0001
1000
0100
1000
0001
0100
0001
1000
,
0001
0000
0010
0000
0100
0000
1000
0020
,
0000
0000
0130
0000
0001
0000
1000
0200
,
0020
0330
0110
0000
,
2002
0000
3003
0000
,
1000
0100
1000
0000
0010
0100
0001
0100
,
0010
1000
0001
0000
1000
0000
0100
1000
,
0000
1001
0000
1010
0000
0110
0000
0102
,
0000
0000
1000
1003
,
0001
0000
1000
0100
0001
0000
1000
0000
,
0001
0000
1000
0010
0001
0000
0100
0000
,
0010
1000
0100
0010
0000
0010
0001
0000
,
0100
0010
1000
0010
0100
0001
1000
0001
,
0100
0010
0100
0000
0001
0010
0100
0010
,
0001
0100
0010
0000
1000
0100
0010
0001
,
0000
0011
0000
1100
0000
1010
0000
0120
,
0000
1000
0100
1030
,
0100
0000
0001
0100
1000
0000
0010
0000
,
1000
0000
0001
0010
1000
0000
0001
0000
,
1000
0100
1000
0100
1000
0001
1000
0001
,
1000
0010
0100
0001
1000
0000
0000
0000
,
1100
0000
0101
0000
0010
1000
0100
0000
,
1001
0000
0010
0001
0100
0000
1001
0000
,
0010
0001
0010
0000
0100
1000
0100
0000
,
0010
0001
0010
0001
1000
0100
0010
0000
,
0011
0000
1100
0000
0010
0001
0100
0000
,
1001
0000
0010
1000
0100
0000
1001
0000
,
0010
1000
0010
0000
0100
0001
0100
0000
,
0010
1000
0010
1000
0001
0100
0010
0000
,
2002
3003
1100
1100
,
0001
0100
0010
0000
1010
0000
1010
0000
,
1000
0000
0001
0010
0100
0010
0001
0000
,
1000
0100
0001
0100
2000
0000
3000
0000
,
0202
0303
1010
1010
,
0010
1000
0100
0000
1100
0000
1100
0000
,
0010
0000
0100
0001
1000
0001
0100
0000
,
0010
1000
0100
0010
0001
0100
0010
1000
,
0002
0000
1000
0000
1000
0000
1003
2000
,
0000
0001
0100
3001
,
1000
0100
1000
0001
0100
0001
1000
0010
,
0100
0001
0010
0001
0100
0010
1000
0001
,
0010
0100
1000
0100
0010
0100
1000
0200
,
0000
0000
0300
0000
0010
0001
1000
0010
,
0100
0001
0000
0100
1000
0000
0010
0002
,
0000
0000
0103
0010
1000
0001
0100
0000
,
0010
0000
1000
0100
0001
0100
1000
0020
,
0000
0000
0130
0001
1000
0010
0100
0000
,
0001
0010
0001
0100
0001
0010
0001
0100
,
0010
1000
0100
1000
0010
1000
0100
1000
,
0020
0000
0030
0000
0100
0001
1000
0020
,
0000
0100
1000
0130
,
0001
0010
0100
1000
0010
0100
0001
1000
,
0010
0100
0001
1000
0100
0010
0001
1000
,
0020
0000
0000
0000
,
2000
0000
0000
0030
,
0002
0000
0000
3000
,
0020
0000
0000
0033
,
0000
0000
0100
0000
1000
0000
0001
0100
,
0000
0000
0010
0000
1001
0000
0001
0010
,
0011
0000
0011
0000
0100
1000
1001
0000
,
1000
0100
0010
0001
1001
0000
0000
0000
,
1000
0100
0010
0000
0100
1000
0001
1000
,
0100
0010
0001
0000
0100
0010
1000
0001
,
0000
0011
0000
0110
0000
1100
0000
1002
,
0000
0000
0100
0103
,
0010
0000
1000
0100
0010
0000
0100
0000
,
1000
0000
0001
0100
0010
0000
0100
0000
,
0001
0010
0001
0100
0000
0100
0010
0000
,
1000
0100
1000
0001
0010
0100
1000
0001
,
0100
0010
0100
0000
0001
0010
0100
0010
,
0001
0100
0010
0000
1000
0001
0010
0001
,
0000
0101
0000
0110
0000
1010
0000
2001
,
0000
0000
0100
0000
0010
0000
0100
3000
,
0010
0000
0001
0100
0010
0000
1000
0000
,
0001
0000
1000
0010
0100
0000
0001
0000
,
1000
0100
0010
0000
0001
0100
0010
0000
,
1000
0100
0010
0001
0100
0010
0100
0000
,
0001
0010
0001
0000
0100
0010
0000
0010
,
1000
0100
0010
0000
0001
1000
0000
1000
,
0100
0010
0001
0000
0100
0010
0000
0010
,
0100
0001
0010
0001
0100
0010
1000
0100
,
1000
0010
0100
0000
1000
0010
0100
0000
,
0001
0010
0100
0000
0001
0010
0100
0000
,
1000
0001
0100
0001
1000
0100
1000
0010
,
0100
0001
1000
0100
1000
0010
0100
0000
,
1001
1001
0000
0000
;

//---------------dance-single - ----------------
#NOTEDATA:;
#CHARTNAME:;
#STEPSTYPE:dance-single;
#DESCRIPTION:;
#CHARTSTYLE:;
#DIFFICULTY:Hard;
#METER:17;
#RADARVALUES:0.880007,1.066742,0.241292,0.333551,0.322906,868.000000,834.000000,34.000000,47.000000,8.000000,0.000000,0.000000,0.000000,0.000000,0.880007,1.066742,0.241292,0.333551,0.322906,868.000000,834.000000,34.000000,47.000000,8.000000,0.000000,0.000000,0.000000,0.000000;
#CREDIT:SHAYMIN;
#NOTES:
0000
0000
0000
0000
,
0000
0000
0000
0000
,
0000
0000
0000
0000
,
0000
0000
0000
0000
,
0000
0000
0000
0000
,
0000
0000
0000
0000
,
0000
0000
0000
0000
,
0000
0000
0000
0000
,
1000
0100
0000
0000
0100
1000
0000
0000
0010
0000
0100
0001
0100
0000
0010
0000
,
1000
0001
0000
0000
0001
1000
0000
0000
0010
0000
1000
0001
1000
0000
0010
0000
,
0100
0001
0000
0000
0001
0010
0000
0000
0100
0000
1000
0001
1000
0000
0100
0000
,
0010
0001
0100
0010
0100
0001
0010
0100
,
1000
0010
0000
0000
0010
1000
0000
0000
0100
0000
0010
0001
0010
0000
0100
0000
,
1000
0010
0000
0000
0010
0100
0000
0000
0001
0000
0010
0100
0010
0000
0001
0000
,
0100
0010
0000
0000
0010
1000
0000
0000
0001
0000
1000
0100
1000
0000
0001
0000
,
0100
0010
1000
0100
1000
0010
0100
0001
,
1000
0100
0001
0000
0110
0000
1000
0000
,
0001
0010
1000
0010
0001
0100
1000
0000
,
0010
0100
0001
0000
0011
0000
0010
0000
,
0100
1000
0010
0001
1000
0100
0001
0000
,
0001
0100
1000
0000
0110
0000
1000
0100
,
0001
0100
0110
0000
1000
0010
0001
0000
,
0110
0000
0001
0010
1000
0010
0110
0000
,
1000
0100
0010
0100
1000
0001
0100
0010
,
1000
0100
0020
0000
0032
0000
0203
0000
,
2300
0000
3100
0001
0102
0000
0013
0000
,
1000
0000
0000
0000
0002
0000
0000
0000
0023
0000
0000
0000
2030
0000
0000
3000
,
1020
0000
0130
0100
0101
0100
0010
1000
,
0001
2000
3200
0302
,
0023
0000
0130
1000
1002
0000
0103
0000
,
0010
1000
0001
1000
0010
0100
0001
1000
,
0100
0010
0100
1000
0010
0001
0010
1000
,
0100
0000
0000
0000
1000
0100
1000
0000
0100
1000
0100
0000
0010
0000
0002
0000
,
0000
0000
0000
0000
0103
0000
0000
0000
0010
1000
0010
0000
0100
0000
0001
0000
,
2000
0000
0100
0100
3002
0000
0100
0100
,
1003
0010
0001
0010
1000
0100
0001
0100
,
1000
0000
0000
0000
0010
0100
0010
0000
0100
0010
0100
0000
0001
0000
0020
0000
,
0000
0000
0130
0000
1000
0100
0010
0001
,
1001
0000
0100
0000
0101
0000
0010
1000
,
0020
1000
0000
0000
2000
0000
3030
0000
,
1000
0100
0001
1000
0010
0010
0001
1000
,
0001
0100
0010
1000
0001
1000
0010
0100
,
0001
0100
0010
0100
1000
0100
0010
0100
,
0001
1000
0100
1000
0001
0100
0001
1000
,
0100
0100
0001
1000
0010
0010
0001
1000
,
0010
0010
1000
0001
0100
0100
1000
0001
,
1000
0100
1000
1000
0001
0100
0001
0001
,
0010
0000
0100
0000
1000
0000
0100
0000
0001
0000
0100
0000
0010
0000
1000
0001
,
0010
0001
1000
0010
1000
0001
0010
0001
,
0100
0010
1000
0100
1000
0010
0100
0010
,
0001
0010
0100
0010
1000
0010
0100
0010
,
0001
1000
0100
0100
1000
1000
0001
0001
,
0100
0100
1000
0010
0001
0001
0010
1000
,
0100
0100
0001
0010
1000
1000
0010
0001
,
0100
0000
0010
0000
1000
0000
0010
0000
0100
0000
0001
0000
0100
0010
0100
0010
,
1000
0001
0010
0001
1001
0000
0000
0000
,
1000
0100
1000
0000
0100
1000
0100
0000
0010
0000
0001
0000
0100
0001
0100
0000
,
0001
0100
0001
0000
1000
0000
0001
0000
1000
0000
0100
0000
0001
0000
0100
0000
,
1000
0100
1000
0000
0010
0000
0100
0000
0001
0100
0001
0000
0010
0000
0100
0000
,
1000
0001
0010
0000
0001
0000
0100
0000
1000
0000
0100
0000
0001
0000
0010
0000
,
0100
1000
0100
0000
1000
0100
1000
0000
0010
0000
0100
0000
0001
0100
0001
0000
,
0100
0001
0100
0000
0001
0000
0100
0000
0010
0000
0100
0000
1000
0000
0100
0000
,
0010
0001
1000
0000
0001
0000
0010
0000
0100
1000
0001
0000
1000
0000
0100
0000
,
0010
0000
0001
0000
0100
0000
0010
0000
2000
0000
3200
0000
0302
0000
0023
0030
,
0012
0000
MM00
0003
1010
0000
0101
0000
,
1000
0100
0001
0100
1000
0010
0001
0000
,
1000
0000
0010
1000
0100
0010
0001
0000
,
0101
0110
2020
3M3M
,
0010
0100
0010
0000
1000
0001
0010
0000
,
0100
0000
1000
0000
0001
0000
1000
0000
0010
0000
0100
0000
0001
0000
1000
0100
,
0010
0001
0100
0010
1010
1000
0001
0010
,
0011
0010
0100
0000
1100
1000
0001
0100
,
0020
0000
0000
0000
1030
0010
1000
0010
0100
0001
0100
0001
0100
0001
0100
0000
,
0010
1000
0001
1000
0010
0100
0001
1000
,
0001
0000
0100
0000
0010
0000
1000
0000
0000
0001
0000
0000
1000
0000
0000
0100
0000
0000
0001
0000
0000
0100
0000
0000
,
1000
0000
0010
0000
0100
0000
0001
0000
0010
0000
0001
0100
0010
0000
1000
0000
,
0001
0000
1000
0000
0001
0000
1000
0000
0000
0010
0000
0000
0100
0000
0000
0001
0000
0000
1000
0000
0000
2002
0000
0000
,
0000
0000
0000
3003
0001
0100
1000
0100
,
0002
0010
1003
2000
0010
3001
0100
0120
,
0000
0000
0000
0000
1030
0010
0100
0000
0001
0100
0010
0000
1000
0001
0010
0100
,
0020
0000
0000
0000
0031
0010
0001
0010
0100
1000
0100
1000
0100
1000
0100
0000
,
0010
0001
0100
0010
0100
0001
0010
0100
,
1000
0000
0001
0000
0100
0000
0010
0000
0000
1000
0000
0000
0100
0000
0000
0001
0000
0000
0100
0000
0000
0120
0000
0000
,
0000
1030
0100
1000
0010
0100
0001
1000
,
0100
0000
0000
0000
1000
0000
0000
0000
0100
0000
0000
0000
2000
0000
0000
0000
0000
0000
0000
0000
0000
0000
0000
0000
3010
0000
0000
0000
0000
0000
0001
0000
0000
0100
0000
0000
0010
0000
0000
1000
0000
0000
0002
0000
0000
0000
0000
0000
,
0000
0000
0000
0000
0000
0000
0000
0000
0103
0000
0010
1000
0010
1000
0010
0000
,
0100
0001
0100
0001
0100
0010
0100
0010
0100
1000
0100
1000
0100
0010
0200
0000
,
0000
0010
0010
0310
1000
0010
0001
0010
,
1002
0000
0000
0000
,
0200
0000
0000
0003
,
0020
0000
0000
0300
,
2000
0000
0000
3030
,
0001
0000
0010
0000
1000
0000
0010
0100
,
0010
0000
0000
0000
0000
0000
0000
0000
1000
0000
0000
0000
0000
0000
0000
0000
0002
0003
0000
0000
0000
0000
0000
0000
1000
0000
0000
0000
0100
0000
0010
0000
,
0001
0000
0101
0000
0010
1000
1001
0000
,
0220
0330
2002
3003
,
1000
0100
0010
0001
0100
0001
0010
0100
,
1000
0010
0100
0010
1000
0001
0010
0100
,
1000
0100
0010
0100
0001
0100
0010
0100
,
1000
0010
0001
0010
1000
0100
0001
0100
,
1000
1000
0010
0100
0001
0001
0100
0010
,
1000
1000
0100
0010
0100
0100
0010
0001
,
0100
0010
0100
0001
1000
0001
0100
0010
,
1000
0000
0010
0000
0100
0000
0001
0000
0100
0000
0010
0000
1000
0000
0001
1000
,
0010
0001
0100
0010
0100
0001
0010
0100
,
1000
0001
1000
0100
0010
0001
0100
0010
,
1000
0010
0100
0010
0001
0010
0100
0010
,
1000
0001
0010
0001
0100
0001
1000
0100
,
0010
0010
0001
1000
0100
0100
1000
0010
,
0001
0001
0100
1000
0010
0010
1000
0100
,
0010
0001
0100
0010
1000
0100
0010
0100
,
1000
0000
0010
0000
0100
0000
0001
0000
1000
0001
1000
0000
0001
1000
0001
0000
,
1000
0100
0000
0000
0100
1000
0000
0000
0010
0000
1000
0001
1000
0000
0010
0000
,
0100
0001
0000
0000
0001
0100
0000
0000
0001
0000
0010
0100
0010
0000
0001
0000
,
0100
0010
0000
0000
0010
1000
0000
0000
0001
0000
1000
0100
1000
0000
0001
0000
,
0100
1000
0100
0001
0010
1000
0010
0001
,
0100
0001
0100
0000
0001
0100
0001
0000
0010
0000
0010
0000
0100
0000
0100
0000
,
1000
0100
1000
0000
0100
1000
0100
0000
0010
0000
0010
0000
0100
0000
0100
0000
,
1100
00MM
0101
M0M0
,
1000
0100
0001
0100
1000
0010
0100
0001
,
1001
1001
0000
0000
;

//---------------dance-single - ----------------
#NOTEDATA:;
#CHARTNAME:;
#STEPSTYPE:dance-single;
#DESCRIPTION:;
#CHARTSTYLE:;
#DIFFICULTY:Challenge;
#METER:19;
#RADARVALUES:1.037151,1.365430,0.688392,0.369035,0.500326,1023.000000,926.000000,97.000000,52.000000,15.000000,0.000000,2.000000,0.000000,0.000000,1.037151,1.365430,0.688392,0.369035,0.500326,1023.000000,926.000000,97.000000,52.000000,15.000000,0.000000,2.000000,0.000000,0.000000;
#CREDIT:SHAYMIN;
#NOTES:
// measure 0
0000
0000
0000
0000
,  // measure 1
0000
0000
0000
0000
,  // measure 2
0000
0000
0000
0000
,  // measure 3
0000
0000
0000
0000
,  // measure 4
0000
0000
0000
0000
,  // measure 5
0000
0000
0000
0000
,  // measure 6
0000
0000
0000
0000
,  // measure 7
0000
0000
0000
0000
,  // measure 8
1000
0100
1000
0000
0001
0100
0001
0000
0010
0000
0100
1000
0100
0000
0010
0000
,  // measure 9
0001
0100
0001
0000
1000
0100
1000
0000
0010
0000
0100
0001
0100
0000
0010
0000
,  // measure 10
1000
0100
0010
0000
0001
0100
0010
0000
1000
0000
0001
1000
0010
0000
1000
0000
,  // measure 11
0100
0001
0100
1000
0010
0001
0010
1000
,  // measure 12
0100
0010
0100
0000
1000
0001
1000
0000
0010
0000
0100
0001
0100
0000
0010
0000
,  // measure 13
1000
0100
1000
0000
0001
0100
0001
0000
0010
0000
0100
1000
0100
0000
0010
0000
,  // measure 14
0001
0100
0010
0000
1000
0100
0010
0000
0001
0000
1000
0010
0100
0000
0001
0000
,  // measure 15
1000
0010
0001
0010
1000
0100
0001
0100
,  // measure 16
1000
0100
0101
0000
1200
0000
0010
0310
,  // measure 17
0001
0100
0010
1000
0001
0010
1000
0001
,  // measure 18
1000
0100
0001
0000
0120
0000
0001
0031
,  // measure 19
1000
0010
0001
1000
1100
1000
1001
0000
,  // measure 20
1000
0100
0011
0000
0101
0100
0110
0010
,  // measure 21
1010
1000
1001
0000
1100
0100
0110
0010
,  // measure 22
0011
0000
0000
0000
0101
0000
1000
0000
1100
0000
0001
0000
0101
0000
1000
0100
,  // measure 23
0010
0000
0001
0000
0100
0000
1000
0000
0010
0000
0100
0001
0100
0000
1000
0000
,  // measure 24
0100
1000
0020
1000
0230
0001
0320
0100
,  // measure 25
2030
0001
3200
0010
2300
0001
3020
1000
,  // measure 26
0130
0001
2000
0100
3002
0100
2003
0010
,  // measure 27
3001
0001
0001
0001
1000
1000
0010
0010
,  // measure 28
1000
0100
0002
0100
0023
1000
0230
0010
,  // measure 29
2300
0001
3200
0010
0302
1000
0203
0010
,  // measure 30
0301
0000
0100
0000
1000
0000
0100
0000
0001
0000
0010
0001
0100
0000
0010
0000
,  // measure 31
1000
0100
0001
0100
1000
0010
0001
0010
,  // measure 32
1000
0010
1000
0000
0010
1000
0010
0000
0100
0000
0001
0010
0001
0000
0100
0000
,  // measure 33
0010
1000
0010
0000
0100
0001
0100
0000
0010
0000
1000
0001
1000
0000
0010
0000
,  // measure 34
1000
0100
0001
1000
0010
0001
0100
0010
,  // measure 35
1010
0010
0001
1000
0101
0001
0100
0010
,  // measure 36
1000
0100
1000
0000
0001
0100
0001
0000
0010
0000
0100
1000
0100
0000
0010
0000
,  // measure 37
0001
0100
0001
0000
1000
0100
1000
0000
0010
0000
0100
0001
0100
0000
0010
0000
,  // measure 38
1001
M00M
0110
0MM0
,  // measure 39
1002
1000
0000
0000
1000
2003
0000
3000
,  // measure 40
0101
0100
0010
1000
1001
1000
0100
1100
,  // measure 41
0100
0010
0001
0100
0010
0001
0100
0010
,  // measure 42
1000
0010
0001
0010
1000
0010
0001
0010
,  // measure 43
0100
1000
0100
0100
0001
0100
1000
1000
,  // measure 44
1010
0100
0001
0011
0010
0100
1100
000M
,  // measure 45
0101
0100
0010
1010
1000
0100
1100
00M0
,  // measure 46
0101
0100
1000
0100
1100
1000
0010
0100
,  // measure 47
0001
0001
0010
0010
0100
0100
1000
1000
,  // measure 48
1100
1000
0001
0100
0101
0001
0010
0011
,  // measure 49
0010
0100
1000
0001
1000
0100
0010
0100
,  // measure 50
1000
0100
0001
0100
1000
0100
0001
0100
,  // measure 51
1000
0010
0001
0001
0100
1000
0100
0100
,  // measure 52
0101
0100
0010
1000
1000
0100
1100
00M0
,  // measure 53
0101
0001
0010
0001
0010
0100
1100
00M0
,  // measure 54
0101
0000
1000
0000
0100
0000
1000
0000
0110
0000
1000
0000
0100
0010
0001
0100
,  // measure 55
0010
0100
0010
0100
0010
1000
0010
1000
0001
0000
0000
0000
0MM0
0000
0000
0000
,  // measure 56
1100
1000
1100
0000
1001
0000
0101
0001
,  // measure 57
0101
0100
0010
0010
1000
0001
0010
0100
,  // measure 58
1000
0100
1000
0000
0001
0100
0001
0000
1000
0010
0100
0000
0001
0010
0100
0000
,  // measure 59
1000
0001
0100
0001
1000
0000
0100
0000
0001
0000
0100
0000
1000
0000
0010
0000
,  // measure 60
0110
0100
0110
0000
1001
0000
0011
0001
,  // measure 61
0011
0010
0100
1000
0010
0001
0100
0010
,  // measure 62
1000
0100
0010
0000
0001
0100
0010
0000
1000
0001
0010
0000
0001
1000
0010
0000
,  // measure 63
0101
0202
0000
0303
1100
0100
0110
0000
,  // measure 64
0022
0000
0030
00M0
1003
1000
1000
0000
,  // measure 65
0100
0000
0001
0000
0100
0000
1000
0000
0010
0100
0010
0100
0010
0000
0000
0000
,  // measure 66
1000
0000
0100
0000
0010
0001
0010
0000
0100
0010
0100
0000
1000
0100
1000
0000
,  // measure 67
2100
0001
0001
3001
0102
1000
0000
1003
,  // measure 68
0100
0010
0001
0010
0100
0010
0001
1000
0010
0000
0000
0000
1000
0010
1000
0000
,  // measure 69
0001
0100
0001
0000
1000
0000
0000
0000
0100
0000
0100
0000
0010
0000
0010
0001
,  // measure 70
1000
0010
0100
0001
0101
0001
0010
0100
,  // measure 71
1100
0000
2200
0000
0000
0000
3300
0000
0001
0100
0010
0100
0001
0100
0010
0100
,  // measure 72
0002
0000
0000
0000
1003
0100
0010
0001
1000
0001
0010
0100
1000
0010
0200
0000
,  // measure 73
0000
0010
0010
0310
1010
1000
0100
0001
,  // measure 74
1000
0000
0100
0000
0010
0000
0100
0000
0000
1000
0000
0000
0010
0000
0000
0001
0000
0000
0100
0000
0000
0110
0000
0000
,  // measure 75
0010
2010
0000
3001
0100
0100
0010
0010
,  // measure 76
1000
0100
0010
0100
1000
0000
0010
0000
0001
0000
0100
0000
0001
0000
0021
0000
,  // measure 77
0000
0000
0000
0000
0000
0000
0130
0000
0000
0000
0000
0000
1000
0000
0001
0000
0100
0000
0001
0000
0000
0010
0000
0000
,  // measure 78
0100
0100
1000
0100
0100
0001
0100
0210
,  // measure 79
0000
0000
1300
0000
0100
0010
0100
0010
1000
0001
0010
0100
0010
0001
0100
0010
,  // measure 80
2000
0000
0000
0000
3100
0010
0001
0010
0001
0100
0010
1000
0001
0000
2001
0000
,  // measure 81
0000
0000
3100
0000
0010
0000
0010
0000
0001
0100
0010
0000
1000
0000
0100
0000
,  // measure 82
0010
0001
1000
0000
0010
0000
0100
0000
0010
0000
1000
0000
0001
0000
1002
0000
,  // measure 83
0000
0000
0103
0000
0010
0100
0010
0000
1000
0000
0010
0000
0001
0000
0010
0000
,  // measure 84
1000
0100
0020
0000
0000
0000
0000
0000
0031
1000
0010
1000
0001
1000
0020
0000
,  // measure 85
0000
0000
0000
0130
0000
0000
0001
0000
0000
0001
0000
0000
1000
0000
0100
0000
0010
0000
0100
0000
1000
0000
0001
0000
,  // measure 86
0100
0010
1000
0001
0010
0001
0100
0010
1000
0100
0010
0100
1000
0010
0100
0001
,  // measure 87
1000
0100
1000
0100
0010
0001
0010
0001
0100
0010
0100
0010
0100
0000
0220
0000
,  // measure 88
0000
0000
0000
0000
,  // measure 89
0000
0000
0000
0330
,  // measure 90
2000
0000
3200
0000
,  // measure 91
2300
0000
3002
0000
,  // measure 92
0103
0000
0010
0000
1000
0000
0001
0020
,  // measure 93
0000
0000
0030
0000
0100
0000
0000
0000
1100
0000
0000
0000
1000
0000
0001
0100
,  // measure 94
0101
0000
0101
0000
0010
0100
0110
0000
,  // measure 95
4004
0000
0000
0000
0000
0000
0000
3003
0220
0000
0000
0000
0330
0000
0000
0000
,  // measure 96
1001
1000
0100
0010
0011
0001
0100
0101
,  // measure 97
0100
0010
1000
0001
1000
0010
0100
0010
,  // measure 98
1000
0010
0001
0010
1000
0010
0001
0010
,  // measure 99
1000
1000
0100
0100
1000
0010
0100
0001
,  // measure 100
0101
0001
0010
0011
0010
0100
1100
000M
,  // measure 101
0110
0100
0001
0101
0001
1000
1001
0M00
,  // measure 102
1100
0100
0010
0001
0101
0100
0010
1000
,  // measure 103
0001
0000
0001
1000
0100
0000
1000
0000
0100
0000
0100
0000
0001
0000
0001
0000
,  // measure 104
0101
0100
0010
1000
1010
1000
0100
1100
,  // measure 105
1000
0010
0100
0001
1000
0001
0010
0100
,  // measure 106
1000
0100
0001
0100
1000
0100
0001
0100
,  // measure 107
0010
0010
1000
1000
0001
0010
1000
0010
,  // measure 108
0011
0001
0100
0010
1000
0001
1001
0M00
,  // measure 109
1100
0100
0010
0001
0010
0100
0110
M000
,  // measure 110
0001
0010
0001
0000
1000
0010
1000
0000
0001
0000
0100
0010
1000
0000
0001
0000
,  // measure 111
1000
0100
1000
0100
1000
0001
1000
0001
1000
0010
1000
0010
0100
0010
0100
0010
,  // measure 112
1000
0010
1000
0000
0001
0010
0001
0000
0100
0000
0010
1000
0010
0000
0100
0000
,  // measure 113
0001
0010
0001
0000
1000
0010
1000
0000
0100
0000
0010
0001
0010
0000
0100
0000
,  // measure 114
1000
0010
0100
0000
0001
0010
0100
0000
1000
0000
0001
1000
0100
0000
0010
0000
,  // measure 115
0001
0100
1000
0100
0001
0010
1000
0010
,  // measure 116
0010
0001
1000
0001
0010
0100
1000
0000
0010
0000
0100
0001
0100
0000
0010
0000
,  // measure 117
1000
0100
0010
0100
1000
0001
0100
0000
0010
0000
1000
0001
1000
0000
0010
0000
,  // measure 118
2020
3030
0202
0303
,  // measure 119
0100
0010
1000
0100
0001
0010
0001
0100
,  // measure 120
1001
1001
0000
0000
;
