#TITLE:Sunrise;
#SUBTITLE:feat. April Bender;
#ARTIST:ARTY;
#TITLETRANSLIT:;
#SUBTITLETRANSLIT:;
#ARTISTTRANSLIT:;
#GENRE:;
#CREDIT:;
#BANNER:sunrise-bn.png;
#BACKGROUND:sunrise-bg.png;
#LYRICSPATH:;
#CDTITLE:pecd.png;
#MUSIC:Sunrise.ogg;
#OFFSET:0.002000;
#SAMPLESTART:67.480003;
#SAMPLELENGTH:12.000000;
#SELECTABLE:YES;
#BPMS:0.000000=128.000000
;
#STOPS:
;
#BGCHANGES:;
#KEYSOUNDS:;
#ATTACKS:;

//---------------dance-single - ----------------
#NOTES:
     dance-single:
     :
     Beginner:
     1:
     0.099271,0.130293,0.000000,0.009651,0.000000,72.000000,72.000000,0.000000,1.000000,0.000000,0.000000,0.099271,0.130293,0.000000,0.009651,0.000000,72.000000,72.000000,0.000000,1.000000,0.000000,0.000000:
0000
0000
0000
0000
,
0000
0000
0000
0000
,
0000
0000
0000
0000
,
0000
0000
0000
0000
,
0010
0000
0000
0000
,
0100
0000
0000
0000
,
0010
0000
0000
0000
,
0100
0000
0000
0000
,
0001
0000
0000
0000
,
1000
0000
0000
0000
,
0001
0000
0000
0000
,
1000
0000
1000
0000
,
0001
0000
0000
0000
,
0010
0000
0000
0000
,
0100
0000
0000
0000
,
1000
0000
0000
0000
,
1000
0000
0000
0000
,
0010
0000
0000
0000
,
0100
0000
0000
0000
,
0001
0000
0000
0000
,
0000
1000
0000
1000
,
0000
1000
0000
1000
,
0000
0001
0000
0001
,
0000
0001
0000
0001
,
0000
0010
0000
0010
,
0000
0010
0000
0010
,
0000
0100
0000
0100
,
0000
0100
0000
0100
,
0000
0010
0000
0010
,
0000
0010
0000
0010
,
0000
0100
0000
0100
,
0000
0100
0000
0100
,
0000
0001
0000
0001
,
0000
0001
0000
0001
,
0000
1000
0000
1000
,
0000
0000
0000
0000
,
0010
0000
0100
0000
,
0010
0000
0000
0000
,
0100
0000
0010
0000
,
0100
0000
0000
0000
,
0001
0000
0010
0000
,
0100
0000
0000
0000
,
1000
0000
0010
0000
,
0100
0000
0000
0000
,
0001
0000
1000
0000
,
0100
0000
0000
0000
,
1000
0000
0001
0000
,
0100
0000
0000
0000
,
0001
0000
0010
0000
,
0001
0000
0000
0000
,
1000
0000
0010
0000
,
1000
0000
0000
0000
,
0020
0000
0000
0000
,
0000
0000
0000
0000
,
0030
0000
0000
0000
;

//---------------dance-single - ----------------
#NOTES:
     dance-single:
     :
     Easy:
     3:
     0.140633,0.203642,0.009651,0.067559,0.000000,102.000000,101.000000,1.000000,7.000000,0.000000,0.000000,0.140633,0.203642,0.009651,0.067559,0.000000,102.000000,101.000000,1.000000,7.000000,0.000000,0.000000:
0000
0000
0000
0000
,
0000
0000
0000
0000
,
0000
0000
0000
0000
,
0000
0000
0000
0000
,
1000
0000
0000
0001
,
0001
0000
0000
0000
,
0100
0000
0000
0010
,
0010
0000
1000
0000
,
0001
0000
0000
0010
,
0010
0000
0000
0000
,
0001
0000
0000
0100
,
0100
0000
0010
0000
,
2000
0000
3000
0000
,
0001
0000
0010
0020
,
0000
0000
0030
0000
,
0100
0000
0000
0000
,
0020
0000
0030
0000
,
1000
0000
0001
0002
,
0000
0000
0003
0000
,
0010
0000
0000
0000
,
0100
0100
0000
0100
,
0000
0100
0000
0100
,
1000
1000
0000
1000
,
0000
1000
0000
1000
,
0010
0010
0000
0010
,
0000
0010
0000
0010
,
0100
0000
0001
0000
,
1000
0000
0001
0000
,
0100
0100
0000
0010
,
0000
0100
0000
0010
,
0000
1000
0000
0001
,
0000
1000
0000
0001
,
0000
0010
0000
0001
,
0000
0100
0000
0010
,
0000
1000
0000
0100
,
0020
0000
0000
0030
,
0001
0001
0001
0000
,
0100
0000
0010
0000
,
0100
0100
0100
0000
,
0010
0000
0100
0000
,
0010
0010
1000
0000
,
0001
0000
1000
0000
,
0001
0001
0100
0000
,
0001
0000
1000
0000
,
0100
1000
0100
0000
,
1000
0000
0010
0000
,
0100
0001
0100
0000
,
0001
0000
0010
0000
,
0100
1000
0001
0000
,
1000
0000
0100
0000
,
0010
0010
0010
0000
,
0100
0010
0100
0000
,
2002
0000
0000
3003
;

//---------------dance-single - ----------------
#NOTES:
     dance-single:
     :
     Medium:
     7:
     0.297812,0.381829,0.125467,0.241282,0.000000,216.000000,203.000000,13.000000,25.000000,0.000000,0.000000,0.297812,0.381829,0.125467,0.241282,0.000000,216.000000,203.000000,13.000000,25.000000,0.000000,0.000000:
0000
0000
0000
0000
,
0000
0000
0000
0000
,
0000
0000
0000
0000
,
0000
0000
0000
0000
,
0010
0000
0100
0010
,
1000
0001
0000
0001
,
1000
0000
0100
0010
,
0001
0000
1000
0000
,
0001
0000
0100
0010
,
1000
0001
0000
0100
,
0010
0000
1000
0100
,
0010
0000
0001
1000
,
0020
0030
0200
0300
,
0020
0000
0030
0000
1000
0001
1000
0000
,
0100
0020
0030
0001
,
0200
0000
0300
0000
0010
0100
0010
0000
,
2000
3000
0200
0300
,
0020
0000
0030
0000
0001
1000
0001
0000
,
0100
0020
0030
1000
,
0002
0000
0000
0003
,
1000
0000
0200
0000
1300
0000
0010
0100
,
0000
0100
0000
0100
0001
0000
1000
0000
,
0001
0000
0020
0000
0031
0000
1000
0010
,
0000
0010
0000
0010
0100
0000
0001
0000
,
1000
0000
0002
0000
0013
0000
0001
0100
,
0000
0010
0000
0100
0001
0000
1000
0000
,
0001
0010
0100
1000
0000
0010
0000
1000
,
0000
0100
0000
0010
0002
0000
1003
0000
,
0010
0000
0110
0000
0100
0000
0100
0001
,
0000
1000
0000
0001
0100
0000
0010
0000
,
1000
0000
1001
0000
0001
0000
1000
0100
,
0000
0010
0000
0001
1000
0000
0001
0000
,
0100
0101
0100
1100
,
1000
1010
0010
0011
,
1000
0100
1000
0100
0010
0001
0010
0001
,
2000
0000
0001
3001
,
0001
0000
1001
0000
1100
0000
0001
0100
,
0001
0000
0010
0000
0100
1000
0100
0000
,
0010
0000
0110
0000
1100
0000
0001
0100
,
0010
0000
0100
0000
0001
1000
0100
0000
,
0010
0000
0011
0000
1010
0000
0100
0001
,
1000
0000
0001
0000
0100
0010
1000
0000
,
0001
0010
0100
0010
0001
0000
0100
0000
,
0010
0000
0100
0000
0001
1000
0100
0000
,
0010
0000
0002
0000
0203
0000
0310
1000
,
0000
0001
0000
1000
0010
0100
0001
0000
,
1000
0000
0200
0000
0320
0000
0031
1000
,
0000
0010
0000
1000
0100
0010
0001
0000
,
1000
0000
0020
0000
0230
0000
0301
0010
,
0000
0100
0000
0010
0001
0100
0010
0000
,
1000
0100
0010
0001
0000
0100
0000
0010
,
2000
0000
3002
0000
0013
0100
0010
0000
,
0220
0000
0000
0330
;

//---------------dance-single - ----------------
#NOTES:
     dance-single:
     :
     Hard:
     9:
     0.387431,0.432740,0.183375,0.135118,0.000000,281.000000,262.000000,19.000000,14.000000,0.000000,0.000000,0.387431,0.432740,0.183375,0.135118,0.000000,281.000000,262.000000,19.000000,14.000000,0.000000,0.000000:
0000
0000
0000
0000
,
0000
0000
0000
0000
,
0000
0000
0000
0000
,
0000
0000
0000
0000
,
0100
0010
0000
0010
0000
0010
0100
0000
,
0002
0013
0100
1000
,
0100
0010
0100
0010
0000
0010
0001
1000
,
0020
0030
0200
0300
,
0001
1000
0000
0100
0000
1000
0010
0100
,
0002
0013
0100
1000
,
0010
1000
0100
0010
0000
1000
0100
0010
,
0100
0000
1000
0000
0010
0100
0001
1000
,
0010
0000
1000
0100
0010
0000
1000
0100
,
0001
0000
1000
0010
0100
0001
1000
0000
,
0100
0020
0000
0031
,
2000
0000
0000
0000
3010
0100
0010
1000
,
0001
0000
0010
0100
1000
0000
0010
0100
,
0001
0000
1000
0100
0010
0001
1000
0000
,
0010
0200
0000
0301
,
2000
0000
0000
3000
,
0100
0000
0110
0000
0010
0000
0001
1000
,
0010
0000
1000
0100
0010
0000
0001
0000
,
1000
0000
1010
0000
0010
0000
0100
0001
,
1000
0000
0100
1000
0001
0100
0010
0000
,
0100
0000
0101
0000
0001
0000
0010
0100
,
1000
0000
0010
0100
0010
0000
1000
0000
,
0001
0010
0100
1000
0000
0010
0000
1000
,
0000
0100
0000
0010
0001
1000
0001
0000
,
0100
0000
0101
0000
0100
0000
1100
1000
,
0010
0100
0010
1000
0001
0000
0010
0000
,
0001
0000
0101
0000
0100
0000
0101
0001
,
0010
0001
0100
0010
1000
0001
1000
0000
,
0010
0100
0001
0000
0010
0100
1000
0000
,
0001
0100
0010
0000
1000
0100
0010
0000
,
0001
1000
0010
0100
0001
1000
0010
0100
,
0020
0000
0000
0130
,
0110
0000
1001
0000
1100
0000
0001
0100
,
0001
1000
0001
0010
0001
0100
0010
0000
,
0110
0000
1001
0000
1100
0000
1000
0100
,
1000
0001
1000
0010
0100
0001
0010
0000
,
0001
0000
0101
0000
1100
0000
0010
0001
,
0100
0010
0100
0001
0010
0100
1000
0000
,
0010
1000
0100
1000
0000
0010
0000
0100
,
0000
0001
1000
0100
0010
0001
1000
0000
,
0210
0000
0001
0000
0310
0000
1000
0100
,
0001
0100
1000
0010
0100
0001
1000
0000
,
0210
0000
1000
0000
0310
0000
0001
0010
,
1000
0010
0001
0100
0010
1000
0001
0000
,
1200
0000
0010
0000
1300
0000
0001
0100
,
0010
0100
0001
1000
0100
0010
0001
0000
,
1000
0010
0100
0001
0000
0010
0000
0100
,
1000
0001
1000
0100
0010
0001
1000
0000
,
2002
0000
0000
3003
;

//---------------dance-single - ----------------
#NOTES:
     dance-single:
     :
     Challenge:
     11:
     0.461884,0.534561,0.289539,0.231631,0.024128,335.000000,305.000000,30.000000,24.000000,0.000000,0.000000,0.461884,0.534561,0.289539,0.231631,0.024128,335.000000,305.000000,30.000000,24.000000,0.000000,0.000000:
// measure 0
0000
0000
0000
0000
,  // measure 1
0000
0000
0000
0000
,  // measure 2
0000
0000
0000
0000
,  // measure 3
0000
0000
0000
0000
,  // measure 4
1001
0002
0000
2003
0000
3100
1000
0010
,  // measure 5
0200
0000
0001
0000
0000
0000
0310
0010
,  // measure 6
1000
0001
1000
0100
0000
0100
1000
0001
,  // measure 7
0200
0310
2000
3001
,  // measure 8
1000
0100
0010
0200
0000
1300
0010
0100
,  // measure 9
0002
0000
1000
0000
0000
0000
0103
0100
,  // measure 10
0001
0010
0001
0200
0000
0310
1000
0001
,  // measure 11
0100
0000
0010
1000
0001
1000
0010
0100
,  // measure 12
0010
0000
1000
0001
0100
0000
0001
1000
,  // measure 13
0100
0000
1000
0010
0100
0001
0020
0000
,  // measure 14
0031
0200
0000
0310
,  // measure 15
2000
0000
0000
3100
0010
0001
0010
0100
,  // measure 16
1000
0000
0010
0100
0001
0000
1000
0100
,  // measure 17
0010
0000
1000
0010
0100
0001
2000
0000
,  // measure 18
3100
0020
0000
0031
,  // measure 19
0200
0000
0000
0300
,  // measure 20
0110
0000
0100
0001
1000
0000
1000
0001
,  // measure 21
0100
0001
1000
0100
0010
0001
1000
0000
,  // measure 22
0010
0000
1000
0100
0010
0000
0010
0100
,  // measure 23
1000
0001
0100
0010
0100
0001
1000
0000
,  // measure 24
0001
0000
0100
0010
1000
0000
1000
0010
,  // measure 25
0100
0001
1000
0001
0100
0010
1000
0000
,  // measure 26
0001
0010
0100
2000
0000
3020
0000
0130
,  // measure 27
0001
1000
0001
0100
0010
1000
0001
0000
,  // measure 28
0011
0000
1001
1000
0100
0000
1001
0001
,  // measure 29
0100
0001
0010
0001
0100
0010
1000
0000
,  // measure 30
0110
0000
1001
1000
0100
0000
1001
1000
,  // measure 31
0010
0000
0100
0000
0010
0000
1000
0000
0001
0000
0010
0000
0100
0000
0010
0100
,  // measure 32
0010
0001
0100
0010
0100
1000
0100
0010
,  // measure 33
0100
0001
0100
0010
1000
0001
0010
0100
,  // measure 34
1000
0000
0001
0010
0001
0000
1000
0000
0001
0000
1000
0010
1000
0000
0001
0000
,  // measure 35
0010
0100
0010
0100
0010
0000
0001
0000
1000
0000
0000
0000
0110
0000
0000
0000
,  // measure 36
1001
0000
1100
0100
0010
0100
1000
0001
,  // measure 37
0100
0010
1000
0001
1000
0010
0110
0000
,  // measure 38
0101
0000
1001
1000
0100
1000
0100
0010
,  // measure 39
0001
0100
0010
1000
0001
0010
0011
0000
,  // measure 40
0110
0000
1100
1000
0010
0100
0001
0010
,  // measure 41
0001
0100
0001
1000
0100
1000
0001
0100
,  // measure 42
0010
1000
0100
0020
0000
0032
0000
0103
,  // measure 43
0010
1000
0010
0100
0001
0100
0010
1000
,  // measure 44
1001
0001
0101
0000
0110
0000
1010
1000
,  // measure 45
0100
1000
0010
0100
0002
0000
0013
0000
,  // measure 46
0011
0010
0110
0000
1100
0000
1001
0001
,  // measure 47
0010
0100
1000
0010
0200
0000
0301
0000
,  // measure 48
0101
0100
0110
0000
1010
0000
1001
1000
,  // measure 49
0010
0100
0010
1000
0001
0010
0100
0000
,  // measure 50
0010
0001
0100
0020
0000
2030
0000
3001
,  // measure 51
0010
0100
0010
0001
1000
0010
0100
0000
,  // measure 52
2002
0000
0000
3003
;
