#TITLE:Storm Of Light;
#SUBTITLE:(DJ Manian Mix);
#ARTIST:Neo Cortex;
#TITLETRANSLIT:;
#SUBTITLETRANSLIT:;
#ARTISTTRANSLIT:;
#GENRE:;
#CREDIT:;
#BANNER:storm-of-light-bn.png;
#BACKGROUND:storm-of-light-bg.png;
#LYRICSPATH:;
#CDTITLE:pecd.png;
#MUSIC:Storm Of Light (Dj Manian Mix).ogg;
#OFFSET:-0.003000;
#SAMPLESTART:82.279999;
#SAMPLELENGTH:12.000000;
#SELECTABLE:YES;
#BPMS:0.000000=140.000000
,112.000000=70.000000
,144.000000=140.000000
;
#STOPS:
;
#BGCHANGES:;
#KEYSOUNDS:;
#ATTACKS:;

//---------------dance-single - ----------------
#NOTES:
     dance-single:
     :
     Beginner:
     1:
     0.088352,0.125258,0.000000,0.062629,0.000000,79.000000,79.000000,0.000000,8.000000,0.000000,0.000000,0.088352,0.125258,0.000000,0.062629,0.000000,79.000000,79.000000,0.000000,8.000000,0.000000,0.000000:
0000
0000
0000
0000
,
0000
0000
0000
0000
,
0000
0000
0000
0000
,
0000
0000
0000
0000
,
1000
0000
0000
0000
,
0001
0000
0000
0000
,
1000
0000
0000
0000
,
0001
0000
0000
0000
,
0010
0000
0000
0000
,
0100
0000
0000
0000
,
0010
0000
0000
0000
,
0100
0000
0000
0000
,
1000
0000
0000
0000
,
0100
0000
0000
0000
,
1000
0000
0000
0000
,
0100
0000
0000
0000
,
0001
0000
0000
0000
,
0010
0000
0000
0000
,
0001
0000
0000
0000
,
0000
0000
0010
0000
,
0020
0000
0030
0000
,
2000
0000
3000
0000
,
0002
0000
0003
0000
,
1000
0000
1000
0000
,
2000
0000
3000
0000
,
0002
0000
0003
0000
,
2000
0000
3000
0000
,
0001
0000
0001
0000
,
0001
0000
1000
0000
,
0100
0000
0010
0000
,
0100
0000
1000
0000
,
0001
0000
0100
0000
,
0010
0000
1000
0000
,
0001
0000
1000
0000
,
0010
0000
0100
0000
,
0001
0000
1000
0000
,
0010
0000
0010
0000
,
0010
0000
0010
0000
,
0020
0000
0000
0000
,
0030
0000
0000
0000
,
1000
0000
0100
0000
,
1000
0000
0000
0000
,
0001
0000
0100
0000
,
0001
0000
0000
0000
,
1000
0000
0010
0000
,
1000
0000
0000
0000
,
0001
0000
0010
0000
,
0001
0000
0000
0000
,
0000
1000
0000
1000
,
0000
0001
0000
0001
,
0000
1000
0000
0010
,
0000
0001
0000
0010
,
0010
0000
0000
0000
,
0100
0000
0000
0000
,
0010
0000
0000
0000
,
0100
0000
0000
0000
,
0020
0000
0000
0000
,
0030
0000
0000
0000
,
1000
0000
0000
0000
,
0001
0000
0000
0000
,
0010
0000
0000
0000
,
0001
0000
0000
0000
,
0100
0000
0000
0000
,
0010
0000
0000
0000
,
1000
0000
0000
0000
;

//---------------dance-single - ----------------
#NOTES:
     dance-single:
     :
     Easy:
     4:
     0.192361,0.228107,0.007829,0.133087,0.000000,172.000000,171.000000,1.000000,17.000000,0.000000,0.000000,0.192361,0.228107,0.007829,0.133087,0.000000,172.000000,171.000000,1.000000,17.000000,0.000000,0.000000:
0000
0000
0000
0000
,
0000
0000
0000
0000
,
0000
0000
0000
0000
,
0000
0000
0000
0000
,
1000
0000
0100
0100
,
1000
0000
0001
0001
,
0100
0000
0001
0000
,
0010
0000
0100
0000
,
0010
0000
0001
0001
,
0100
0000
1000
1000
,
0100
0000
0010
0000
,
0100
0000
1000
0000
,
0001
0000
0100
0010
,
1000
0000
0100
0010
,
0001
0000
1000
0000
,
0001
0000
0010
0000
,
0001
0000
1000
0010
,
0100
0000
0001
0010
,
0100
0000
0010
0000
,
0001
0000
1000
0000
,
0020
0000
0130
0000
,
0001
1000
0100
1000
,
0020
0000
0130
0000
,
1000
0001
0100
0001
,
2000
0000
3100
0000
,
0010
0001
0010
0100
,
2000
0000
3010
0000
,
0100
0001
1000
0010
,
0100
0010
0200
0300
,
0001
1000
0002
0003
,
1000
0010
2000
3000
,
0001
0010
0002
0003
,
1000
0100
0010
0010
,
0001
0100
0010
0010
,
1000
0001
0010
0010
,
0001
1000
0010
0010
,
0200
0000
0000
0300
,
0020
0000
0000
0030
,
1000
0001
0010
0100
,
0010
0000
0000
1001
,
1000
0100
0000
0001
,
0000
0010
0000
0001
,
0100
0001
0000
0010
,
0000
0100
0000
1000
,
0010
1000
0010
1000
,
0001
1000
0001
1000
,
0001
0010
0001
0010
,
0100
0010
0010
0010
,
0001
0200
0300
0020
,
0030
2000
3000
0001
,
1000
0002
0003
0020
,
0030
0200
0300
1000
,
0010
0000
0100
0000
,
0010
0000
1000
0000
,
0001
0010
0100
1000
,
0010
0100
0001
1000
,
0010
0010
0010
0000
,
1000
1000
1000
0000
,
0001
0010
0001
0000
,
1000
0010
1000
0000
,
0100
0000
0100
0000
,
0010
0000
0010
0000
,
0001
0000
1000
0000
,
0010
0100
0001
1000
,
0020
0000
0000
0030
;

//---------------dance-single - ----------------
#NOTES:
     dance-single:
     :
     Medium:
     8:
     0.312027,0.356203,0.054801,0.313146,0.000000,279.000000,272.000000,7.000000,40.000000,0.000000,0.000000,0.312027,0.356203,0.054801,0.313146,0.000000,279.000000,272.000000,7.000000,40.000000,0.000000,0.000000:
0000
0000
0000
0000
,
0000
0000
0000
0000
,
0000
0000
0000
0000
,
0000
0000
0000
0000
,
0100
0000
0010
0000
0001
0100
0001
0000
,
0010
0000
0100
0000
1000
0001
1000
0000
,
0100
0010
0100
1000
,
0010
0100
0001
1000
,
0010
0000
1000
0000
0001
0010
0001
0000
,
0100
0000
0010
0000
1000
0100
1000
0000
,
0010
0100
0001
0100
,
0010
1000
0001
1000
,
0020
0000
1030
0000
0001
0010
0100
0000
,
0020
0000
0031
0000
1000
0010
0100
0000
,
0020
1030
0001
1000
,
0100
1000
0010
0100
,
0002
0000
0013
0000
0100
1000
0010
0000
,
2000
0000
3100
0000
0010
0001
0100
0000
,
0020
1030
0001
1000
,
0100
0000
0010
0001
1000
0000
0001
0000
,
0010
0000
0000
0100
0000
0000
1000
0000
,
0001
0001
1000
0010
,
1000
0000
0000
0100
0000
0000
1000
0000
,
0010
0000
0100
0000
0001
0010
0100
0010
,
0001
0000
0000
0100
0000
0000
0010
0000
,
1000
0001
0010
0001
,
0100
0000
0000
0010
0000
0000
1000
0000
,
0001
0000
1000
0000
0100
0010
0001
0000
,
2000
0000
3010
0010
0200
0000
0301
0001
,
0020
0000
0032
0000
0203
0000
0310
0010
,
2000
0000
3100
0100
0020
0000
0031
0001
,
2000
0000
3020
0000
0230
0000
0301
0001
,
0020
0000
0130
0100
2000
0000
3100
0100
,
0020
0000
0032
0000
2003
0000
3010
0010
,
2000
0000
3100
0100
0020
0000
0130
0100
,
2000
3002
0203
0320
,
0200
0000
0000
0000
,
0000
0000
0000
0330
,
1001
0110
1001
0110
,
2002
0000
3003
0110
,
1000
0100
1000
0000
0001
0100
0001
0000
,
0010
0100
0010
0000
0001
1000
0001
0000
,
1000
0010
0100
0001
,
0100
0010
1000
0001
,
0010
0100
1000
0000
0010
0100
0001
0000
,
1000
0100
0010
0000
0001
0100
0010
0000
,
1000
0001
0010
0001
,
0100
0010
1000
0001
,
2000
0000
3100
0010
0200
0000
0310
0001
,
0020
0000
0031
1000
0002
0000
0103
0010
,
1000
1000
0100
0100
,
0001
0010
1000
0010
,
0002
0103
2000
3100
,
0010
0001
0010
0100
,
1000
0010
0100
0000
0001
0010
0100
0000
,
1000
0001
1000
0001
1000
0010
0100
0000
,
2000
0100
0010
3100
,
0002
0100
0010
0103
,
1000
0000
0100
0000
0010
0001
0100
0000
,
0001
0000
0010
0000
0100
1000
0010
0000
,
1000
1000
0001
0001
,
1000
0010
0100
0010
,
1000
0001
0010
0100
,
1000
0001
0010
0000
0001
1000
0010
0000
,
2002
0000
0000
0000
,
3003
0000
0000
0000
;

//---------------dance-single - ----------------
#NOTES:
     dance-single:
     :
     Hard:
     11:
     0.435049,0.508862,0.031315,0.289660,0.246602,389.000000,385.000000,4.000000,37.000000,0.000000,0.000000,0.435049,0.508862,0.031315,0.289660,0.246602,389.000000,385.000000,4.000000,37.000000,0.000000,0.000000:
0000
0000
0000
0000
,
0000
0000
0000
0000
,
0000
0000
0000
0000
,
0000
0000
0000
0000
,
0002
0000
0013
0000
0100
1000
0001
1000
,
0200
0000
0310
0000
0001
0100
0010
1000
,
0200
0000
1300
0000
0010
0100
0010
1000
,
0000
1000
0001
0000
0010
0100
1000
0001
,
0020
0000
0130
0000
0010
0001
0100
0010
,
2000
0000
3100
0000
1000
0010
0100
0001
,
2000
0000
3100
0000
0010
0001
1000
0010
,
0000
0010
0100
0000
0010
1000
0001
0100
,
0010
1000
0001
0000
0010
0001
0100
0000
,
1000
0100
0001
0000
1000
0010
0100
0010
,
1000
0001
0010
0000
0001
0100
0010
0000
,
1000
0100
0010
0000
0100
1000
0001
1000
,
0100
0010
0001
0000
0100
0010
1000
0000
,
0010
0100
0001
0000
1000
0100
0010
0100
,
1000
0010
0100
0000
0001
0010
0100
0000
,
0010
0001
0010
0001
1000
0010
0100
0000
,
0102
0000
0000
0023
0000
0000
0130
0000
,
1000
0000
0001
0200
0000
0320
0000
1030
,
0002
0000
0000
0023
0000
0000
0130
1000
,
0010
1000
0100
0010
0100
1000
0001
0100
,
0020
0000
0000
2030
0000
0000
3001
0010
,
0001
0000
0100
0010
1000
0100
0010
0100
,
2000
0000
0000
3020
0000
0000
0130
0001
,
2000
0000
3200
0000
1300
0010
0100
0000
,
0020
0000
0000
0000
1030
0001
0010
0001
2000
0000
0000
0000
3010
0100
0001
0010
,
0000
0100
0000
0010
0000
0001
0000
1000
0000
0010
0000
0000
0100
0010
1000
0001
,
0200
0000
0000
0000
0310
1000
0001
1000
0000
0010
0000
0100
0000
0001
0000
1000
,
0000
0200
0000
0020
0000
0000
0000
0000
0330
0000
0000
0000
0001
0100
0010
2000
,
0000
0000
0000
0000
3100
0010
0100
1000
0002
0000
0000
0000
0103
0010
1000
0001
,
0000
1000
0000
0100
0000
1000
0000
0001
0000
0100
0000
0000
0010
1000
0001
1000
,
0020
0000
0000
0000
0130
0001
0010
0100
0000
1000
0000
0010
0000
1000
0000
0100
,
0000
0010
0000
0001
0000
0000
0100
0010
0000
2000
0000
0002
0000
0000
3003
0000
,
0220
0000
0000
0000
,
0000
0000
0000
0330
,
1000
0100
0001
0100
1000
0010
0100
0001
,
0020
0000
0000
0130
,
1000
0100
0000
0010
0000
0000
1000
0000
0001
0100
0000
0010
0000
0000
0100
0000
,
0001
1000
0000
0100
0000
0000
0010
0000
1000
0001
0000
0100
0000
0000
0010
0000
,
1000
0100
0010
0100
1000
0001
0100
0010
,
0100
0001
0010
0100
0010
0001
0100
0010
,
1000
0001
0000
0010
0000
0000
0001
0000
1000
0100
0000
0010
0000
0000
0100
0000
,
1000
0001
0000
0100
0000
0000
0010
0000
0100
0001
0000
1000
0000
0000
0100
0000
,
0010
0001
0100
0010
1000
0100
1000
0010
,
0100
0001
0100
0001
1000
0100
0010
0001
,
1000
0010
1000
0001
1000
0100
1000
0010
,
0100
0001
0100
0010
0100
1000
0100
0010
,
0100
0001
0010
0100
0010
0001
0100
0010
,
1000
0100
0010
0100
1000
0001
0100
0010
,
2000
0000
0000
3100
0000
0000
0000
0000
0002
0000
0000
0103
0000
0000
0000
0000
,
0020
0000
0000
1030
0000
0000
0000
0000
0002
0000
0000
0013
0000
0000
0000
0000
,
0100
1000
0010
0000
0100
0001
0010
0000
,
0100
1000
0010
0100
0001
0010
0110
0000
,
1000
0100
1000
0001
1000
0010
1000
0000
,
0001
0100
0001
1000
0001
0010
0001
0000
,
0100
0010
1000
0001
0010
0100
0010
0000
,
0001
0100
0010
1000
0100
0010
0001
1000
,
0010
1000
0100
0001
,
0010
0001
0100
1000
,
0010
1000
0001
1000
,
0010
0100
0010
0100
0001
1000
0100
0010
,
0220
0000
0000
0000
,
0330
0000
0000
0000
;

//---------------dance-single - ----------------
#NOTES:
     dance-single:
     :
     Challenge:
     14:
     0.610634,0.712407,0.125258,0.587148,0.465804,546.000000,530.000000,16.000000,75.000000,14.000000,0.000000,0.610634,0.712407,0.125258,0.587148,0.465804,546.000000,530.000000,16.000000,75.000000,14.000000,0.000000:
// measure 0
0000
0000
0000
0000
,  // measure 1
0000
0000
0000
0000
,  // measure 2
0000
0000
0000
0000
,  // measure 3
0000
0000
0000
0000
,  // measure 4
2000
3100
0010
0001
0100
0010
1000
0200
,  // measure 5
2300
3010
0100
0010
1000
0001
0010
0002
,  // measure 6
0203
0310
0100
0001
1000
0100
1000
0010
,  // measure 7
0100
0000
0001
0000
0100
0000
0010
0000
0100
0000
1000
0100
0010
0000
0002
0000
,  // measure 8
2003
3010
1000
0100
0010
0100
1000
0002
,  // measure 9
0203
0310
1000
0001
1000
0010
0100
0002
,  // measure 10
0023
0031
0100
0001
1000
0100
1000
0001
,  // measure 11
0100
0000
0010
0000
1000
0000
0001
0000
0010
0001
0010
0000
0100
1000
0100
0010
,  // measure 12
0001
0000
1000
0001
0010
0000
0001
0000
0100
0000
0010
0000
1000
0000
0200
0000
,  // measure 13
2300
0000
3010
0100
0001
0000
0100
0000
0010
0000
1000
0000
0001
0000
0020
0000
,  // measure 14
0032
0000
0103
0010
1000
0000
0100
0000
1000
0000
0010
0000
0100
0000
0001
0000
,  // measure 15
0010
0100
0010
0001
0100
0010
1000
0200
,  // measure 16
2300
0000
3010
0100
0010
0000
1000
0000
0100
0000
0010
0000
0001
0000
2000
0000
,  // measure 17
3020
0000
0130
0001
0100
0000
0010
0000
1000
0000
0001
0000
0010
0000
0200
0000
,  // measure 18
2300
0000
3010
0100
0001
0000
1000
0000
0100
0000
1000
0000
0010
0000
0100
0000
,  // measure 19
0001
0010
0100
1000
0010
0100
0101
0000
,  // measure 20
1100
0100
0010
0002
M000
0100
0103
0000
,  // measure 21
0010
1000
0100
0020
M000
0032
M000
0103
,  // measure 22
0010
1000
0001
2000
000M
3100
0010
0001
,  // measure 23
0100
0010
1000
0001
0010
0010
0001
0001
,  // measure 24
0100
0010
1000
0200
1000
1300
0010
0100
,  // measure 25
0001
1000
0001
0200
0010
0310
1000
0001
,  // measure 26
2000
3200
0302
0023
,  // measure 27
0130
1000
0010
1000
0100
0010
0110
0000
,  // measure 28
1002
0000
0103
0000
0010
1000
0001
1000
0200
0000
1300
0000
1100
1000
0010
0200
,  // measure 29
0000
0302
0000
0023
0000
0230
0000
1300
0002
0000
0103
0000
0101
0100
0010
1000
,  // measure 30
0002
0000
0013
0000
0100
1000
0100
0010
0002
0000
1003
0000
1001
1000
0010
0100
,  // measure 31
0001
0010
0001
0100
0020
0000
1030
0000
0200
0000
1300
0000
1100
1000
0010
0100
,  // measure 32
0002
0000
0013
0000
0100
1000
0001
1000
0200
0000
0310
0000
0110
0010
0001
0200
,  // measure 33
0000
0320
0000
2030
0000
3002
0000
0013
0200
0000
1300
0000
1001
1000
0010
0100
,  // measure 34
0020
0000
1030
0000
0001
0010
0100
0020
0000
0032
0000
0103
0010
1000
0001
2000
,  // measure 35
0000
3020
0000
0130
0001
0000
1000
0200
0000
0320
0000
0002
0000
0000
0033
0000
,  // measure 36
2002
3MM3
2002
3MM3
,  // measure 37
2002
3MM3
2002
3MM3
,  // measure 38
1000
0010
1000
0010
0100
0001
0100
0001
1000
0100
1000
0100
0010
0001
0010
0002
,  // measure 39
2000
0000
3003
0110
,  // measure 40
1000
0100
0000
0100
1000
0000
0010
0000
0100
0001
0000
0001
0100
0000
0010
0000
,  // measure 41
1000
0001
0000
0001
0010
0000
0001
0000
0100
0010
0000
0010
1000
0000
0100
0000
,  // measure 42
0010
0001
0000
0010
0001
0000
0100
0000
0010
1000
0000
0010
1000
0000
0100
0000
,  // measure 43
1000
0001
0000
1000
0001
0000
0100
0000
0010
1000
0000
0100
0000
0010
0001
0010
,  // measure 44
0001
0100
0000
0001
0100
0000
0010
0000
1000
0100
0000
1000
0100
0000
0010
0000
,  // measure 45
0001
1000
0000
0001
1000
0000
0010
0000
1000
0100
0000
1000
0100
0000
0010
0000
,  // measure 46
0001
0100
0000
0010
0100
0000
0001
0000
1000
0100
0000
0010
0100
0000
1000
0000
,  // measure 47
0001
0100
0000
0010
1000
0000
0001
1000
0100
0000
0010
0001
0000
0010
0100
1000
,  // measure 48
0100
0000
0010
0001
0010
0000
0100
0000
1000
0000
0010
0100
0010
0000
1000
0000
,  // measure 49
0001
0000
0010
0100
0010
0000
0001
0000
1000
0000
0010
1000
0010
0000
0100
0000
,  // measure 50
0001
0000
0010
0001
0010
0000
0100
0000
1000
0000
0001
0100
0010
0000
1000
0000
,  // measure 51
0001
0000
1000
0100
0010
0000
0001
0000
1000
0000
0010
0100
0001
0000
0010
0000
,  // measure 52
0100
1000
0000
0020
0000
0000
0130
0000
0001
0010
0000
0200
0000
0000
1300
0000
,  // measure 53
0001
0100
0000
0020
0000
0000
1030
0000
0001
0010
0000
0200
0000
0000
1300
0000
,  // measure 54
0001
0100
0010
1000
0010
0100
0001
1000
,  // measure 55
0100
0000
0010
0000
0001
0000
0100
0000
0010
1000
0001
0010
M200
0000
032M
0000
,  // measure 56
0031
0000
0100
0001
0100
0000
0001
0100
0001
0000
0010
0000
0100
0000
1000
0000
,  // measure 57
0010
0000
1000
0010
1000
0000
0010
1000
0010
0000
0100
0000
0001
0000
1000
0000
,  // measure 58
0100
0000
0010
0100
0010
0000
0100
0010
0100
0000
0010
0000
0001
0000
0100
0000
,  // measure 59
0010
0000
1000
0001
1000
0000
0001
1000
0001
0000
0010
0000
0100
0000
1000
0000
,  // measure 60
0010
0100
0010
0100
0001
0100
0001
0100
,  // measure 61
0001
1000
0001
1000
0100
1000
0100
1000
,  // measure 62
0010
0100
0010
1000
0100
1000
0001
0100
,  // measure 63
0001
0010
0100
0010
0001
0100
0010
1000
,  // measure 64
2002
0000
0000
0000
,  // measure 65
3003
0000
0000
0000
;
