#VERSION:0.83;
#TITLE:Stay Young;
#SUBTITLE:;
#ARTIST:Darren Styles, Dougal & Gammer;
#TITLETRANSLIT:;
#SUBTITLETRANSLIT:;
#ARTISTTRANSLIT:;
#GENRE:;
#ORIGIN:;
#CREDIT:;
#BANNER:stay-young-bn.png;
#BACKGROUND:stay-young-bg.png;
#PREVIEWVID:;
#JACKET:stay-young-jacket.png;
#CDIMAGE:;
#DISCIMAGE:;
#LYRICSPATH:;
#CDTITLE:pecd.png;
#MUSIC:Stay Young.ogg;
#OFFSET:-0.003000;
#SAMPLESTART:90.355003;
#SAMPLELENGTH:12.000000;
#SELECTABLE:YES;
#BPMS:0.000=170.000;
#STOPS:;
#DELAYS:;
#WARPS:;
#TIMESIGNATURES:0.000=4=4;
#TICKCOUNTS:0.000=4;
#COMBOS:0.000=1;
#SPEEDS:0.000=1.000=0.000=0;
#SCROLLS:0.000=1.000;
#FAKES:;
#LABELS:0.000=Song Start;
#BGCHANGES:;
#KEYSOUNDS:;
#ATTACKS:
;

//---------------dance-single - ----------------
#NOTEDATA:;
#CHARTNAME:;
#STEPSTYPE:dance-single;
#DESCRIPTION:;
#CHARTSTYLE:;
#DIFFICULTY:Beginner;
#METER:3;
#RADARVALUES:0.153402,0.200483,0.000000,0.068541,0.000000,141.000000,141.000000,0.000000,9.000000,0.000000,0.000000,0.000000,0.000000,0.000000,0.153402,0.200483,0.000000,0.068541,0.000000,141.000000,141.000000,0.000000,9.000000,0.000000,0.000000,0.000000,0.000000,0.000000;
#CREDIT:SHAYMIN;
#NOTES:
// measure 0
0000
0000
0000
0000
,  // measure 1
0000
0000
0000
0000
,  // measure 2
0000
0000
0000
0000
,  // measure 3
0000
0000
0000
0000
,  // measure 4
1000
0000
0000
0000
,  // measure 5
0100
0000
0000
0000
,  // measure 6
0010
0000
0000
0000
,  // measure 7
0001
0000
0000
0000
,  // measure 8
0100
0000
0100
0000
,  // measure 9
0000
0000
0010
0000
,  // measure 10
0010
0000
0010
0000
,  // measure 11
0000
0000
1000
0000
,  // measure 12
0001
0000
0001
0000
,  // measure 13
1000
0000
1000
0000
,  // measure 14
0001
0000
0000
0000
,  // measure 15
1000
0000
0000
0000
,  // measure 16
0010
0000
0010
0000
,  // measure 17
0000
0000
0100
0000
,  // measure 18
0100
0000
0100
0000
,  // measure 19
0000
0000
0001
0000
,  // measure 20
1000
0000
1000
0000
,  // measure 21
0001
0000
0001
0000
,  // measure 22
1000
0000
0000
0000
,  // measure 23
0001
0000
0000
0000
,  // measure 24
2000
0000
3000
0000
,  // measure 25
0100
0100
0100
0000
,  // measure 26
2000
0000
3000
0000
,  // measure 27
0100
0100
0100
0000
,  // measure 28
0002
0000
0003
0000
,  // measure 29
0010
0010
0010
0000
,  // measure 30
0002
0000
0003
0000
,  // measure 31
0010
0010
0010
0000
,  // measure 32
0001
0000
0001
0000
,  // measure 33
0001
0000
0000
0000
,  // measure 34
1000
0000
1000
0000
,  // measure 35
1000
0000
0000
0000
,  // measure 36
0010
0000
0100
0000
,  // measure 37
0010
0000
0000
0000
,  // measure 38
0100
0000
0010
0000
,  // measure 39
0100
0000
0000
0000
,  // measure 40
0002
0000
0003
0000
,  // measure 41
0002
0000
0003
0000
,  // measure 42
2000
0000
3000
0000
,  // measure 43
2000
0000
3000
0000
,  // measure 44
0010
0000
0100
0000
,  // measure 45
0010
0000
0100
0000
,  // measure 46
0010
0000
0010
0000
,  // measure 47
0010
0010
0010
0000
,  // measure 48
1000
0000
0000
0001
,  // measure 49
0001
0000
0000
1000
,  // measure 50
1000
0000
0001
0000
,  // measure 51
1000
0000
0001
0000
,  // measure 52
0010
0000
0000
0100
,  // measure 53
0100
0000
0000
0010
,  // measure 54
0010
0000
0100
0000
,  // measure 55
0010
0000
0100
0000
,  // measure 56
0010
0000
0000
0001
,  // measure 57
0001
0000
0000
0100
,  // measure 58
0100
0000
0010
0000
,  // measure 59
1000
0000
0001
0000
,  // measure 60
0100
0000
0000
0010
,  // measure 61
0010
0000
0000
1000
,  // measure 62
1000
0000
0000
0000
,  // measure 63
0010
0000
0000
0000
,  // measure 64
0100
0000
0010
0000
,  // measure 65
0100
0000
0000
0000
,  // measure 66
0010
0000
0100
0000
,  // measure 67
0010
0000
0000
0000
,  // measure 68
1000
0000
0001
0000
,  // measure 69
1000
0000
0000
0000
,  // measure 70
0001
0000
1000
0000
,  // measure 71
0001
0000
0000
0000
,  // measure 72
1000
0000
0010
0000
,  // measure 73
0100
0000
0000
0000
,  // measure 74
0001
0000
0010
0000
,  // measure 75
0100
0000
0000
0000
,  // measure 76
1000
0000
0001
0000
,  // measure 77
0100
0000
0010
0000
,  // measure 78
1000
0000
0001
0000
,  // measure 79
0020
0000
0030
0000
,  // measure 80
0100
0000
0100
0000
,  // measure 81
1000
0000
1000
0000
,  // measure 82
0010
0000
0010
0000
,  // measure 83
0100
0000
0100
0000
,  // measure 84
0001
0000
1000
0000
,  // measure 85
0001
0000
1000
0000
,  // measure 86
0010
0000
0000
0000
,  // measure 87
0010
0010
0010
0010
;

//---------------dance-single - ----------------
#NOTEDATA:;
#CHARTNAME:;
#STEPSTYPE:dance-single;
#DESCRIPTION:;
#CHARTSTYLE:;
#DIFFICULTY:Easy;
#METER:6;
#RADARVALUES:0.285044,0.400966,0.121851,0.038078,0.000000,262.000000,246.000000,16.000000,5.000000,0.000000,0.000000,0.000000,0.000000,0.000000,0.285044,0.400966,0.121851,0.038078,0.000000,262.000000,246.000000,16.000000,5.000000,0.000000,0.000000,0.000000,0.000000,0.000000;
#CREDIT:SHAYMIN;
#NOTES:
0000
0000
0000
0000
,
0000
0000
0000
0000
,
0000
0000
0000
0000
,
0000
0000
0000
0000
,
0010
0000
0000
0000
,
0100
0000
0001
0000
,
1000
0000
0000
0000
,
0100
0000
1000
0000
,
0001
0000
0100
0000
,
0001
0001
1000
0000
,
1000
0000
0100
0000
,
1000
1000
0001
0001
,
0020
0000
0030
0000
,
1000
1000
0001
0001
,
0200
0000
0300
0000
,
0010
0000
0100
0000
,
0001
0000
0010
0000
,
0001
0001
0100
0000
,
0010
0000
1000
0000
,
0100
1000
0001
1000
,
0200
0000
0300
0000
,
0010
0001
1000
0001
,
0020
0000
0030
0000
,
0100
0000
0010
0000
,
0110
0000
1000
0000
,
0001
1000
0001
0000
,
1001
0000
0010
0000
,
0100
0010
0100
0000
,
0110
0000
0001
0000
,
1000
0001
1000
0000
,
1001
0000
0100
0000
,
0010
0100
0010
0000
,
1000
1000
1000
0100
,
0001
0001
0001
0000
,
1000
1000
1000
0010
,
0001
1000
0001
1000
,
0010
0000
0100
0000
,
0001
0010
0100
1000
,
0010
0000
0100
0000
,
0010
1000
0001
0000
,
1000
1000
0100
1000
,
0010
0010
0100
0000
,
0010
0010
0001
0100
,
0010
1000
0100
0000
,
1000
0010
0100
0001
,
1000
0100
0010
0001
,
1000
0001
1000
0001
,
1001
1001
1001
0000
,
1000
0100
0001
0100
,
1000
0010
0001
0010
,
1000
0000
0100
0000
,
0010
0001
0010
0000
,
0001
0100
1000
0100
,
0001
0010
1000
0010
,
0001
0000
0100
0000
,
0010
1000
0010
0000
,
0100
0001
0010
0001
,
0100
0010
1000
0100
,
1000
0000
0010
0000
,
0100
0001
1000
0000
,
0010
0100
0001
0100
,
0010
1000
0100
0010
,
0001
0000
0000
0000
,
0110
0110
0110
0000
,
1000
0001
0100
0001
,
1000
1000
1000
0000
,
0001
1000
0100
1000
,
0001
0001
0001
0000
,
1000
0010
0100
0001
,
0010
0010
0010
0000
,
0001
0100
0010
1000
,
0100
0100
0100
0000
,
1100
0000
0001
0000
,
0100
0001
0100
0000
,
0101
0000
1000
0000
,
0100
1000
0100
0000
,
0010
0001
0010
0001
,
1000
0100
1000
0100
,
0020
0000
0000
0000
,
0000
0000
0000
0030
,
0100
0100
0100
0100
,
0010
0010
0010
0010
,
0001
0001
0001
0001
,
1000
1000
1000
1000
,
0010
0100
0010
0100
,
0001
1000
0001
1000
,
0100
0000
0000
0000
,
0110
1001
0110
1001
;

//---------------dance-single - ----------------
#NOTEDATA:;
#CHARTNAME:;
#STEPSTYPE:dance-single;
#DESCRIPTION:;
#CHARTSTYLE:;
#DIFFICULTY:Medium;
#METER:9;
#RADARVALUES:0.407983,0.534621,0.152314,0.190392,0.000000,375.000000,355.000000,20.000000,25.000000,0.000000,0.000000,0.000000,0.000000,0.000000,0.407983,0.534621,0.152314,0.190392,0.000000,375.000000,355.000000,20.000000,25.000000,0.000000,0.000000,0.000000,0.000000,0.000000;
#CREDIT:SHAYMIN;
#NOTES:
0000
0000
0000
0000
,
0000
0000
0000
0000
,
0000
0000
0000
0000
,
0000
0000
0000
0000
,
2000
0000
0000
3000
,
0100
0000
0000
0100
0000
0000
0000
0000
,
0002
0000
0000
0003
,
0100
0000
0000
0100
0000
0000
0000
0000
,
2000
0010
3010
0000
,
0100
0001
1000
0000
0001
0000
0000
0000
,
2000
0000
0100
0000
0100
3000
0000
0000
,
0010
0001
0100
1000
,
0020
0000
0130
0000
,
1000
0100
0001
0010
,
2000
0000
3100
0000
,
0020
0000
0130
0000
,
0002
0100
0103
0000
,
0100
0001
1000
0000
0001
0000
0000
0000
,
0020
1000
1030
0000
,
0010
1000
0100
0001
,
0020
0000
0031
0000
,
1000
0010
0001
0100
,
2000
0000
3100
0000
,
0020
0000
0000
0200
0000
0000
0330
0000
,
1001
0001
0100
0001
,
0010
0100
0010
0000
0001
0000
0100
0000
,
1001
1000
0100
0010
,
0100
0010
0100
0000
1000
0000
0001
0000
,
0101
0001
1000
0100
,
1000
0100
1000
0000
0100
0000
1000
0000
,
1100
1000
0001
0100
,
0001
0100
0001
0000
0100
0000
0001
0000
,
0020
0001
0130
0001
,
0100
0010
0100
0000
0001
0000
1000
0000
,
0200
0010
1300
0010
,
0001
0000
0100
0000
1000
0000
0010
0100
,
0020
1000
1000
1030
,
0001
0000
0010
0000
1000
0000
0010
0100
,
0020
0001
0001
0031
,
0100
0010
0100
0001
,
1000
0100
1000
0000
0001
0000
0100
0000
,
0010
0100
0010
0000
0100
0000
0001
0000
,
0010
0001
0010
0000
0100
0000
1000
0000
,
0010
1000
0010
0000
0100
0000
0001
0000
,
1000
0100
1000
0000
0100
1000
0100
0000
,
0010
0100
0010
0000
0100
0010
0100
0000
,
0010
0001
0010
0001
1000
0001
1000
0000
,
0110
1001
0110
0000
,
0010
0000
1000
0000
0001
0100
0010
0000
,
0100
0000
0001
0000
0010
0100
1000
0000
,
0001
1000
0100
1000
,
0010
0000
0100
0001
0000
0100
0001
0000
,
1000
0000
0100
0000
0010
0001
0100
0000
,
0001
0000
0010
0000
0100
1000
0010
0000
,
1000
0001
0100
0001
,
1000
0000
0100
1000
0000
0100
1000
0000
,
0010
0000
0100
0010
0100
0010
0100
0000
,
0001
0000
1000
0100
1000
0100
1000
0000
,
0001
0100
1000
0100
,
0001
0000
0010
0001
0000
0010
0001
0000
,
0100
0000
0010
1000
0010
0100
0010
0000
,
1000
0000
0100
0010
0100
1000
0100
0000
,
0020
0000
0000
0030
,
1001
0110
1001
0100
,
0010
1000
0010
0000
0100
0001
0100
0000
,
0010
1000
0002
0013
,
0100
1000
0100
0000
0010
0001
0010
0000
,
0100
1000
0020
0130
,
0001
1000
0100
0000
1000
0001
0100
0000
,
0010
1000
0002
0103
,
0010
1000
0001
0000
0010
0001
1000
0000
,
0001
0010
2000
3100
,
0020
0001
0100
0031
,
0100
0010
0100
0000
0110
0000
1000
0000
,
0002
0100
1000
0103
,
1000
0100
0010
0000
0110
0000
0001
0000
,
1100
1000
0101
0001
,
1010
1000
0011
0001
,
0200
0000
0000
0000
,
0010
0010
0010
0310
,
1000
0001
1000
0000
0001
0100
0001
0000
,
0100
0010
0100
0000
0010
1000
0010
0000
,
1000
0100
1000
0000
0010
0000
0100
0000
,
0001
0010
0001
0000
0100
0000
0010
0000
,
1000
0001
1000
0001
1000
0001
1000
0000
,
0010
0100
0010
0100
0010
0100
0010
0000
,
1000
0000
0000
0000
,
0110
1001
0110
1001
;

//---------------dance-single - ----------------
#NOTEDATA:;
#CHARTNAME:;
#STEPSTYPE:dance-single;
#DESCRIPTION:;
#CHARTSTYLE:;
#DIFFICULTY:Hard;
#METER:12;
#RADARVALUES:0.534186,0.668276,0.411247,0.182776,0.034271,491.000000,437.000000,54.000000,24.000000,0.000000,0.000000,0.000000,0.000000,0.000000,0.534186,0.668276,0.411247,0.182776,0.034271,491.000000,437.000000,54.000000,24.000000,0.000000,0.000000,0.000000,0.000000,0.000000;
#CREDIT:SHAYMIN;
#NOTES:
0000
0000
0000
0000
,
0000
0000
0000
0000
,
0000
0000
0000
0000
,
0000
0000
0000
0000
,
0020
0000
0000
0000
,
0100
0000
0000
0130
0000
0000
0000
0000
,
2000
0000
0000
0000
,
0001
0000
0000
3001
0000
0000
0000
0000
,
1000
0100
1100
1000
,
0001
0100
0010
0000
0110
0000
0000
0000
,
0100
0001
1001
0001
,
0200
0000
0310
0000
2000
0000
3001
0010
,
0200
0010
0310
0000
,
2000
0000
3001
0000
0200
0000
0301
1000
,
0200
1000
1300
0000
,
0020
0000
0000
0130
0000
0000
0000
0000
,
0010
0100
0110
0100
,
1000
0001
0100
0000
0101
0000
0000
0000
,
0001
1000
1100
1000
,
0020
0000
1030
0000
0002
0000
0103
0010
,
2000
0100
3100
0000
,
0020
0000
0031
0000
2000
0000
3100
0010
,
0002
0100
0103
0000
,
0020
0000
0000
0130
0000
0000
0000
0000
,
1001
0000
0000
0000
1000
0000
0000
0000
0100
0000
0000
0010
0000
0000
0010
0000
,
0001
0000
1000
0000
0100
0000
0000
0000
1000
0000
0000
1000
0000
0000
1000
0000
,
0010
0000
0000
0000
0100
0000
0000
0000
0001
0000
0000
0001
0000
0000
0001
0000
,
0010
0000
0100
0000
1000
0000
0001
0000
1000
0000
0000
1000
0000
0000
1000
0000
,
0100
0000
0000
0000
0010
0000
0000
0000
0001
0000
0000
1000
0000
0000
0001
0000
,
1000
0000
0100
0000
0010
0000
0000
0000
0100
0000
0000
1000
0000
0000
0010
0000
,
0100
0000
0000
0000
0010
0000
0000
0000
1000
0000
0000
0001
0000
0000
1000
0000
,
0100
0000
0010
0000
0001
0000
1000
0000
0001
0000
0000
0100
0000
0000
0010
0000
,
1000
0000
1100
0000
1100
0000
1000
0010
,
0100
0001
0010
0000
0021
0000
0130
0000
,
0010
0000
1001
0000
1001
0000
0100
0010
,
2000
0000
3100
0000
0020
0000
0031
0100
,
0020
1000
0001
1030
,
0101
0000
0001
0000
1100
0000
1000
0010
,
0200
0010
1000
0310
,
0001
0000
0010
0000
0100
0000
0010
0000
0001
0000
0000
0100
0000
0000
0010
0000
,
1000
0100
1000
0000
0001
0000
1000
0100
,
1000
0001
1000
0000
0010
0000
0100
0001
,
0010
0100
1000
0000
0010
0000
1000
0100
,
0010
0100
1000
0000
0001
0000
1000
0010
,
0100
0001
0100
0000
0010
1000
0010
0000
,
0100
0001
1000
0001
0100
0010
1000
0000
,
0100
0010
0001
0100
0010
1000
0001
0100
,
0110
1001
0110
0000
,
1001
0000
1000
0100
0001
0100
1000
0000
,
1001
0000
1000
0010
0001
0010
1000
0000
,
1000
0001
0010
0010
0100
0010
0010
0001
,
0100
0000
1000
0100
0000
0001
0100
0000
,
1001
0000
1000
0010
0001
0010
1000
0000
,
1001
0000
1000
0100
0001
0100
1000
0000
,
0001
0010
0100
0100
1000
0100
0100
0010
,
0001
0000
1000
0010
0100
0001
1000
0000
,
1001
0000
1100
0000
0101
0100
0110
0000
,
1001
0000
0101
0000
1100
0100
0110
0000
,
0010
0001
0100
1000
0100
0001
0010
0100
,
1000
1000
0010
0100
0100
0010
0110
0000
,
1001
0000
0101
0000
1010
1000
1100
0000
,
1001
0000
1100
0000
0011
0001
0101
0000
,
0220
0000
0000
0330
,
0110
1001
0110
0000
,
1000
0100
1000
0010
0100
0001
0010
0100
,
0010
0001
0100
0010
1000
0001
1000
0000
,
0001
0010
0100
0010
0001
0100
0010
1000
,
0001
1000
0010
0100
0001
1000
0100
0000
,
0010
1000
0010
0100
0010
0001
0010
0100
,
0010
0001
0100
0010
1000
0001
1000
0000
,
0100
0010
0100
1000
0100
0010
0100
0001
,
0100
0010
1000
0001
0010
0100
0010
0000
,
1001
1100
1001
0101
,
0010
1000
0001
0100
0010
0000
1000
0000
,
0011
1001
1010
1001
,
1000
0100
0010
0001
0100
0000
0010
0000
,
0010
1000
0100
1000
0010
0100
0001
0010
,
0001
0100
0010
1000
0001
0010
0100
1000
,
0020
0000
0000
0000
,
0100
0100
0100
0130
,
1000
1000
0100
0000
0001
0001
0100
0000
,
1000
0010
0001
0000
0001
0010
1000
0000
,
0001
0001
0100
0000
1000
1000
0100
0000
,
0001
0100
1000
0100
0001
0010
0100
0000
,
1000
0010
1000
0010
0100
0001
0100
0001
,
1000
0100
1000
0100
0010
0001
1000
0010
,
0100
0000
0000
0000
,
0110
1001
0110
1001
;

//---------------dance-single - ----------------
#NOTEDATA:;
#CHARTNAME:;
#STEPSTYPE:dance-single;
#DESCRIPTION:;
#CHARTSTYLE:;
#DIFFICULTY:Challenge;
#METER:13;
#RADARVALUES:0.597287,0.801931,0.335090,0.274165,0.121851,549.000000,505.000000,44.000000,36.000000,26.000000,0.000000,0.000000,0.000000,0.000000,0.597287,0.801931,0.335090,0.274165,0.121851,549.000000,505.000000,44.000000,36.000000,26.000000,0.000000,0.000000,0.000000,0.000000;
#CREDIT:SHAYMIN;
#NOTES:
0000
0000
0000
0000
,
0000
0000
0000
0000
,
0000
0000
0000
0000
,
0000
0000
0000
0000
,
0002
0000
0000
0000
,
0100
0000
0000
0103
0000
0000
0000
0000
,
2000
0000
0000
0000
,
0100
0000
0000
3100
0000
0000
0000
0000
,
0010
0000
0001
0000
0011
0000
0001
0100
,
0010
1000
0010
0000
1010
0000
1000
0000
,
0100
0010
0011
0001
,
0200
0000
0310
0000
2000
0000
3001
0010
,
0200
1000
0010
0300
,
2000
0000
3010
0000
0200
0000
0301
0010
,
0002
0100
1000
0003
,
2000
0000
0000
3100
0000
0000
0010
0000
,
0001
0100
0101
0001
,
0010
0100
1000
0000
1100
0000
1000
0000
,
0010
0100
0101
0001
,
0020
0000
0130
0000
2000
0000
3100
0010
,
0002
0010
0100
0003
,
2000
0000
3010
0000
0200
0000
0301
1000
,
0020
0100
1000
0030
,
2000
0000
0000
3001
0000
0000
0010
0000
,
2001
0000
0000
0000
3100
0000
0000
0000
0010
0000
0001
0010
0000
0000
0001
0000
,
0100
0000
0010
0000
1000
0001
0000
0000
1000
0000
0000
0100
0000
0000
1000
0000
,
0020
0000
0000
0000
0130
0000
0000
0000
0001
0000
1000
0100
0000
0000
1000
0000
,
0010
0000
0100
0000
0001
1000
0000
1000
0001
0000
0000
0010
0000
0000
0100
0000
,
1000
0000
0010
0000
0100
0000
0000
0000
0001
0000
0010
0001
0000
0000
0100
0000
,
0010
0000
1000
0000
0001
1000
0000
0000
0100
0000
0000
0010
0000
0000
0100
0000
,
1000
0000
0001
0000
0100
0000
0000
0000
0010
0000
1000
0010
0000
0000
1000
0000
,
0100
0000
1000
0000
0010
0100
0000
0100
0010
0000
0000
1000
0000
0000
0001
0000
,
0011
0000
0110
0000
1100
0000
1000
0010
,
0100
0001
1001
0000
0021
0000
0130
0000
,
1100
0101
1001
0100
,
0010
1000
0010
0100
0020
0000
1030
0001
,
0020
0100
0100
0000
0001
0000
0130
0000
,
1000
0001
0100
0001
1000
0000
0100
0010
,
0002
0100
0100
0000
1000
0000
0013
0000
,
1000
0000
0100
0000
1000
0100
0000
0000
0010
0000
0000
0001
0000
0000
0010
0000
,
0100
1000
0001
1000
0100
0010
0001
0100
,
0010
1000
0001
1000
0010
0100
0001
1000
,
0100
0010
0100
1000
0010
0100
0010
0001
,
0010
0100
1000
0001
0100
1000
0100
0001
,
0010
0100
0010
0000
0001
0000
0100
0000
0010
1000
0010
0000
0100
0000
0001
0000
,
1000
0100
1000
0000
0001
0000
1000
0000
0001
0100
0001
0000
1000
0000
0001
0000
,
1000
0100
1000
0000
0001
1000
0001
0000
0100
0001
0100
0000
0010
0100
0010
0000
,
1010
0110
1001
MMMM
,
2000
0100
3001
0001
0002
0100
1003
0000
,
0002
0100
1003
1000
2000
0100
3001
0000
,
MMMM
0100
0010
0100
0010
0010
1000
0001
,
0010
0100
1000
0010
0100
0010
1001
0000
,
0002
0010
1003
1000
2000
0010
3001
0000
,
2000
0010
3001
0001
0002
0010
1003
0000
,
MMMM
0010
0100
0010
0100
0100
0001
0010
,
0001
0000
0100
0000
0010
0000
1000
0000
0001
1000
0100
1000
0001
0000
0000
0000
,
1100
0100
0010
0001
0100
0010
1000
00M0
,
0101
0100
0010
1000
0100
0010
0001
0M00
,
1000
0100
0001
0100
1000
0010
0100
0001
,
0020
0001
0031
0020
0100
0130
1001
0000
,
1010
1000
0100
0010
0001
0100
0001
M000
,
0011
0001
0100
0010
1000
0100
1000
000M
,
0020
0000
0000
0030
,
0110
1001
0110
MMMM
,
1000
0100
0001
0100
1000
0010
0001
0010
,
1000
0100
0010
0001
0100
1000
0100
0001
,
1000
0010
0001
0010
1000
0100
0001
0100
,
1000
0000
0010
0000
0100
0001
0000
0001
0010
0000
0001
0000
1001
0000
0000
0000
,
0100
0010
0001
0010
0100
1000
0010
0100
,
0010
1000
0100
0010
0001
0100
0010
0100
,
0001
1000
0100
1000
0001
0100
0001
1000
,
0100
0000
0010
0000
0001
1000
0000
1000
0010
0100
0010
0100
0010
0000
M00M
0000
,
0110
0100
0001
0000
0021
0000
0130
1000
,
0001
1000
0100
0010
0110
0000
1001
0000
,
0110
0100
0001
0000
1020
0000
0130
0001
,
1000
0001
0100
0010
0110
0000
1001
0000
,
1100
0100
0010
0000
0110
0100
1000
0000
,
0001
0100
0010
0100
0001
1000
0100
0010
,
0200
0000
0000
0000
,
0010
0010
0010
0310
,
0001
0001
1000
1000
0100
0100
1000
1000
,
0010
0100
0010
0100
0001
1000
0001
1000
,
0001
0010
0001
1000
0001
0100
0001
1000
,
0100
1000
0001
1000
0100
1000
1001
0000
,
0110
0100
0001
0100
0010
0100
0001
0100
,
0010
1000
0001
1000
0010
0100
0001
1000
,
0M01
00M0
0M00
00M0
,
0110
1001
0110
1001
;
