#VERSION:0.83;
#TITLE:Rush-More;
#SUBTITLE:;
#ARTIST:litmus*;
#TITLETRANSLIT:;
#SUBTITLETRANSLIT:;
#ARTISTTRANSLIT:;
#GENRE:;
#ORIGIN:;
#CREDIT:;
#BANNER:rush-more-bn.png;
#BACKGROUND:rush-more-bg.png;
#PREVIEWVID:;
#JACKET:rush-more-jacket.png;
#CDIMAGE:;
#DISCIMAGE:;
#LYRICSPATH:;
#CDTITLE:pecd.png;
#MUSIC:Rush-More.ogg;
#OFFSET:-0.100000;
#SAMPLESTART:24.140001;
#SAMPLELENGTH:12.000000;
#SELECTABLE:YES;
#BPMS:0.000=160.000,
98.000=80.000,
105.000=160.000,
190.000=80.000,
206.000=160.000;
#STOPS:185.000=1.140;
#DELAYS:;
#WARPS:;
#TIMESIGNATURES:0.000=4=4;
#TICKCOUNTS:0.000=4;
#COMBOS:0.000=1;
#SPEEDS:0.000=1.000=0.000=0;
#SCROLLS:0.000=1.000;
#FAKES:;
#LABELS:0.000=Song Start;
#BGCHANGES:0.000=Rush-More.avi=1.000=1=0=0=StretchNoLoop==CrossFade==,
99999=-nosongbg-=1.000=0=0=0 // don't automatically add -songbackground-
;
#KEYSOUNDS:;
#ATTACKS:
;

//---------------dance-single - ----------------
#NOTEDATA:;
#CHARTNAME:;
#STEPSTYPE:dance-single;
#DESCRIPTION:;
#CHARTSTYLE:;
#DIFFICULTY:Beginner;
#METER:1;
#RADARVALUES:0.112382,0.176346,0.000000,0.052445,0.000000,90.000000,90.000000,0.000000,6.000000,0.000000,0.000000,0.000000,0.000000,0.000000,0.112382,0.176346,0.000000,0.052445,0.000000,90.000000,90.000000,0.000000,6.000000,0.000000,0.000000,0.000000,0.000000,0.000000;
#CREDIT:SHAYMIN;
#NOTES:
// measure 0
0000
0000
0000
0000
,  // measure 1
0000
0000
0000
0000
,  // measure 2
0000
0000
0000
0000
,  // measure 3
0000
0000
0000
0000
,  // measure 4
0000
0000
0000
0000
,  // measure 5
0000
0000
0000
0000
,  // measure 6
0000
0000
0000
0000
,  // measure 7
0000
0000
0000
0000
,  // measure 8
0002
0000
0003
0000
,  // measure 9
2000
0000
3000
0000
,  // measure 10
0002
0000
0003
0000
,  // measure 11
2000
0000
3000
0000
,  // measure 12
0010
0000
0010
0000
,  // measure 13
0010
0000
0010
0000
,  // measure 14
0010
0000
0010
0000
,  // measure 15
0010
0000
0000
0000
,  // measure 16
1000
0000
0000
0000
,  // measure 17
0100
0000
1000
0000
,  // measure 18
0100
0000
0000
0000
,  // measure 19
0010
0000
0001
0000
,  // measure 20
0010
0000
0000
0000
,  // measure 21
0001
0000
1000
0000
,  // measure 22
0001
0000
0000
0000
,  // measure 23
0020
0000
0000
0030
,  // measure 24
0000
0000
1000
0000
,  // measure 25
0001
0000
1000
0000
,  // measure 26
0001
0001
0000
0001
,  // measure 27
0000
1000
0000
1000
,  // measure 28
0000
0001
0000
1000
,  // measure 29
0000
0001
0000
0000
,  // measure 30
0000
0010
0000
0000
,  // measure 31
0000
0010
0000
0010
,  // measure 32
0000
0100
0000
0000
,  // measure 33
0000
0100
0000
0100
,  // measure 34
0000
0010
0000
0000
,  // measure 35
0000
1000
0000
1000
,  // measure 36
0000
0001
0000
0000
,  // measure 37
0000
0001
0000
0001
,  // measure 38
0000
1000
0000
0000
,  // measure 39
0000
0100
0000
0010
,  // measure 40
0000
0100
0000
0000
,  // measure 41
0000
0010
0000
0100
,  // measure 42
0000
0010
0000
0010
,  // measure 43
0000
0010
0000
0010
,  // measure 44
0000
0010
0000
0010
,  // measure 45
0000
0010
0000
0010
,  // measure 46
0000
0010
0010
0000
,  // measure 47
0100
0000
0010
0010
,  // measure 48
0000
0000
1000
1000
,  // measure 49
0000
0000
0100
0100
,  // measure 50
0000
0000
0001
0001
,  // measure 51
0000
0000
1000
0000
,  // measure 52
1000
0000
0000
0000
,  // measure 53
0001
0000
0001
0000
,  // measure 54
0001
0000
0000
0000
,  // measure 55
0010
0000
0010
0000
,  // measure 56
0100
0000
0000
0000
,  // measure 57
0100
0000
0100
0000
,  // measure 58
0010
0000
0010
0000
,  // measure 59
0000
0000
1000
0000
,  // measure 60
0000
0000
0001
0000
,  // measure 61
0000
0000
1000
0000
,  // measure 62
0000
0000
0001
0000
,  // measure 63
0000
0000
0010
0000
,  // measure 64
0000
0000
0100
0000
,  // measure 65
0000
0000
0010
0000
,  // measure 66
0000
0000
0200
0000
,  // measure 67
0000
0300
0000
0000
;

//---------------dance-single - ----------------
#NOTEDATA:;
#CHARTNAME:;
#STEPSTYPE:dance-single;
#DESCRIPTION:;
#CHARTSTYLE:;
#DIFFICULTY:Easy;
#METER:6;
#RADARVALUES:0.248488,0.293909,0.104890,0.087408,0.000000,199.000000,187.000000,12.000000,10.000000,0.000000,0.000000,0.000000,0.000000,0.000000,0.248488,0.293909,0.104890,0.087408,0.000000,199.000000,187.000000,12.000000,10.000000,0.000000,0.000000,0.000000,0.000000,0.000000;
#CREDIT:SHAYMIN;
#NOTES:
0000
0000
0000
0000
,
0000
0000
0000
0000
,
0000
0000
0000
0000
,
0000
0000
0000
0000
,
0000
0000
0000
0000
,
0000
0000
0000
0000
,
0000
0000
0000
0000
,
0010
0010
0010
0010
,
0010
0000
1000
0000
,
0010
1000
0010
0000
,
0100
0000
0001
0000
,
0100
0001
0100
0000
,
1001
0000
0110
0000
,
1001
0000
0110
0000
,
0001
1000
0001
1000
,
0002
0000
0003
0000
,
1001
1000
1000
0100
,
1000
1000
0010
0100
,
0000
0001
0001
0010
,
0001
0100
0020
0030
,
1001
0001
0001
0100
,
0001
0010
0100
0100
,
0000
1000
0010
0100
,
0020
0000
0000
0030
,
0200
0000
0310
1000
,
1001
0000
0001
0010
,
0100
1000
0000
0001
,
0000
1000
0000
0001
,
0000
1000
0100
0010
,
0001
2000
3000
0002
,
0003
1000
0001
1000
,
0001
0100
0010
1000
,
0001
1000
0010
1000
,
0100
1000
0010
1000
,
0100
0001
1000
0001
,
1000
0001
0100
0010
,
1000
0001
0100
0001
,
0010
0001
0100
0001
,
0010
0100
1000
1000
,
1000
0010
0000
0100
,
0000
0001
0010
0010
,
0010
0100
0000
0010
,
0000
1001
0000
0110
,
0000
1001
0000
0110
,
0000
0001
1000
0001
,
1000
0010
0100
0010
,
0100
0010
0100
0100
,
0100
0100
0100
0010
,
0000
0010
1000
0001
,
0000
0001
1000
0010
,
0000
0010
0100
0001
,
0000
0001
1000
0100
,
1000
0100
0010
0001
,
0020
0030
0001
0100
,
0001
0100
0010
1000
,
0020
0030
1000
0001
,
0010
0001
1000
0010
,
2000
3000
0001
0100
,
0001
1000
0100
0010
,
0100
0010
1001
0000
,
0100
0000
0010
0000
,
0100
0001
1000
0000
,
0100
0000
0010
0000
,
0100
1000
0001
0000
,
0010
0000
0100
0000
,
0010
0001
1000
0000
,
0010
0000
0200
0000
,
0000
0310
0000
0000
;

//---------------dance-single - ----------------
#NOTEDATA:;
#CHARTNAME:;
#STEPSTYPE:dance-single;
#DESCRIPTION:;
#CHARTSTYLE:;
#DIFFICULTY:Medium;
#METER:9;
#RADARVALUES:0.422056,0.470255,0.209779,0.017482,0.000000,338.000000,314.000000,24.000000,2.000000,0.000000,0.000000,0.000000,0.000000,0.000000,0.422056,0.470255,0.209779,0.017482,0.000000,338.000000,314.000000,24.000000,2.000000,0.000000,0.000000,0.000000,0.000000,0.000000;
#CREDIT:SHAYMIN;
#NOTES:
0000
0000
0000
0000
,
0000
0000
0000
0000
,
0000
0000
0000
0000
,
0000
0000
0000
0000
,
0000
0000
0000
0000
,
0000
0000
0000
0000
,
0000
0000
0000
0000
,
1000
0001
1000
0000
0010
0100
0010
0000
,
1000
0000
0100
0000
1000
0100
1000
0000
,
0010
0000
0100
0001
1000
0000
0001
0000
,
0100
0000
0001
0100
0010
0000
0010
0000
,
1000
0000
0001
1000
0100
0000
0100
0000
,
1100
0100
0101
0100
,
1010
0010
0011
0010
,
1001
0110
1001
0110
,
1000
0100
0010
0001
1000
0000
0001
0000
,
1001
0000
1000
0100
0001
0000
0100
0000
,
1000
0010
0100
0001
1000
0000
0001
0000
,
1000
0000
0001
0100
1000
0000
0100
0000
,
0001
0010
0100
0010
0002
0000
1003
0000
,
1001
0000
1000
0010
0001
0000
0010
0000
,
1000
0100
0010
0001
1000
0000
0001
0000
,
1000
0000
0001
0010
1000
0000
0010
0000
,
0001
0100
0001
1000
0001
0100
0001
0000
,
0020
0000
0000
0000
0130
0000
1000
0100
,
0010
0000
0100
0000
1000
0000
0001
0100
,
0010
0010
1000
0000
0001
0000
1000
0000
,
0001
0010
0100
0010
,
0100
1000
0100
0010
,
0100
0000
1000
0001
1000
0001
1000
0000
,
0001
0000
1001
0000
0100
0000
1000
0100
,
1000
0100
0010
0000
0001
0100
0001
0010
,
0010
0000
0100
1000
0001
0100
0010
0000
,
0100
0000
0001
0010
0100
1000
0010
0000
,
0100
0000
0010
1000
0010
0000
0100
0001
,
0100
0000
0010
0000
1000
0000
0100
0010
,
0100
0000
1000
0001
0100
0000
0001
1000
,
0100
0000
0010
0000
0001
0000
0100
0010
,
1000
0000
0010
0000
0100
0000
0001
0100
,
0001
0000
0010
0000
0100
1000
0001
0000
,
1000
0000
0100
0000
0010
0001
0100
0000
,
0100
0000
0010
0000
1000
0100
0010
0000
,
0010
0110
0010
0110
,
0100
1001
1010
1001
,
0101
0000
1000
0100
0010
0000
0001
0100
,
0010
0000
1000
0100
0010
0000
0001
0100
,
0010
0000
1001
0000
1000
0001
1000
0001
,
1000
0001
0010
0000
0100
0000
1100
0000
,
0100
1000
0100
0000
0010
0000
0011
0000
,
0010
0001
0010
0000
1100
0000
0101
0000
,
1000
0100
0001
0000
0101
0000
1100
0000
,
0001
0100
0010
1000
0001
0000
0100
0000
,
0001
0100
0001
0100
0010
0000
1000
0000
,
0100
1000
0100
0000
1000
0000
0010
0000
,
0100
0001
0100
0001
1000
0000
0001
0000
,
0100
0001
0100
0000
0010
0000
1000
0000
,
0010
1000
0010
1000
0001
0000
1000
0000
,
0010
1000
0010
0000
0100
0000
0001
0000
,
0010
0001
0010
0001
0100
0000
0010
1000
,
0001
0010
0100
0000
1000
0000
0000
0010
,
0000
0000
0001
0000
0100
0000
0000
1000
,
0000
0010
0100
0000
0010
0000
0000
1000
,
0000
0000
0100
0000
0001
0000
0000
0010
,
0000
0100
1000
0000
0010
0000
1000
0001
,
0000
1000
0001
0000
0010
0000
0100
1000
,
0000
0100
1000
0000
0001
0000
0100
0010
,
0000
0100
0010
0000
1000
0100
0010
0001
,
1000
0100
0010
0000
0000
0000
0000
0000
;

//---------------dance-single - ----------------
#NOTEDATA:;
#CHARTNAME:;
#STEPSTYPE:dance-single;
#DESCRIPTION:;
#CHARTSTYLE:;
#DIFFICULTY:Hard;
#METER:12;
#RADARVALUES:0.558163,0.705383,0.166075,0.000000,0.196668,447.000000,428.000000,19.000000,0.000000,0.000000,0.000000,0.000000,0.000000,0.000000,0.558163,0.705383,0.166075,0.000000,0.196668,447.000000,428.000000,19.000000,0.000000,0.000000,0.000000,0.000000,0.000000,0.000000;
#CREDIT:SHAYMIN;
#NOTES:
0000
0000
0000
0000
,
0000
0000
0000
0000
,
0000
0000
0000
0000
,
0000
0000
0000
0000
,
0000
0000
0000
0000
,
0000
0000
0000
0000
,
0000
0000
0000
0000
,
1000
0001
0001
0010
0100
0010
0010
0000
,
1001
0000
0100
0010
1000
0001
0100
0010
,
0010
0000
1000
0100
0010
0100
1000
0000
,
0001
0100
0001
0100
0010
1000
0100
0000
,
1000
0100
1000
0100
0010
0001
0100
0000
,
0101
0100
1100
0100
,
0011
0001
1010
1000
,
0001
0010
0100
1000
0010
0100
0001
1000
,
0010
0100
0010
0100
0010
0000
0100
0000
,
1001
0000
1000
0100
0010
0100
0010
0100
,
1000
0010
0100
0001
1000
0001
0100
0000
,
1000
0000
0001
0010
0100
1000
0001
1000
,
0100
0010
0001
1000
0010
0010
0100
0100
,
1001
0000
0001
0100
0001
1000
0001
0010
,
0001
0100
0010
1000
0001
0010
0100
0000
,
1000
0000
0100
0010
0100
1000
0010
0100
,
0001
0000
1000
0000
0001
0000
0000
1000
0000
0001
0000
1000
0001
0000
0000
0000
,
0110
0000
0000
0100
0000
0000
1000
0000
1001
0000
0001
0000
0100
0001
0010
0000
,
0010
0001
0100
0000
1000
0000
0100
0000
0010
0001
1000
0000
1000
0001
0010
0000
,
0100
1000
0001
0100
0010
0000
1000
0000
0010
0000
1000
0000
0010
0000
0100
0000
,
0010
1000
0001
0100
0001
0100
0001
1000
,
0001
0100
0001
0010
0100
1000
0010
0100
,
0001
0000
1000
0000
0100
0000
0010
0000
0100
0000
0010
0000
0100
0000
0000
0100
,
0010
0010
0001
0000
1000
0100
0001
0000
,
0100
0000
1000
0010
0001
0010
1000
0100
,
0100
0000
1000
0010
0001
0010
1000
0000
,
0100
0000
0001
0100
1000
0100
0001
0000
,
0100
0000
1000
0010
1000
0010
1000
0001
,
1000
0000
0001
0010
0001
0010
0001
1000
,
1000
0000
0001
0100
0010
1000
0001
0010
,
0100
0010
0001
0100
0010
1000
0100
0010
,
0100
0000
1000
0000
0001
0000
0000
0001
1000
0000
0000
0000
1000
0000
0100
0000
,
0010
0000
0100
1000
0010
0100
0010
1000
,
0100
0000
0010
0001
1000
0001
0010
0100
,
1000
0010
0100
0001
0100
0001
1000
0100
,
0010
1100
0010
0101
,
0010
1100
0101
1100
,
0101
0000
1000
0010
0100
0001
1000
0100
,
0010
0001
1000
0010
0001
0010
1000
0100
,
0001
0100
0110
0000
1000
0001
1000
0001
,
0010
0000
0100
0000
0010
0000
0000
0000
1001
0000
0100
0000
0010
1000
0100
0000
,
1000
0000
0010
1000
0100
0000
1000
0000
0010
0000
0100
0001
0010
0000
0001
0000
,
0100
0001
0010
0001
0100
0000
0001
0000
1000
0000
0100
0000
1000
0010
0100
0000
,
0010
0000
1000
0100
0010
0000
0100
0000
1000
0000
0010
0100
0001
0000
0010
0000
,
0001
0100
0010
1000
0001
0000
0010
0000
0100
0000
0000
0100
1000
0000
0000
1000
,
0010
0000
0000
0010
0100
0000
0000
0100
0001
0000
0000
0001
1000
0000
0000
1000
,
0100
0000
0010
0000
0001
0000
0000
0000
1000
0000
0000
1000
0010
0000
0000
0010
,
0100
0000
0000
0100
0001
0000
0000
0001
1000
0000
0000
1000
0100
0000
0000
0100
,
0010
0000
0001
0000
1000
0000
0000
0000
0001
0000
0000
0001
0100
0000
0000
0100
,
1000
0000
0000
1000
0100
0000
0000
0100
0001
0000
0000
0001
0010
0000
0000
0010
,
0100
0000
1000
0000
0001
0000
0000
0000
1000
0000
0000
1000
0100
0000
0000
0100
,
0010
0000
0000
0010
0001
0000
0000
0001
1000
0000
0000
0000
1000
0000
0000
0000
,
1000
0000
0010
0100
0010
0000
0000
0000
1001
0000
0000
0000
0100
0000
0010
0000
,
0000
0010
1000
0000
0001
0000
1000
0100
,
0010
0001
0001
0000
1000
0000
0010
0100
,
0000
0100
0001
0000
1000
0000
0001
0010
,
0100
1000
1000
0000
0010
0000
1000
0001
,
0000
1000
0001
0000
0010
0000
0100
1000
,
0001
0100
0010
0000
1000
0000
0001
0010
,
0000
0001
0010
0000
0100
1000
0010
0100
,
0001
0010
0110
0000
0000
0000
0000
0000
;

//---------------dance-single - ----------------
#NOTEDATA:;
#CHARTNAME:;
#STEPSTYPE:dance-single;
#DESCRIPTION:;
#CHARTSTYLE:;
#DIFFICULTY:Challenge;
#METER:15;
#RADARVALUES:0.789169,1.175638,0.314669,0.069926,0.703634,632.000000,596.000000,36.000000,8.000000,0.000000,0.000000,0.000000,0.000000,0.000000,0.789169,1.175638,0.314669,0.069926,0.703634,632.000000,596.000000,36.000000,8.000000,0.000000,0.000000,0.000000,0.000000,0.000000;
#CREDIT:SHAYMIN;
#NOTES:
0000
0000
0000
0000
,
0000
0000
0000
0000
,
0000
0000
0000
0000
,
0000
0000
0000
0000
,
0000
0000
0000
0000
,
0000
0000
0000
0000
,
0000
0000
0000
0000
,
1000
0100
0010
0000
0001
0000
0100
0010
1000
0000
0001
0000
1001
0000
0000
0000
,
1100
0000
0100
0010
0001
0100
0010
0100
,
0001
0000
1000
0000
0100
0000
1000
0000
0001
0000
0100
0010
0100
0000
0000
0000
,
0001
0000
1000
0000
1000
0000
0100
0000
1000
0000
0010
0000
0100
0000
0001
1000
,
0100
0000
1000
0000
0010
0000
0100
0000
0001
0000
1000
0000
0001
0000
0100
0010
,
1000
0100
1000
0100
0001
0100
0001
0100
,
1000
0010
0001
0010
1000
0100
0001
0100
,
1000
0010
1000
0000
0001
0010
0001
0000
1000
0100
1000
0001
0100
0001
1000
0100
,
0010
0000
0010
0000
0010
0000
0010
0000
0200
0300
0000
0000
0020
0030
0000
0000
,
1001
0000
0000
0000
0100
0000
0010
0000
1000
0000
0001
0010
0001
0000
0100
0000
,
0010
0000
1000
0100
0010
0000
0001
0010
0100
0000
1000
0000
0010
0000
0000
0000
,
0100
0000
0000
0000
0001
0000
1000
0000
0100
0000
1000
0010
1000
0000
0001
0000
,
0010
0000
0100
1000
0001
0000
0100
0001
1000
0100
1000
0100
0020
0000
0032
0000
,
1003
0000
0000
1000
0010
0000
0100
0001
0100
0000
0000
0010
1000
0000
0001
0010
,
0001
0000
0000
1000
0100
0000
0010
0001
0010
0000
0100
0000
1000
0000
0001
1000
,
0001
0000
0000
0000
1000
0000
0010
0000
0100
0000
0001
1000
0001
0000
0100
0000
,
0010
0000
1010
0000
0110
0000
0100
0001
0000
1000
0000
0100
0010
0000
0000
0000
,
0011
0000
0000
0000
0000
0000
0110
0000
0000
0000
0000
0000
1100
0000
0000
0000
1001
0000
1000
0100
0000
1000
0100
0000
0010
0000
0001
0000
0100
0000
1000
0000
,
0100
0000
0001
0010
0001
0000
0000
0000
1000
0000
0000
0000
0010
0000
0100
0001
0000
0100
0001
0000
0010
0000
0100
0000
1000
0000
0001
0100
0001
0000
1000
0000
,
0100
0000
1000
0100
0010
0000
0001
0000
1000
0000
0000
0000
0001
0000
0100
0000
0001
0000
0000
0000
1000
0000
0100
0000
1000
0000
0000
0000
0010
0000
0100
0000
,
0000
0001
0100
0000
0010
0000
1000
0100
1000
0000
0001
0100
0001
0000
1000
0100
,
0000
0010
0100
0000
1000
0010
1000
0000
0010
0100
0010
0000
0100
0001
0100
0010
,
0100
0001
1000
0100
0020
0000
0032
0000
2003
0000
3020
0000
0130
0000
0000
0010
,
0100
0010
1001
0000
1100
0100
0010
0001
,
0100
1000
0100
0000
0001
0010
0100
0110
,
0110
0000
1001
0001
0100
0001
1000
0100
,
0010
0000
0100
0000
1000
0000
0010
0000
0001
0000
0010
0000
1000
0000
0100
0010
,
0001
1000
0010
0001
0010
1000
0100
0001
,
0100
1000
0010
0001
1000
0100
0001
1000
,
0100
0010
1001
0100
1000
0100
0001
0010
,
1000
0000
0010
0000
0001
0000
0100
0000
1000
0000
0001
0000
0010
0000
1000
0001
,
1000
0000
0001
0000
0101
0000
0000
0100
0010
0000
1000
0010
1000
0000
0010
0000
,
0100
0000
0001
0000
1000
0000
0000
1000
0100
0000
0010
0001
0010
0000
0100
0000
,
1000
0000
0001
0000
0100
0000
0010
0000
0100
0000
0001
0000
1000
0000
1000
0100
,
0010
0000
0010
0000
0001
0000
1000
0000
0010
0000
0100
0000
0010
0000
0010
1000
,
0001
0010
1000
0010
1000
0010
0001
0010
,
0001
0010
1000
0100
0001
0100
1000
0010
,
0001
0000
0010
0000
1000
0100
1000
0000
0010
1000
0010
0000
0100
0001
0100
0000
,
0001
0010
0001
0000
1000
0100
0010
0001
0100
0010
1000
0001
1000
0010
0100
0001
,
1000
0100
0010
0001
1000
0000
0000
0000
0001
0010
0100
0000
1000
0000
0010
0100
,
0001
0000
0000
0000
1000
0000
0000
0000
1001
0000
0000
0000
0000
0000
0000
0000
0101
0000
0000
0100
0010
0000
1000
0000
0001
0010
0001
0010
0001
0000
1000
0000
,
0100
0000
0000
0010
0001
0000
1000
0000
0010
0100
0010
0100
0001
0000
0000
0000
1000
0000
0000
0100
1000
0000
0010
0000
0100
0001
0100
0001
0100
0000
0010
0000
,
1000
0000
0000
1000
0001
0000
0010
0000
0100
1000
0100
0010
0001
0000
0000
0000
1000
0000
0000
0010
0100
0000
0001
0000
1000
0100
0010
0001
1000
0000
0001
0000
,
1000
0000
0000
0010
0100
0000
0010
0000
1000
0100
0010
0001
1000
0000
0000
0000
0001
0000
0000
1000
0100
0000
1000
0000
0010
0100
0001
0100
0010
0000
1000
0000
,
0100
0000
0000
1000
0010
0000
0100
0000
0010
1000
0010
0100
0001
0000
0000
0000
1000
0000
0000
0000
1000
0000
0100
0000
1000
0000
0000
0000
0010
0000
0000
0000
,
0100
0001
0100
0001
0100
0000
0010
0000
1000
0000
1000
0001
1000
0000
0001
0000
,
0010
0001
0010
0001
1000
0000
0000
0000
0001
0000
0001
0100
0001
0000
1000
0000
,
0100
1000
0100
1000
0100
0000
1000
0000
0001
0000
0001
0010
0001
0000
1000
0000
,
0010
0100
0010
0100
0001
0000
0000
0000
1000
0000
0100
0010
0001
0000
0010
0000
,
0100
1000
0010
0100
0001
0000
1000
0000
0001
0000
0100
0010
1000
0000
0001
0000
,
0010
0100
1000
0100
0010
0000
0000
0000
0001
0000
0100
0010
0100
0000
0001
0000
,
1000
0100
1000
0100
0010
0000
0001
0000
0100
0000
0100
0010
0100
0000
0010
0000
,
0100
0010
0100
0010
0100
0000
0000
0000
0110
0000
0000
0000
1001
0000
1000
0000
,
0000
0001
1001
0000
1000
0000
1100
0100
,
0010
0011
0011
0001
1000
0000
0101
0001
,
0000
1000
1100
0000
0010
0000
0011
0001
,
1000
1010
1010
1000
0001
0000
0101
1000
,
0000
0001
1100
0000
0001
0000
0110
1000
,
0001
0110
0110
1000
0001
0000
1100
1000
,
0000
0000
0001
0000
0101
0000
0000
0000
1000
0100
1000
0100
0010
0001
0010
0001
,
1000
0010
0100
0001
1000
0000
0000
0000
0000
0000
0000
0000
0000
0000
0000
0000
;
