#TITLE:Psychedelic Spin;
#SUBTITLE:;
#ARTIST:Dr. Peacock & Ferocious Dog;
#TITLETRANSLIT:;
#SUBTITLETRANSLIT:;
#ARTISTTRANSLIT:;
#GENRE:;
#CREDIT:;
#BANNER:psychedelic-spin-bn.png;
#BACKGROUND:psychedelic-spin-bg.png;
#LYRICSPATH:;
#CDTITLE:pecd.png;
#MUSIC:Psychedelic Spin.ogg;
#OFFSET:-0.003000;
#SAMPLESTART:71.830002;
#SAMPLELENGTH:12.000000;
#SELECTABLE:YES;
#DISPLAYBPM:160.000000;
#BPMS:0.000000=159.000000
,28.000000=162.000000
,32.000000=161.000000
,48.000000=158.000000
,56.000000=157.000000
,60.000000=158.000000
,128.000000=161.000000
,144.000000=159.000000
,156.000000=160.000000
;
#STOPS:272.000000=1.120000
;
#BGCHANGES:;
#KEYSOUNDS:;
#ATTACKS:;

//---------------dance-single - ----------------
#NOTES:
     dance-single:
     :
     Beginner:
     3:
     0.138117,0.188751,0.000000,0.051662,0.000000,131.000000,131.000000,0.000000,7.000000,0.000000,0.000000,0.138117,0.188751,0.000000,0.051662,0.000000,131.000000,131.000000,0.000000,7.000000,0.000000,0.000000:
// measure 0
0000
0000
0000
0000
,  // measure 1
0000
0000
0000
0000
,  // measure 2
0000
0000
0000
0000
,  // measure 3
0000
0000
0000
0000
,  // measure 4
1000
0000
0000
0000
,  // measure 5
1000
0000
0000
0000
,  // measure 6
0001
0000
0000
0000
,  // measure 7
0001
0000
0000
0000
,  // measure 8
1000
0000
1000
0000
,  // measure 9
1000
0000
0000
0000
,  // measure 10
0001
0000
0001
0000
,  // measure 11
0001
0000
1000
0000
,  // measure 12
0010
0000
0010
0000
,  // measure 13
0010
0000
0000
0000
,  // measure 14
0100
0000
0100
0000
,  // measure 15
0100
0000
0001
0000
,  // measure 16
1000
0000
0100
0000
,  // measure 17
1000
0000
0000
0000
,  // measure 18
0001
0000
0100
0000
,  // measure 19
0001
0000
0100
0000
,  // measure 20
0010
0000
1000
0000
,  // measure 21
0010
0000
0000
0000
,  // measure 22
0100
0000
0001
0000
,  // measure 23
0100
0000
0010
0000
,  // measure 24
2000
0000
3000
0000
,  // measure 25
0002
0000
0003
0000
,  // measure 26
0010
0000
0010
0000
,  // measure 27
0010
0000
0000
0000
,  // measure 28
0002
0000
0003
0000
,  // measure 29
2000
0000
3000
0000
,  // measure 30
0100
0000
0100
0000
,  // measure 31
0100
0000
0100
0000
,  // measure 32
0010
0000
0000
0000
,  // measure 33
0100
0000
0000
0000
,  // measure 34
1000
0000
0000
0000
,  // measure 35
0001
0000
0000
0000
,  // measure 36
0010
0000
0010
0000
,  // measure 37
0010
0000
0010
0000
,  // measure 38
0010
0010
0010
0010
,  // measure 39
0000
0000
0000
0000
,  // measure 40
1000
0000
1000
0000
,  // measure 41
0001
0000
0001
0000
,  // measure 42
0010
0000
0010
0000
,  // measure 43
0001
0000
0001
0000
,  // measure 44
1000
0000
1000
0000
,  // measure 45
0100
0000
0100
0000
,  // measure 46
0010
0000
0010
0000
,  // measure 47
0001
0001
0001
0000
,  // measure 48
1000
0000
1000
0000
,  // measure 49
0001
0000
0000
0000
,  // measure 50
0001
0000
0001
0000
,  // measure 51
1000
0000
0000
0000
,  // measure 52
0010
0000
1000
0000
,  // measure 53
0010
0000
0000
0000
,  // measure 54
0100
0000
0001
0000
,  // measure 55
0100
0000
0000
0000
,  // measure 56
1000
0000
0100
0000
,  // measure 57
0020
0000
0030
0000
,  // measure 58
0001
0000
0100
0000
,  // measure 59
0010
0000
0010
0000
,  // measure 60
1000
0000
0001
0000
,  // measure 61
1000
0000
0000
0000
,  // measure 62
0001
0000
1000
0000
,  // measure 63
0001
0000
0000
0000
,  // measure 64
0020
0000
0000
0000
,  // measure 65
0000
0000
0000
0000
,  // measure 66
0000
0000
0000
0000
,  // measure 67
0000
0000
0000
0000
,  // measure 68
0030
1000
0000
0100
,  // measure 69
0000
1000
1000
1000
,  // measure 70
0000
0001
0000
0100
,  // measure 71
0000
0001
0000
0100
,  // measure 72
0000
0010
0000
1000
,  // measure 73
0000
0001
0001
0001
,  // measure 74
0000
1000
0000
0100
,  // measure 75
0000
0010
0000
0001
,  // measure 76
0000
1000
0000
0001
,  // measure 77
0000
1000
0000
0000
,  // measure 78
0000
0001
0000
1000
,  // measure 79
0000
0001
0000
1000
,  // measure 80
0000
0010
0000
0100
,  // measure 81
0000
0010
0000
0000
,  // measure 82
0000
0100
0000
0010
,  // measure 83
0000
0100
0000
0010
,  // measure 84
0000
0020
0000
0000
,  // measure 85
0000
0030
0000
0000
;

//---------------dance-single - ----------------
#NOTES:
     dance-single:
     :
     Easy:
     6:
     0.270962,0.283126,0.000000,0.162366,0.000000,257.000000,257.000000,0.000000,22.000000,0.000000,0.000000,0.270962,0.283126,0.000000,0.162366,0.000000,257.000000,257.000000,0.000000,22.000000,0.000000,0.000000:
0000
0000
0000
0000
,
0000
0000
0000
0000
,
0000
0000
0000
0000
,
0000
0000
0000
0000
,
1000
0000
1000
0000
,
0001
0000
0001
0000
,
0010
0000
0100
0000
,
0020
0000
0030
0000
,
0001
0001
1000
0000
,
0010
0000
0100
0000
,
0010
0010
1000
1000
,
0001
0010
0100
0000
,
0010
0010
0001
0000
,
1000
0000
0010
0000
,
1000
1000
0100
0100
,
1000
0010
0100
0000
,
0001
1000
0002
0003
,
1000
0001
2000
3000
,
0010
0100
0010
0010
,
1000
0001
0010
0000
,
0001
0100
0020
0030
,
1000
0100
0020
0030
,
0001
1000
0100
1000
,
0001
0010
1000
0100
,
0002
0000
0013
0000
,
1000
1000
0020
0030
,
2000
0000
3100
0000
,
0010
0100
0010
0000
,
0002
0000
0103
0000
,
1000
0001
2000
3000
,
0020
0000
1030
0000
,
0100
0010
0100
0000
,
2000
0000
3010
0000
,
0002
0000
0013
0000
,
2000
0000
3100
0000
,
0002
0000
0103
0000
,
1000
1000
0001
0001
,
1000
0001
1000
0001
,
0010
0100
1000
0001
,
0010
0000
0000
0000
,
1000
0100
1000
0100
,
0010
0010
0001
0100
,
0010
1000
0010
1000
,
0001
0001
0010
0100
,
0010
0001
0010
0001
,
1000
1000
1000
0010
,
1000
0100
1000
0100
,
0010
0001
0010
0000
,
1000
1000
0001
0000
,
0100
0000
0010
0000
,
0100
0100
0001
0001
,
1000
0100
0010
0000
,
0100
0100
1000
0000
,
0001
0000
0100
0000
,
0001
0001
0010
0010
,
0001
0100
0010
0000
,
1000
0001
2000
3000
,
0001
1000
0002
0003
,
0100
0010
0100
0100
,
0001
1000
0100
0000
,
1000
0010
0200
0300
,
0001
0010
0200
0300
,
1000
0001
0010
0001
,
1000
0100
0001
0010
,
1000
1000
1000
1000
,
0001
0001
0001
0001
,
1000
0001
1000
0001
,
1000
0010
0100
0001
,
1000
0001
1000
0200
,
0300
1000
0001
1000
,
0001
0010
0100
0010
,
0100
1000
0001
0010
,
0000
1000
0001
0200
,
0300
0001
1000
0001
,
1000
0010
0100
0010
,
0100
0010
1000
0100
,
0000
0010
0001
1000
,
0001
0010
0100
1000
,
0000
0010
1000
0001
,
1000
0010
0100
0001
,
0000
1000
0100
1000
,
0010
0100
0001
0010
,
0001
0100
0010
1000
,
0001
0010
0100
1000
,
0001
0020
0000
0000
,
0000
0030
0000
0000
;

//---------------dance-single - ----------------
#NOTES:
     dance-single:
     :
     Medium:
     8:
     0.418568,0.408960,0.022141,0.147606,0.000000,397.000000,394.000000,3.000000,20.000000,0.000000,0.000000,0.418568,0.408960,0.022141,0.147606,0.000000,397.000000,394.000000,3.000000,20.000000,0.000000,0.000000:
0000
0000
0000
0000
,
0000
0000
0000
0000
,
0000
0000
0000
0000
,
0000
0000
0000
0000
,
0000
1000
0000
1000
0000
1000
0000
0010
,
0000
0100
0000
0100
0000
0100
0000
0001
,
0000
0010
0000
0010
0000
0001
0000
0001
,
1000
0000
0001
1000
0000
0000
0000
0000
,
1000
0100
0000
1000
0001
0000
0010
0000
,
0001
0000
1000
0000
0100
0000
1000
0100
,
1000
0100
1000
0010
,
1000
0001
1000
0000
0010
0000
0100
0000
,
0001
0010
0000
0001
0100
0000
0001
0000
,
1000
0000
0100
0000
1000
0000
0010
0100
,
0010
1000
0001
0010
,
0100
1000
0001
1000
0001
0000
0100
0010
,
0100
0010
0000
1000
0001
0000
0010
0000
,
0001
0100
0000
0001
0100
0000
0010
0000
,
1000
0100
0000
1000
0100
0000
0010
0000
,
0001
0000
1000
0001
1000
0000
0001
0000
,
1000
0100
1000
0001
1000
0000
0010
0000
,
0100
0001
0000
1000
0001
0000
0010
0000
,
0100
1000
0000
0100
0010
0000
0001
0000
,
0001
0010
1000
0100
0001
0000
1000
0000
,
0010
1000
0010
0000
0100
0000
0100
0000
,
0001
0010
0001
0000
0200
0000
0310
0000
,
1000
0001
1000
0000
0001
1000
0001
0000
,
0010
0001
1000
0010
,
1000
0100
1000
0000
0001
0000
0001
0000
,
1000
0010
1000
0000
0002
0000
0013
0000
,
0100
1000
0100
0000
1000
0100
1000
0000
,
0010
0100
0001
1000
,
0002
0000
0013
0100
,
2000
0000
3010
0100
,
0001
0001
1000
0100
,
1000
1000
0001
0010
,
0001
1000
0001
0000
1000
0001
1000
0000
,
0010
0100
0010
0000
0100
0010
0100
0000
,
0001
0010
0100
0000
1000
0010
0100
0000
,
0001
2000
3000
0001
1000
0000
1001
0000
,
1000
1000
0001
0001
,
1000
0010
0100
0020
,
1030
0001
0010
0001
,
1000
0000
0100
0100
0010
0000
0001
0000
,
1000
0010
0100
0001
,
1000
0100
1000
0002
,
0013
0001
0100
0010
,
1000
0000
0010
0010
0100
0000
0110
0000
,
1000
0100
0000
0010
0001
0000
0010
0000
,
0001
0000
0100
0000
0010
0000
1000
0001
,
1000
0100
1000
0010
,
1000
0010
1000
0000
0010
0000
0100
0000
,
0001
1000
0000
0001
0100
0000
0001
0000
,
1000
0000
0100
0000
1000
0000
0010
0100
,
0001
1000
0001
0010
,
0100
1000
0010
0100
0001
0000
0100
0010
,
1000
0010
0000
1000
0001
0000
0010
0000
,
0001
0100
0000
0010
1000
0000
0010
0000
,
1000
0100
0000
0010
0001
0000
0010
0000
,
0001
0000
1000
0001
1000
0000
0001
0000
,
1000
0100
1000
0010
1000
0000
0010
0000
,
0100
0001
0000
0010
0100
0000
0010
0000
,
0100
1000
0000
0100
0010
0000
0001
0000
,
1000
0010
0001
0100
1000
0000
0100
0000
,
0020
0030
0002
0003
,
2000
3000
0020
0030
,
2000
3001
0002
1003
,
0020
0230
0302
2003
,
3000
0000
0100
0010
0100
0010
0100
0000
,
1000
0000
0010
0100
0010
1000
0001
0000
,
0010
0000
0100
1000
0100
1000
0100
0000
,
0010
0000
0001
1000
0001
1000
0001
0000
,
1000
0000
0010
1000
0010
1000
0010
0000
,
0100
0000
0001
0010
0100
0010
0001
0000
,
1000
0000
0010
1000
0000
1000
0100
0010
,
0001
0000
1000
0001
1000
0001
1000
0000
,
0010
0000
1000
0000
0001
0100
0001
0000
,
1000
0000
0010
0000
0100
0001
0100
0000
,
0010
0000
1000
0000
0100
0010
0001
0000
,
1000
0000
0010
0000
0010
1000
0001
0000
,
0010
0000
0001
1000
0001
1000
0001
0000
,
0010
0000
0100
1000
0100
0010
0100
0000
,
1000
0000
0010
0000
0100
0001
0100
0000
,
0010
0000
1000
0001
0010
0100
2000
0000
,
3001
2002
0000
0000
,
0000
3003
0000
0000
;

//---------------dance-single - ----------------
#NOTES:
     dance-single:
     :
     Hard:
     13:
     0.608347,0.566253,0.029521,0.147606,0.062732,577.000000,573.000000,4.000000,20.000000,0.000000,0.000000,0.608347,0.566253,0.029521,0.147606,0.062732,577.000000,573.000000,4.000000,20.000000,0.000000,0.000000:
0000
0000
0000
0000
,
0000
0000
0000
0000
,
0000
0000
0000
0000
,
0000
0000
0000
0000
,
1000
0001
0000
0010
0000
0001
0000
0100
,
0010
1000
0000
0010
0000
0100
0000
0001
,
1000
0100
0000
1000
0000
0001
0000
1000
,
0010
0100
0001
1000
0000
0000
0000
0000
,
1000
0100
0010
0100
1000
0000
0010
0000
,
0100
0001
0100
0010
0100
0000
0001
0000
,
1000
0100
1000
0010
0100
0001
1000
0001
,
0100
0010
0100
0010
1000
0000
0001
0010
,
0100
1000
0100
0010
0100
0000
1000
0000
,
0010
0100
0001
0100
0010
0000
1000
0001
,
0010
0001
1000
0001
0010
0100
0010
0001
,
1000
0010
1000
0010
0100
0000
0100
0001
,
1000
0100
0000
0001
0200
0000
0310
0000
,
1000
0010
0100
0001
1000
0001
0100
0000
,
0001
0010
0000
1000
0020
0000
0130
0001
,
1000
0100
1000
0010
0100
0000
0001
1000
,
0100
1000
0010
0100
0001
0000
1000
0000
,
0001
0100
0000
0010
2000
0000
3100
0010
,
0001
1000
0001
0010
0100
1000
0100
0010
,
0001
0010
1000
0100
0001
0000
1000
0000
,
0010
1000
0001
1000
0010
1000
0100
0010
,
0001
1000
0010
0100
0002
0000
0013
0010
,
0100
1000
0100
1000
0010
1000
0010
1000
,
0001
0010
0100
1000
0001
0000
0100
0001
,
1000
0100
0010
0100
1000
0001
1000
0010
,
0100
0001
0010
0001
0200
0000
0310
0010
,
1000
0001
1000
0001
0010
0001
0010
0001
,
1000
0010
0100
0001
1000
0000
0100
1000
,
0010
0200
0000
0310
2000
0000
3001
0000
,
1000
0200
0000
0310
0002
0000
1003
0000
,
0010
0010
1000
1000
0001
0001
0010
0010
,
0001
0100
0001
0100
0010
1000
0010
1000
,
0100
0010
0001
0100
0010
1000
0001
1000
,
0010
0100
0001
1000
0100
0010
0001
1000
,
0010
0100
0010
0100
0001
1000
0001
1000
,
0100
0200
0300
1000
1001
0000
0110
0000
,
1000
0100
1000
0001
1000
0010
1000
0001
,
1000
0010
0100
0001
1000
0001
0020
0000
,
0031
1000
0001
0010
0001
1000
0001
0010
,
0001
0000
1000
0001
1000
0000
0010
0000
0100
0000
0010
0000
0110
0000
0000
0000
,
0010
1000
0001
1000
0100
1000
0001
1000
,
0010
0100
0001
1000
0100
0010
0200
0000
,
1300
0001
0010
0001
0100
0001
0010
0001
,
1000
0000
0001
1000
0001
0000
1000
0000
0010
0000
0100
0000
0110
0000
0000
0000
,
1000
0100
0010
0001
0100
0010
1000
0100
,
1000
0000
0010
0000
0100
0000
0001
0000
0010
0001
0000
0001
0100
0000
0000
0000
,
0010
1000
0100
0010
0001
0100
0010
1000
,
0001
0000
1000
0000
0010
0000
0100
0000
0001
1000
0000
1000
0002
0000
0000
0000
,
0013
0001
0100
0010
1000
0100
0010
0001
,
0010
0000
0100
0000
1000
0000
0010
0000
0100
0001
0000
0001
1000
0000
0000
0000
,
0100
1000
0010
0100
0001
1000
0100
0010
,
0001
1000
0010
0100
0001
0000
1000
1000
,
0100
1000
0001
1000
0200
0000
0310
0000
,
0001
0100
0010
1000
0001
0010
0001
0000
,
1000
0010
1000
0010
0100
0000
0001
0010
,
0001
0100
0001
0100
0010
0000
1000
0001
,
1000
0100
0001
0100
1000
0000
0001
0000
,
1000
0010
0001
0010
1000
0000
0001
0001
,
1000
0100
0010
0001
1000
1000
0001
1000
,
0010
0100
0001
1000
0020
0000
0130
0000
,
0002
1000
0010
1000
,
2003
0010
0001
0010
,
3001
0001
0010
0001
1000
1000
0010
1000
,
0001
0010
0100
1000
0010
0100
0001
1000
,
0010
0000
1000
0100
1000
0100
1000
0001
,
1000
0000
0001
0000
1000
0000
0010
0000
0100
0000
0001
0000
0010
0001
0000
0001
,
0100
0010
1000
0001
1000
0001
0010
0001
,
0010
0001
0010
0100
1000
0001
0100
0000
,
0010
0010
1000
0001
1000
0001
0010
0100
,
0010
0000
0100
0000
0010
0000
0001
0000
0100
0000
0010
0000
1000
0100
0000
0100
,
0010
0001
1000
0010
1000
0010
0100
0010
,
0100
0010
1000
0100
0010
0001
1000
0000
,
0001
0000
0100
0000
0010
0000
1000
0001
1000
0000
0010
0000
0200
0000
0000
0000
,
0301
1000
0100
0010
0100
0010
0001
1000
,
0010
0000
0100
0000
0001
0000
1000
0100
1000
0000
0001
0000
0200
0000
0000
0000
,
0310
0000
1000
0000
0100
0000
0000
0010
0001
0000
0100
0000
0010
0000
0000
0000
,
0100
0010
1000
0001
0010
0001
1000
0010
,
1000
0000
0001
0000
0010
0000
0100
0000
1000
0000
0001
0000
0100
0010
0000
0010
,
1000
0001
1000
0100
1000
0001
0010
0001
,
1000
0010
0100
0001
0010
1000
0100
1000
,
0010
0001
0200
0000
0000
0000
0000
0000
,
0000
0300
0000
0000
;

//---------------dance-single - ----------------
#NOTES:
     dance-single:
     :
     Challenge:
     17:
     0.903559,1.038130,0.036901,0.162366,0.859804,857.000000,852.000000,5.000000,22.000000,0.000000,0.000000,0.903559,1.038130,0.036901,0.162366,0.859804,857.000000,852.000000,5.000000,22.000000,0.000000,0.000000:
0000
0000
0000
0000
,
0000
0000
0000
0000
,
0000
0000
0000
0000
,
0000
0000
0000
0000
,
0010
0001
0100
0100
0010
1000
0001
0001
,
1000
0100
0010
0010
0001
0100
0010
0010
,
1000
0001
0010
0001
1000
0010
0100
0001
,
1000
0100
0010
0100
0000
0000
0000
0000
,
1000
1000
0001
0010
0010
0001
0100
0010
,
1000
0001
0010
0001
2000
0010
3010
1000
,
0100
0100
0010
0001
0100
0100
0010
1000
,
0001
0000
0010
0000
0100
0000
1000
0000
0001
0000
1000
0000
0010
0000
0100
0001
,
1000
1000
0001
0100
0100
0010
1000
0001
,
1000
0100
0010
0100
2000
0001
3001
0100
,
0010
1000
0001
0010
0010
0001
0100
0010
,
1000
0000
0100
0000
0001
0000
0100
0000
1000
0000
0010
0000
0100
0001
0100
0001
,
1000
0020
0100
0130
0002
1000
1003
0100
,
1000
0010
0100
0001
0010
0001
0100
0010
,
1000
0200
0010
0310
0002
0100
0203
0010
,
0320
0000
1030
0100
0002
0000
0103
1000
,
0010
1000
0010
1000
0001
0010
0001
0100
,
0010
0010
1000
0001
0002
1000
1003
0010
,
0100
0000
0001
0000
1000
0000
0001
0000
0100
0000
0010
0000
1000
0000
0001
1000
,
0100
1000
0010
0001
0200
0000
0010
0310
,
1000
0000
0000
0000
0000
0000
0100
0000
0000
0010
0000
0000
0001
0000
0000
0000
0000
0000
0100
0000
0000
0000
0000
0000
0010
0000
1000
0000
0010
0000
1000
0000
0000
0000
0000
0000
0001
0000
0000
0000
0000
0000
0010
0000
0000
0000
0000
0000
,
0100
0000
1000
0001
0100
0000
0010
0000
1000
0001
0100
0010
1000
0000
0001
0000
,
1000
0000
0000
0000
0000
0000
0100
0000
0000
0010
0000
0000
0001
0000
0000
0000
0000
0000
0100
0000
0000
0000
0000
0000
0010
0000
0000
0000
1000
0000
0010
0000
0000
0000
0000
0000
0100
0000
0000
0000
0000
0000
0010
0000
0000
0000
0000
0000
,
0100
0000
0001
0000
1000
0000
0100
0000
0010
0000
0001
0100
0010
0000
0100
0000
,
0001
0000
0000
0000
0000
0000
0001
0000
0000
0100
0000
0000
0010
0000
0000
0000
0000
0000
1000
0000
0000
0000
0000
0000
0001
0000
0010
0000
0001
0000
0010
0000
0000
0000
0000
0000
0100
0000
0000
0000
0000
0000
1000
0000
0000
0000
0000
0000
,
0001
0000
0100
0010
1000
0000
0010
0000
0100
0001
1000
0100
0010
0000
0100
0000
,
1000
0000
0000
0000
0000
0000
0010
0000
0000
0100
0000
0000
0001
0000
0000
0000
0000
0000
1000
0000
0000
0000
0000
0000
0010
0000
0000
0000
1000
0000
0100
0000
0000
0000
0000
0000
1000
0000
0000
0000
0000
0000
0010
0000
0000
0000
0000
0000
,
0100
0001
0000
1000
0000
0000
0100
0000
0000
1000
0000
0000
0010
0000
0000
0000
0000
0000
0000
0000
0000
0000
0000
0000
,
1000
1000
0001
0010
0010
0001
0100
0010
,
0100
0100
0001
1000
1000
0100
0010
0001
,
1000
1000
0001
0001
0100
0100
0010
0010
,
1000
0100
0001
0100
1000
0010
0001
0010
,
1000
0100
1000
0100
0010
0001
0100
0010
1000
0001
1000
0001
0010
0001
0100
0010
,
1000
0100
1000
0001
0100
0001
1000
0010
1000
0001
0010
0001
1000
0100
0010
0001
,
1000
0010
1000
0100
1000
0010
1000
0100
1000
0010
0100
0001
0100
0010
1000
0001
,
0010
0000
0200
2300
3002
0000
0103
0000
0110
0000
0000
0000
1001
0000
0000
0000
,
1000
0001
0010
0001
1000
0010
0100
0010
1000
0001
0010
0001
1000
0010
0100
0010
,
1000
0001
0100
0001
1000
0001
0010
0001
1000
0010
0100
0001
2000
0000
0000
0000
,
3001
0100
0010
0100
0001
1000
0100
1000
0001
0100
0010
0100
0001
1000
0100
1000
,
0001
0000
0100
0010
1000
0000
0001
0000
1000
0000
0100
0010
0002
0000
0000
0000
,
1003
0010
0100
0001
1000
0010
0100
0001
1000
0100
0010
0001
1000
0100
0010
0001
,
1000
0010
0100
0010
1000
0100
0010
0100
1000
0010
0100
0001
0020
0000
0000
0000
,
0031
0100
0010
1000
0010
0100
0001
1000
0100
0010
0001
0010
0100
1000
0001
0100
,
0010
1000
0001
0010
0100
0010
0001
1000
0010
0100
0001
1000
0010
0000
0000
0000
,
1010
0000
1000
0000
0100
0000
1000
0000
1001
0000
0010
0001
1000
0000
0010
1000
,
0001
0000
1000
0000
0010
0000
1000
0000
0100
1000
0000
0010
0100
0000
0001
0010
,
0100
0000
0100
0000
1000
0000
0010
0000
1000
0000
1000
0000
0001
0000
0010
0001
,
1000
0000
0010
0000
0100
0000
0001
0000
0010
0001
0000
1000
0200
0000
1300
0010
,
0100
0000
0001
0000
1000
0000
0001
0000
1001
0000
1000
0010
0100
0000
0001
0100
,
0010
0000
1000
0000
0100
0000
0010
0000
0001
1000
0000
0010
0100
0000
0001
0010
,
0100
0100
1000
0010
0010
1000
0010
1000
,
1000
0100
0001
0100
1000
0000
0010
0100
,
0001
0000
1000
0100
0010
0000
0001
0010
0100
0000
1000
0010
0100
0000
0001
0100
,
0010
0000
1000
0001
1000
0000
0010
0000
0100
0001
1000
0000
0100
0000
0010
0000
,
0001
0000
1000
0010
0100
0000
0001
0100
0010
0000
1000
0100
0010
0000
0001
1000
,
0010
1000
0001
0000
0010
0000
0100
0000
0010
0001
0000
1000
0020
0000
0130
0001
,
1000
0000
0000
0000
0000
0000
0100
0000
0000
1000
0000
0000
0010
0000
0000
0000
0000
0000
0100
0000
0000
0000
0000
0000
0001
0000
1000
0000
0001
0000
1000
0000
0000
0000
0000
0000
0100
0000
0000
0000
0000
0000
0010
0000
0000
0000
0000
0000
,
0001
0000
1000
0010
1000
0000
0001
0000
0010
0100
0000
1000
0001
0000
0100
0010
,
1000
0000
0001
0010
0100
0000
0010
0000
0001
0100
0010
0000
1000
0000
0001
0100
,
0001
0000
1000
0100
1000
0000
0010
0000
1000
0010
0001
0000
0100
0000
1000
0000
,
0100
1000
0100
1000
0001
1000
0001
1000
0010
1000
0010
1000
0010
0100
0010
0100
,
0001
0100
0001
0100
0001
1000
0001
1000
0001
0010
0001
0010
0100
1000
0100
1000
,
0001
0010
0100
1000
0010
0100
0001
1000
0001
0100
0010
1000
0001
0010
0100
1000
,
0001
0100
0001
1000
0100
1000
0001
0010
0001
1000
0010
1000
0001
0010
0100
1000
,
0001
0000
0000
0000
0000
0000
0000
0000
0000
0000
0000
0000
1000
0000
0000
0001
0000
0000
0010
0000
0000
0100
0000
0000
1000
0000
0000
0000
0000
0000
0001
0000
0000
0000
0000
0000
0100
0000
0010
0000
0100
0000
0001
0000
0000
0000
0000
0000
,
1000
0000
0000
0100
0000
0000
1000
0000
0000
0000
0000
0000
0001
0000
0000
0000
0000
0000
0100
0000
0000
0010
0000
0000
1000
0000
0000
0000
0000
0000
0001
0000
0000
0000
0000
0000
1000
0000
0000
0000
0001
0000
0100
0000
0000
0000
0000
0000
,
0010
0000
0000
0000
0000
0000
1000
0000
0000
0000
0000
0000
1000
0000
0000
0010
0000
0000
0100
0000
0000
0001
0000
0000
0100
0000
0000
0010
0000
0000
1000
0000
0000
0000
0000
0000
0001
0000
1000
0000
0000
0000
0001
0000
0000
0000
0000
0000
,
1000
0000
0100
0000
0010
0001
0010
0100
0010
0001
0100
0010
1000
0001
0010
0100
,
2000
0000
3010
0000
0100
0001
1000
0100
0010
0000
0100
0000
1000
0010
0100
0000
,
0010
0000
0000
0000
0000
0000
1000
0000
0000
0000
0000
0000
0001
0000
0000
1000
0000
0000
0100
0000
0000
0010
0000
0000
0001
0000
0000
0000
0000
0000
1000
0000
0000
0000
0000
0000
0010
0000
0000
0000
1000
0000
0001
0000
0000
0000
0000
0000
,
1000
0000
0000
0000
0000
0000
0100
0000
0000
0000
0000
0000
1000
0000
0000
0000
0000
0000
0010
0000
0000
0100
0000
0000
0010
0000
0000
0000
0000
0000
1000
0000
0000
0000
0000
0000
0001
0000
0010
0000
0000
0000
0001
0000
0000
0000
0000
0000
,
1000
0010
0100
0000
0010
1000
0001
0100
0010
0100
0001
1000
0100
0010
0001
0010
,
0100
0000
0000
0000
1000
0010
1000
0100
0010
0000
0001
0000
1000
0000
0100
0010
,
0001
0000
0000
0000
0000
0000
1000
0000
0000
0000
0000
0000
0100
0000
0000
0000
0000
0000
0010
0000
0000
0001
0000
0000
1000
0000
0000
0000
0000
0000
0010
0000
0000
0100
0000
0000
0001
0000
0100
0000
0010
0000
0100
0000
0000
0000
0000
0000
,
0010
0000
1000
0001
0100
0000
0001
1000
0100
0000
0010
0000
0001
0000
1000
0010
,
1000
0000
0001
0000
1000
0100
0010
0001
1000
0010
0100
0000
0010
0000
1000
0001
,
2000
0000
0000
0000
0000
0000
3100
0000
0000
0000
0000
0000
0010
0000
0000
0001
0000
0000
1000
0000
0000
0010
0000
0000
0100
0000
0000
0000
0000
0000
0010
0000
0000
0000
0000
0000
1000
0000
0001
0000
1000
0000
0001
0000
0000
0000
0000
0000
,
0010
0000
0000
0000
0000
0000
0001
0000
0000
0000
0000
0000
0100
0000
0000
0000
0000
0000
0010
0000
0000
1000
0000
0000
0001
0000
0000
0000
0000
0000
0100
0000
0000
0000
0000
0000
0010
0000
0000
0000
1000
0000
0010
0000
0000
0000
0000
0000
,
0100
0000
0000
0000
0000
0000
0001
0000
0000
0000
0000
0000
1000
0000
0000
0000
0000
0000
0100
0000
0000
0010
0000
0000
0001
0000
0000
0000
0000
0000
0100
0000
0000
0000
0000
0000
0010
0000
1000
0000
0001
0000
1000
0000
0000
0000
0000
0000
,
0100
0000
0010
0000
0001
0010
0100
1000
0010
0100
0001
0000
1000
0001
1000
0001
,
0010
0100
0010
0100
2000
0000
0000
0000
0000
0000
0000
0000
0000
0000
0000
0000
,
0000
3000
0000
0000
;
