#TITLE:FUTURE is Dead;
#SUBTITLE:;
#ARTIST:C-Show;
#TITLETRANSLIT:;
#SUBTITLETRANSLIT:;
#ARTISTTRANSLIT:;
#GENRE:;
#CREDIT:;
#BANNER:future-is-dead-bn.png;
#BACKGROUND:future-is-dead-bg.png;
#LYRICSPATH:;
#CDTITLE:pecd.png;
#MUSIC:FUTURE is Dead.ogg;
#OFFSET:-0.030000;
#SAMPLESTART:74.224998;
#SAMPLELENGTH:12.000000;
#SELECTABLE:YES;
#BPMS:0.000000=220.000000
,96.000000=110.000000
,125.000000=55.000000
,129.000000=110.000000
,161.000000=220.000000
,225.000000=110.000000
,228.000000=220.000000
,252.000000=110.000000
,271.000000=220.000000
;
#STOPS:116.000000=1.630000,
228.000000=0.580000,
271.000000=0.540000
;
#BGCHANGES:0.000=FUTURE is Dead.avi=1.000=0=0=0=StretchNoLoop====,
99999=-nosongbg-=1.000=0=0=0 // don't automatically add -songbackground-
;
#KEYSOUNDS:;
#ATTACKS:;

//---------------dance-single - ----------------
#NOTES:
     dance-single:
     :
     Beginner:
     3:
     0.140171,0.263062,0.016917,0.109962,0.000000,116.000000,114.000000,2.000000,13.000000,0.000000,0.000000,0.140171,0.263062,0.016917,0.109962,0.000000,116.000000,114.000000,2.000000,13.000000,0.000000,0.000000:
0000
0000
0000
0000
,
0000
0000
0000
0000
,
0000
0000
0000
0000
,
0000
0000
0000
0000
,
0000
0000
0000
0000
,
0000
0000
0000
0000
,
0000
0000
0000
0000
,
0000
0000
0000
0000
,
0100
0000
0100
0000
,
0100
0000
0000
0000
,
0010
0000
0010
0000
,
0010
0000
0000
0000
,
1000
0000
0001
0000
,
1000
0000
0000
0000
,
0001
0000
1000
0000
,
0001
0000
1000
0000
,
0001
0000
1000
0000
,
1000
0000
1000
0000
,
1000
0000
1000
0000
,
1000
0000
1000
0000
,
0020
0000
0030
0000
,
0020
0000
0030
0000
,
0020
0000
0000
0000
,
0030
0000
0000
0000
,
1000
0000
0100
0000
,
1000
0000
0100
0000
,
0010
0000
0001
0000
,
0010
0000
0001
0000
,
2000
0000
0000
3000
,
1000
0001
0000
0100
,
0000
0001
0000
0100
,
0000
0010
0000
0000
,
0000
1000
1000
1000
,
0000
0001
0001
0001
,
0000
1000
1000
0100
,
0000
0020
0000
0000
,
0030
0001
1000
0001
,
0000
1000
0001
1000
,
0000
0010
0100
0010
,
0000
1001
0000
0000
,
0000
1000
0000
0001
,
0000
1000
0000
0001
,
0000
1000
0000
0001
,
0000
1000
0000
0001
,
0000
0010
0000
0100
,
0000
1000
0000
0001
,
0000
1000
0000
0010
,
0000
0100
0000
0010
,
0000
1000
2000
0000
,
0000
0000
0000
3000
,
0000
0001
0002
0000
,
0000
0000
0000
0003
,
0000
0100
0200
0000
,
0000
0000
0000
0300
,
0000
0010
0020
0000
,
0000
0000
0000
0030
,
0000
1000
0000
0001
,
0000
2000
0000
0000
,
0000
0000
3000
0000
,
0001
0002
0000
0000
,
0000
0000
0003
0000
,
0100
0200
0000
0000
,
0000
0000
0300
0000
,
0010
0000
0010
0000
,
0100
0000
0100
0000
,
1000
0001
1000
0000
,
0001
1000
0001
0000
,
1000
0000
0001
0000
,
0010
0000
0010
0000
,
0010
0010
0000
0000
,
1000
0000
1000
0000
,
1000
1000
0000
0000
,
0001
0000
1000
0000
,
0000
0000
0000
0200
,
0000
0000
0000
0000
,
0000
0000
0000
0000
,
0000
0000
0000
0300
,
0000
0000
0000
1001
;

//---------------dance-single - ----------------
#NOTES:
     dance-single:
     :
     Easy:
     8:
     0.311760,0.427476,0.186089,0.101503,0.000000,258.000000,236.000000,22.000000,12.000000,0.000000,0.000000,0.311760,0.427476,0.186089,0.101503,0.000000,258.000000,236.000000,22.000000,12.000000,0.000000,0.000000:
0000
0000
0000
0000
,
0000
0000
0000
0000
,
0000
0000
0000
0000
,
0000
0000
0000
0000
,
0000
0000
0000
0000
,
0000
0000
0000
0000
,
0000
0000
0000
0000
,
0000
0000
0000
0000
,
0100
0000
0100
0000
,
0010
0100
0010
0000
,
1000
0000
1000
0000
,
0001
1000
0001
0000
,
1000
0100
0010
0000
,
0001
0100
0010
0000
,
1000
0001
1000
0001
,
1000
0010
0100
0000
,
1000
0000
0001
0001
,
0001
0001
0001
0001
,
0001
0001
0001
0001
,
0001
0001
0001
1000
,
0010
0100
0010
0100
,
0010
1000
0010
1000
,
1000
0010
0100
0001
,
1000
0100
0010
0000
,
1001
0000
0100
0000
0010
0010
0010
0000
,
0001
0000
0100
0000
0010
0010
0010
0000
,
1000
0000
1000
0000
0001
1000
0001
0000
,
1000
0000
1000
0000
0001
1000
0001
0000
,
2002
0000
0000
3003
,
0110
0000
1000
0000
0100
0000
0010
0001
,
0010
0000
0001
0000
0100
0000
0010
1000
,
0010
0200
0000
0000
,
0000
0300
0010
0000
0010
0000
1000
0000
,
1000
0100
0001
0100
,
1000
0000
0010
0010
1000
0000
0100
0100
,
0010
0001
1000
0020
,
0130
0000
1000
0100
1000
0100
1000
0000
,
0100
0000
0001
0100
0001
0100
0001
0000
,
0100
0000
1000
0001
1000
0000
0001
1000
,
0001
0020
0000
0000
,
0130
1001
0000
1001
,
0000
1001
0000
1001
,
0000
0110
0000
1001
,
0000
0110
0000
1001
,
0000
1000
0001
1000
,
0001
1000
0001
1000
,
0001
0010
0100
0010
,
0100
0010
0100
0010
,
0000
1100
1000
1000
,
1000
0010
0100
0010
,
0000
0101
0001
0001
,
0001
0010
0100
0010
,
0100
0110
0100
1000
,
0100
0010
0100
1000
,
0000
0110
0100
0001
,
0100
0010
0100
0001
,
0000
1000
1000
0100
,
0100
0001
0001
0001
,
0100
0010
0100
0000
,
1100
1000
1000
1000
,
0100
0010
0100
0010
,
0011
0001
1000
0001
,
0100
0010
1000
0000
,
1000
0001
0201
0300
,
0001
1000
1200
0300
,
0010
0100
1002
2003
,
3100
0010
0001
1000
,
0020
0000
0000
0130
,
1000
0100
1000
0100
,
0000
0010
0000
0001
,
0100
0001
0010
0001
,
0000
0100
0000
0010
,
1000
0001
1000
0010
,
0000
0100
0000
2002
,
0000
0000
0000
0000
,
0000
0000
0000
0000
,
0000
0000
0000
3003
,
0000
0000
0000
0110
;

//---------------dance-single - ----------------
#NOTES:
     dance-single:
     :
     Medium:
     10:
     0.466431,0.690538,0.431388,0.093045,0.059210,386.000000,335.000000,51.000000,11.000000,0.000000,0.000000,0.466431,0.690538,0.431388,0.093045,0.059210,386.000000,335.000000,51.000000,11.000000,0.000000,0.000000:
0000
0000
0000
0000
,
0000
0000
0000
0000
,
0000
0000
0000
0000
,
0000
0000
0000
0000
,
0000
0000
0000
0000
,
0000
0000
0000
0000
,
0000
0000
0000
0000
,
0000
0000
0000
0000
,
1000
0000
0000
0100
0000
0000
1000
0000
,
0000
0001
0000
0000
1000
0000
0000
0000
,
0001
0000
0000
0100
0000
0000
0001
0000
,
0000
1000
0000
0000
0001
0000
0000
0000
,
1000
0100
0010
0001
,
1000
0010
0100
0000
,
1000
0001
0010
0001
,
1000
0001
0001
0000
,
1100
1000
0001
0001
,
0001
0001
0001
0001
,
0001
0001
0001
0001
,
0001
0001
0001
1000
,
0110
0001
1001
0010
,
0110
1000
1001
0001
,
1000
0100
0010
0001
,
1000
0010
0100
0000
,
1001
1000
0100
0000
0010
0001
0001
0100
,
0001
0001
1000
0000
0100
1000
1000
0010
,
1000
0001
1000
0000
0100
0010
0002
0000
,
1003
0010
0100
0000
0001
1000
0100
0000
,
0001
0000
0000
0000
1000
0000
0001
1000
0001
1000
0001
0000
1000
0000
1000
0000
,
1001
0000
1001
0001
0010
0000
0100
1000
,
1000
0010
1000
1000
0001
0000
0010
0001
,
0001
0100
0002
0000
0000
0000
0000
0000
,
0000
0000
1003
0100
1000
0100
1100
0100
,
1000
0000
0001
0100
0001
0100
0101
0100
,
0001
0000
0000
0000
1000
0000
0100
0010
0001
0000
1000
0000
0001
0000
0100
0010
,
1000
0120
1000
0001
,
1000
0000
0000
0000
0130
0001
0100
0000
0001
0100
0001
0000
0010
0000
0100
0000
,
0010
0000
0100
0000
1000
0100
1000
0000
0100
1000
0100
0000
1000
0000
0010
0000
,
0100
0000
0001
0000
1000
0001
1000
0000
0001
1000
0001
0000
0010
0000
0100
0000
,
0010
0100
0020
0000
0000
0000
0100
0000
,
0130
1100
1000
0101
,
0001
1010
1000
0011
,
0001
0110
0100
0110
,
0010
1010
1000
1001
,
0001
1000
1000
0001
,
0001
1000
0001
1000
,
0001
0010
0100
1000
,
0001
0100
0010
0110
,
0000
0000
1000
0000
1000
0100
1000
0100
,
1000
1001
0110
1001
,
0000
0000
0001
0000
0001
0100
0001
0100
,
0001
1001
0110
1001
,
0110
0000
0001
0000
1000
0001
1000
0001
,
1000
1001
0110
1001
,
0000
0000
0001
0000
0100
0010
1000
0001
,
0100
0010
1000
0100
,
0001
2000
0100
0001
,
3100
0000
0001
0100
0001
0010
0001
0000
,
1001
0110
1001
0000
,
1000
0000
1000
0100
1000
0010
1000
0000
,
1001
0110
1001
0110
,
1000
0000
0100
0010
0001
0010
0100
0000
,
1001
0110
1001
0000
,
0100
0010
0010
0010
1001
0001
1001
0000
,
1000
0000
0100
0000
0100
0000
0100
0000
1001
0000
1000
0001
0000
1000
0001
0000
,
0001
0100
0010
1000
1100
0010
0012
0000
,
1003
0000
0001
0000
0001
0000
0001
0000
1000
0000
0001
1000
0000
0001
1000
0000
,
2002
0000
3003
1001
,
0100
0000
0010
0100
0010
0000
1000
0000
,
0001
1000
0000
1000
0001
0000
0000
0000
,
0110
1001
0110
1000
,
0001
1000
0000
0000
0002
0000
0103
0000
,
0010
0000
1000
0001
1000
0000
0100
0000
,
0000
0010
0000
2002
,
0000
0000
0000
0000
,
0000
3000
0000
1000
,
1000
1000
1000
1003
,
0001
0000
1000
0100
0010
0001
1000
0000
;

//---------------dance-single - ----------------
#NOTES:
     dance-single:
     :
     Hard:
     13:
     0.619894,1.019366,0.287592,0.152255,0.270675,513.000000,479.000000,34.000000,18.000000,0.000000,0.000000,0.619894,1.019366,0.287592,0.152255,0.270675,513.000000,479.000000,34.000000,18.000000,0.000000,0.000000:
0000
0000
0000
0000
,
0000
0000
0000
0000
,
0000
0000
0000
0000
,
0000
0000
0000
0000
,
0000
0000
0000
0000
,
0000
0000
0000
0000
,
0000
0000
0000
0000
,
0000
0000
0000
0000
,
0001
0000
1000
0100
1000
0000
0001
0000
,
1000
0100
0010
0000
0001
0000
0000
0000
,
1000
0000
0001
0100
0001
0000
1000
0000
,
0001
0100
0010
0000
1000
0000
0001
0000
,
1000
0000
0100
0010
0100
0000
1000
0000
,
0010
0100
0010
0000
1000
0000
0000
0000
,
0100
0010
0100
0010
0001
0010
0001
0010
,
0100
1000
0001
0100
0010
0000
1000
0000
,
0001
0000
0000
0001
1000
0100
1000
0100
,
1000
0100
1000
0100
1000
0100
1000
0100
,
1000
0100
1000
0100
1000
0100
1000
0100
,
1000
0100
1000
0100
1000
0100
1000
0000
,
0001
0100
0010
0000
1000
0100
0010
0000
,
0001
1000
0010
0000
1000
0001
0010
0000
,
1000
0100
0010
0100
1000
0010
0100
0001
,
0010
0001
0100
0010
1000
0000
0000
0000
,
1001
0000
0000
0001
0000
0000
0010
0000
0000
0000
0000
0001
0000
0000
0001
0000
0000
1000
0001
0000
0000
1000
0000
0000
,
1001
0000
0000
1000
0000
0000
0010
0000
0000
0000
0000
1000
0000
0000
1000
0000
0000
0001
1000
0000
0001
1000
0000
0000
,
1001
0000
0000
0001
0000
0000
0100
0000
0000
0000
0000
0010
0000
0000
0010
0000
0000
0010
2000
0000
0000
3200
0000
0000
,
0310
0000
0000
0001
0000
0000
1000
0000
0000
0000
0000
0001
0000
0000
1000
0000
0000
0001
1000
0000
0100
0010
0000
0000
,
0011
0000
0000
0000
1000
0100
0010
0001
1000
0010
0100
0000
0010
1000
0001
0000
,
1001
0000
0000
0000
0000
0000
1001
0000
0000
0110
0000
0000
1001
0000
0000
0000
0000
0100
0000
0000
1000
0000
0000
0100
,
1000
0000
0000
0000
0000
0000
0110
0000
0000
1001
0000
0000
0110
0000
0000
0000
0000
0100
0000
0000
0001
0000
0000
0100
,
0001
0000
1000
0100
0000
0000
0220
0000
0000
0000
0000
0000
0000
0000
0000
0000
0000
0000
0000
0000
0000
0000
0000
0000
,
0000
0330
1000
0100
0010
0100
0110
0010
,
0001
0100
0101
0001
1000
0100
1100
1000
,
0010
0000
0100
0000
0110
0000
0010
1000
0010
0000
0100
0000
0010
0000
1000
0001
,
1000
0000
0010
0000
0100
0000
0100
0000
0001
0000
0010
0000
0100
0000
1000
0100
,
0001
0000
0000
0000
1000
0100
1000
0100
1000
0001
1000
0001
0000
0010
0001
0010
,
0001
1000
0001
1000
0001
0100
0010
0100
0001
0100
0010
0100
0000
0010
1000
0010
,
0100
0010
1000
0001
0010
0000
0000
0000
0100
1000
0100
1000
0000
0010
0100
0001
,
0100
0001
0100
0001
1000
0000
1000
0000
0100
0010
0100
0010
0002
0000
0000
0000
,
1003
0000
0010
1000
0100
0000
0010
0001
,
0100
0000
0100
1000
0010
0000
0100
0001
,
0010
0000
0010
0001
1000
0000
0010
1000
,
0001
0000
0100
0001
1000
0000
0100
1000
,
0001
0000
1000
0100
1000
0100
1000
0001
,
1000
0000
0001
0100
0001
0100
0001
1000
,
0001
0000
0010
0001
1000
0001
0010
0001
,
1000
0010
1000
0001
0100
0010
1000
0000
,
0000
0000
0000
0000
1001
0000
0000
0100
0001
0000
1000
0000
0001
0000
0100
0000
,
0001
1000
0001
0100
0001
1000
0001
0000
,
0001
0000
0000
0000
1001
0000
0000
0100
1000
0000
0001
0000
1000
0000
0100
0000
,
1000
0001
1000
0100
1000
0001
1000
0000
,
0001
0000
0000
0000
0110
0000
0000
0100
0001
0000
0100
0000
0010
0000
0100
0000
,
0001
0100
0010
0100
0001
0100
0010
0000
,
0010
0000
0000
0000
1010
0000
0000
1000
0100
0000
0010
0000
0001
0000
0100
0000
,
0010
1000
0100
0010
0001
1000
0020
0000
,
0130
0000
0000
0000
1001
0000
0100
0000
0100
0000
0100
0000
0010
1000
0002
0000
,
1003
0000
0000
0010
0100
0000
0010
0000
1000
0000
0010
0000
0100
0000
0010
0000
,
1000
0010
0100
0010
1000
0000
1000
0000
,
0110
0000
0000
0100
0001
0000
0100
0000
0010
0000
0100
0000
1000
0000
0100
0000
,
0010
0100
0001
1000
0100
0010
0002
0000
,
1003
0000
0000
0010
0100
0000
0001
0000
0010
0000
0001
0000
0100
0000
0010
0000
,
1000
0100
1000
0010
0200
0000
0310
0000
,
1001
0010
0010
0010
0011
0100
0100
0100
,
1001
0000
0100
0000
0100
0000
0100
0000
1100
0000
0010
0010
0000
0100
0010
0000
,
0011
0001
0001
0001
1001
1000
2000
3100
,
1100
0000
0100
0000
0100
0000
0100
0000
0110
0000
0010
0001
0000
1000
0010
0000
,
0200
0000
0010
0000
0010
0010
0310
0000
,
1000
0000
0001
0010
0001
0000
1000
0000
,
0010
0100
0000
0001
1000
0000
0110
0000
,
0001
1000
1000
1100
,
0010
0001
0000
0000
0200
0000
0310
0000
,
1010
0000
1000
0100
0010
0000
0200
0000
,
0300
0020
0030
2002
,
0000
0000
0000
0000
,
0000
0000
0000
0000
3003
0000
1000
0100
,
0010
0001
0100
0010
1000
0001
0010
0100
,
0010
0000
0001
1000
0020
0200
0330
0000
;

//---------------dance-single - ----------------
#NOTES:
     dance-single:
     :
     Challenge:
     16:
     0.854318,1.085132,0.541350,0.194548,0.761273,707.000000,643.000000,64.000000,23.000000,0.000000,0.000000,0.854318,1.085132,0.541350,0.194548,0.761273,707.000000,643.000000,64.000000,23.000000,0.000000,0.000000:
// measure 0
0000
0000
0000
0000
,  // measure 1
0000
0000
0000
0000
,  // measure 2
0000
0000
0000
0000
,  // measure 3
0000
0000
0000
0000
,  // measure 4
0000
0000
0000
0000
,  // measure 5
0000
0000
0000
0000
,  // measure 6
0000
0000
0000
0000
,  // measure 7
0000
0000
0000
0000
,  // measure 8
1001
1000
0100
0010
,  // measure 9
0001
1000
0001
0000
0100
0000
0000
0000
,  // measure 10
0001
0001
0100
0010
,  // measure 11
1000
0001
1000
0000
0100
0000
0000
0000
,  // measure 12
1000
0010
0100
0010
,  // measure 13
1000
0001
0010
0001
,  // measure 14
1000
0100
0010
0100
1000
0100
0020
0001
,  // measure 15
0031
1000
0010
0100
0001
1000
0010
0000
,  // measure 16
1010
0000
1000
0010
0100
0010
0100
0010
,  // measure 17
0100
0010
0100
0010
0100
0010
0100
0010
,  // measure 18
0100
0010
0100
0010
0100
0010
0100
0010
,  // measure 19
0100
0010
0100
0010
0100
0010
0200
0300
,  // measure 20
1001
0001
0010
0001
0011
0001
0100
0010
,  // measure 21
1010
1000
0100
0010
0110
0010
0001
0100
,  // measure 22
0001
1000
0100
1000
0001
0100
0001
1000
,  // measure 23
0100
0010
0100
0010
0001
0010
0001
0010
0001
0000
0000
0000
0000
0000
0000
0000
,  // measure 24
1100
0000
0000
0001
0000
0100
0001
0000
1000
0100
0000
0010
0000
0000
0010
0000
0000
0010
0001
0000
1000
0001
0000
0000
,  // measure 25
0101
0000
0000
1000
0000
0100
1000
0000
0001
0100
0000
0010
0000
0000
0010
0000
0000
0010
1000
0000
0001
1000
0000
0000
,  // measure 26
1100
0000
0000
0101
0000
0100
0010
0000
0100
0001
0000
1000
0000
0000
1000
0000
0000
1000
0100
0010
0001
0010
0100
1000
,  // measure 27
0100
0000
0000
1100
0000
0100
0010
0000
0100
1000
0000
0001
0000
0000
0001
0000
0000
0001
1000
0000
0100
1000
0000
0000
,  // measure 28
0001
0000
0000
0000
0000
0000
0000
0000
0000
0000
0000
0000
1000
0000
0100
0000
1000
0000
0100
0000
0000
0010
0000
0000
0001
0000
0000
0100
0000
0000
1000
0000
0000
0100
0000
0000
0001
0000
0000
0001
0000
0000
1000
0000
0000
0000
0000
0000
,  // measure 29
1001
0000
0000
0000
0000
0000
0110
0000
0000
1000
0000
0001
0010
0000
0001
1000
0000
0100
0000
0000
0100
0000
0000
0100
,  // measure 30
0010
0000
0001
1000
0000
0000
1001
0000
0000
0100
0000
0010
0001
0000
0100
0010
0000
1000
0000
0000
1000
0000
0000
1000
,  // measure 31
0002
1003
2002
0000
0000
0000
0000
0000
,  // measure 32
0000
0000
3003
0000
0110
0100
0010
0010
0100
0010
0100
0010
0000
1000
0001
0010
,  // measure 33
0000
0001
1000
0100
1100
1000
0100
0100
1000
0100
1000
0100
0000
1000
0001
0100
,  // measure 34
0000
0001
1000
0100
0010
0001
0010
0100
0010
0001
0010
0100
0000
1000
0001
0010
,  // measure 35
0000
0000
0001
0000
1000
0000
0010
0000
0200
0000
0000
0000
0301
0000
0000
0000
0020
0000
0000
0000
0130
0000
0000
0000
2100
0000
0000
0000
3010
0100
0010
0100
,  // measure 36
0020
0000
0000
0000
1030
0001
0010
0010
1000
0001
0100
0100
1000
0010
0100
0001
,  // measure 37
1000
0000
0100
0010
0001
0000
1000
0000
0010
0100
0010
0000
0000
0000
0000
0000
1000
0000
0100
0000
0010
0000
0001
0000
1000
0000
0010
0000
0010
0000
0010
0000
,  // measure 38
1000
0000
0100
0010
0110
0000
0000
0000
1000
0001
0010
0010
0001
0100
0010
1000
,  // measure 39
0001
0000
1000
0000
1000
0000
1000
0000
0001
0000
1000
0000
0100
1000
0100
1000
0100
0000
0010
0000
0001
0000
1000
0000
2002
0000
0000
0000
3003
0000
0000
0000
,  // measure 40
0220
0330
1001
1000
0010
0100
0101
0001
,  // measure 41
0010
0100
1100
1000
0010
0100
0110
0100
,  // measure 42
0010
1000
1010
1000
0100
0010
0011
0001
,  // measure 43
0100
0010
0110
0010
1000
0001
1001
0001
,  // measure 44
0100
0010
1000
0100
0001
0100
1000
0010
,  // measure 45
0001
0010
1000
0100
0010
0100
1000
0010
,  // measure 46
0100
0000
0001
0000
1000
0100
1000
0000
0010
0000
0100
0000
0001
0100
0001
0000
,  // measure 47
0010
0000
0100
0000
1000
0001
1000
0001
1000
0001
1000
0001
1000
0000
0000
0000
,  // measure 48
0000
0000
0000
0000
1001
0000
0000
0100
1000
0100
1000
0000
0001
0100
0001
0000
,  // measure 49
1000
0100
1000
0000
0001
0100
0001
0000
1000
0100
1000
0000
0001
0100
0001
0000
,  // measure 50
1000
0000
0001
0000
1001
0000
0000
0010
0001
0010
0001
0000
1000
0010
1000
0000
,  // measure 51
0001
0010
0001
0000
1000
0010
1000
0000
0001
0010
0001
0000
1000
0010
1000
0000
,  // measure 52
0001
0010
0100
0000
0110
0000
0000
1000
0100
1000
0100
0000
0010
0001
0010
0000
,  // measure 53
0100
1000
0100
0000
0010
0001
0010
0000
0100
1000
0100
0000
0010
0001
0010
0000
,  // measure 54
0100
0000
1000
0000
1100
0000
0000
0001
0100
0001
0100
0000
0010
1000
0010
0000
,  // measure 55
0100
0001
0100
0000
0010
1000
0010
0000
0100
0001
0100
0000
0010
1000
0010
0000
,  // measure 56
0100
0001
1000
0000
0100
0000
1100
0000
1100
0000
1100
0000
1001
0000
0101
0000
,  // measure 57
0110
0000
0000
0010
1000
0010
0100
0000
0001
0010
0100
0000
1000
0010
0100
0000
,  // measure 58
0001
0010
0100
0000
1000
0010
0100
0000
0001
0010
0100
0000
1000
0000
0001
0000
,  // measure 59
1001
0000
0000
0100
0001
0100
0010
0000
1000
0100
0010
0000
0001
0100
0010
0000
,  // measure 60
1000
0100
0010
0000
0001
0100
0010
0000
1000
0100
0010
0000
0001
0100
0010
0000
,  // measure 61
1010
0000
0000
1000
0100
1000
0001
0000
0100
0001
1000
0000
0100
1000
0001
0000
,  // measure 62
0100
0001
1000
0000
0100
1000
0001
0000
0100
0001
1000
0000
0100
0000
0010
0000
,  // measure 63
0110
0000
2000
0000
3002
0000
0013
0000
0011
0000
1001
0000
1100
1000
0001
0000
,  // measure 64
0101
0000
2000
0000
3020
0000
0130
0000
0101
0000
1000
0010
0000
0100
0010
0000
,  // measure 65
1010
0000
0000
0002
0000
0000
0023
0000
0000
0130
0000
0000
1100
0000
0000
0110
0000
0000
0001
0010
0100
1000
0100
0010
,  // measure 66
0001
0000
2000
0000
3002
0000
0103
0000
1100
0000
0001
0100
0000
0010
0100
0000
,  // measure 67
0001
0000
0001
0000
1000
0100
1000
0000
0001
0000
1000
0001
1001
0000
0000
0000
,  // measure 68
1100
0000
0001
0001
0100
0000
0110
0000
,  // measure 69
1000
1100
0000
0001
0101
0000
1000
0000
,  // measure 70
1100
0110
0011
1001
,  // measure 71
1000
0000
0010
0000
0100
0010
0100
0000
0010
0000
1000
0000
0001
0000
0000
0000
,  // measure 72
0101
0000
0010
0010
0010
0000
0110
0000
,  // measure 73
0000
0000
1001
0000
0000
0000
0010
1000
,  // measure 74
0010
1000
0010
0100
0010
0100
0001
0100
,  // measure 75
0001
0000
0100
0000
0001
0000
1000
0000
0001
0000
1000
0100
1000
0001
1000
0000
,  // measure 76
0001
0100
0001
0000
0100
0010
1000
0010
0100
0001
0100
0010
1000
0000
0001
0000
,  // measure 77
0011
0000
1000
0100
0020
0002
0033
0000
;
