#VERSION:0.83;
#TITLE:Elisha;
#SUBTITLE:;
#ARTIST:DJ YOSHITAKA;
#TITLETRANSLIT:;
#SUBTITLETRANSLIT:;
#ARTISTTRANSLIT:;
#GENRE:;
#ORIGIN:;
#CREDIT:;
#BANNER:elisha-bn.png;
#BACKGROUND:elisha-bg.png;
#PREVIEWVID:;
#JACKET:elisha-jacket.png;
#CDIMAGE:;
#DISCIMAGE:;
#LYRICSPATH:;
#CDTITLE:pecd.png;
#MUSIC:Elisha.ogg;
#OFFSET:-0.611000;
#SAMPLESTART:78.459999;
#SAMPLELENGTH:12.000000;
#SELECTABLE:YES;
#DISPLAYBPM:185.000000;
#BPMS:0.000=185.000,
234.000=277.500,
235.000=370.000,
236.000=555.000,
237.500=925.000,
239.000=1110.000,
242.000=1480.000,
253.000=185.000;
#STOPS:253.000=0.390;
#DELAYS:;
#WARPS:;
#TIMESIGNATURES:0.000=4=4;
#TICKCOUNTS:0.000=4;
#COMBOS:0.000=1;
#SPEEDS:0.000=1.000=0.000=0;
#SCROLLS:0.000=1.000;
#FAKES:;
#LABELS:0.000=Song Start;
#BGCHANGES:;
#KEYSOUNDS:;
#ATTACKS:
;

//---------------dance-single - ----------------
#NOTEDATA:;
#CHARTNAME:;
#STEPSTYPE:dance-single;
#DESCRIPTION:;
#CHARTSTYLE:;
#DIFFICULTY:Beginner;
#METER:3;
#RADARVALUES:0.139440,0.265248,0.000000,0.015871,0.000000,123.000000,123.000000,0.000000,2.000000,0.000000,0.000000,0.000000,0.000000,0.000000,0.139440,0.265248,0.000000,0.015871,0.000000,123.000000,123.000000,0.000000,2.000000,0.000000,0.000000,0.000000,0.000000,0.000000;
#CREDIT:SHAYMIN;
#DISPLAYBPM:185.000000;
#NOTES:
0000
0000
0000
0000
,
0000
0000
0000
0000
,
0000
0000
0000
0000
,
0000
0000
0000
0000
,
1000
0000
0001
0000
,
1000
0000
0000
0000
,
0001
0000
1000
0000
,
0001
0000
0000
0000
,
1000
0000
0100
0000
,
0010
0000
0000
0000
,
0001
0000
0100
0000
,
0010
0000
0000
0000
,
1000
0000
0001
0000
,
0010
0000
0000
0000
,
0200
0000
0000
0000
,
0000
0000
0300
0000
,
0010
0000
0000
0000
,
0000
0000
0000
0000
,
0100
0000
0000
0000
,
0000
0000
0000
0000
,
0001
0000
0000
0000
,
0000
0000
0000
0000
,
1000
0000
0000
0000
,
0001
0000
0000
0000
,
1000
0000
0000
0000
,
0000
0000
0000
0000
,
0100
0000
0000
0000
,
0000
0000
0000
0000
,
0010
0000
0000
0000
,
0000
0000
0000
0000
,
0001
0000
0000
0000
,
1000
0000
0000
0000
,
0001
0000
0001
0000
,
0001
0000
0000
0000
,
1000
0000
1000
0000
,
1000
0000
0000
0000
,
0010
0000
0010
0000
,
0010
0000
0000
0000
,
0100
0000
0100
0000
,
0100
0000
0000
0000
,
1000
0000
0001
0000
,
1000
0000
0000
0000
,
0001
0000
1000
0000
,
0001
0000
0000
0000
,
1000
0000
0100
0000
,
1000
0000
0000
0000
,
0001
0000
0100
0000
,
0001
0000
0000
0000
,
0010
0000
0000
0010
,
0100
0000
0000
0100
,
1000
0000
0000
1000
,
0001
0000
0000
0001
,
1000
0000
0001
0000
,
1000
0000
0001
0000
,
1000
0000
0001
0000
,
1000
0000
0001
0000
,
0010
0000
0000
0000
,
0000
0000
0000
0000
,
0000
0000
0000
0000
,
0000
0000
0000
0000
,
0000
0000
0000
0000
,
0000
0000
0000
0000
,
0000
0000
0000
0000
,
0000
0000
0100
0000
,
0010
0000
0100
0000
,
0000
0000
0010
0000
,
0100
0000
0010
0000
,
0000
0000
1000
0000
,
0001
0000
1000
0000
,
0000
0000
0001
0000
,
1000
0000
0001
0000
,
0000
0000
0010
0000
,
0001
0000
0010
0000
,
0010
0000
0001
0000
,
0010
0000
0001
0000
,
0001
0000
1000
0000
,
0100
0000
1000
0000
,
1000
0000
0100
0000
,
1000
0000
0020
0000
,
0030
0000
0100
0100
,
0000
0001
0000
1000
,
0000
0001
0001
0001
,
0000
1000
0000
0001
,
0000
1000
1000
1000
,
0000
0100
0100
0100
,
0000
0010
0010
0000
,
0001
0000
1000
0000
,
0010
0000
0100
0000
,
0000
0000
0010
0000
,
0000
0000
1000
0000
,
0000
0000
0001
0000
,
0000
0000
0010
0000
,
0000
0000
0001
0000
,
0000
0000
0100
0000
,
0000
0000
0010
0000
,
0000
0000
1000
0000
;

//---------------dance-single - ----------------
#NOTEDATA:;
#CHARTNAME:;
#STEPSTYPE:dance-single;
#DESCRIPTION:;
#CHARTSTYLE:;
#DIFFICULTY:Easy;
#METER:5;
#RADARVALUES:0.222198,0.341034,0.031743,0.095228,0.000000,196.000000,192.000000,4.000000,12.000000,0.000000,0.000000,0.000000,0.000000,0.000000,0.222198,0.341034,0.031743,0.095228,0.000000,196.000000,192.000000,4.000000,12.000000,0.000000,0.000000,0.000000,0.000000,0.000000;
#CREDIT:SHAYMIN;
#DISPLAYBPM:185.000000:0.000000;
#NOTES:
0000
0000
0000
0000
,
0000
0000
0000
0000
,
0000
0000
0000
0000
,
0000
0000
0000
0000
,
0010
0000
0100
0000
,
0010
0010
1000
0000
,
0001
0000
0010
0000
,
0001
0001
0100
0100
,
0010
0000
1000
0000
,
0100
0000
0010
0010
,
0010
0000
0001
0000
,
0100
0000
0010
0010
,
0010
0000
1000
0000
,
0001
0000
1000
0010
,
0010
0000
0100
0000
,
0001
0000
1000
0000
,
2002
0000
0000
0000
,
3003
0000
0000
0000
,
0200
0000
0000
0000
,
0300
0000
0000
0000
,
0020
0000
0000
0000
,
0030
0000
0000
0000
,
2000
0000
3000
0000
,
0002
0000
0003
0000
,
2000
0000
0000
0000
,
3000
0000
0000
0000
,
0002
0000
0000
0000
,
0003
0000
0000
0000
,
0020
0000
0000
0000
,
0030
0000
0000
0000
,
0200
0000
0000
0000
,
2000
0000
3300
0000
,
0001
0001
0001
0000
,
1000
0000
0100
0000
,
1000
1000
1000
0000
,
0010
0000
0100
0000
,
0010
0010
0010
0000
,
1000
0000
0001
0000
,
0010
0010
0010
0000
,
0001
0000
0100
0000
,
0010
1000
0010
0000
,
0100
0000
0001
0000
,
1000
0100
0010
0000
,
0001
0000
1000
0000
,
0001
0010
0100
0000
,
1000
0000
0010
0000
,
0100
0001
1000
0000
,
0100
0000
0010
0000
,
1001
0000
0000
0000
,
0100
0000
0100
0000
,
0010
0000
0000
0000
,
0010
0000
0010
0000
,
0100
0100
0001
0001
,
1000
1000
0100
0100
,
1000
0010
0100
0001
,
1000
0010
0100
0001
,
0020
0000
0000
0000
,
0000
0000
0000
0000
,
0000
0000
0000
0000
,
0000
0000
0000
0000
,
0000
0000
0000
0000
,
0000
0000
0000
0000
,
0000
0000
0000
0000
,
0000
0030
0100
1000
,
0100
1000
0010
0000
,
0100
0000
0001
0010
,
0001
0010
0100
0000
,
1000
0000
0001
0100
,
0010
0100
0001
0000
,
1000
0000
0100
0010
,
0001
0010
0100
0000
,
1000
0000
0010
0100
,
0010
0100
0010
0000
,
1000
0000
0100
0010
,
0100
0010
0100
0000
,
0010
0000
0001
0100
,
0010
1000
0001
0000
,
1000
0000
0001
0010
,
0100
1000
0010
0000
,
1001
0000
0100
0100
,
0010
0010
0100
0100
,
0010
0010
0100
0010
,
0100
0010
1000
0010
,
1000
0010
0100
0001
,
1000
0001
0100
0001
,
1000
0001
0010
0100
,
1000
0001
0010
0001
,
0100
0010
1000
0000
,
0000
0000
0001
0000
,
0000
0000
1000
0000
,
0000
0000
0010
0000
,
0000
0000
0100
0000
,
0000
0000
0001
0000
,
0000
0000
0010
0000
,
0000
0000
0100
0000
,
0000
0000
1001
0000
;

//---------------dance-single - ----------------
#NOTEDATA:;
#CHARTNAME:;
#STEPSTYPE:dance-single;
#DESCRIPTION:;
#CHARTSTYLE:;
#DIFFICULTY:Medium;
#METER:7;
#RADARVALUES:0.294752,0.454711,0.031743,0.246004,0.000000,260.000000,256.000000,4.000000,31.000000,0.000000,0.000000,0.000000,0.000000,0.000000,0.294752,0.454711,0.031743,0.246004,0.000000,260.000000,256.000000,4.000000,31.000000,0.000000,0.000000,0.000000,0.000000,0.000000;
#CREDIT:SHAYMIN;
#DISPLAYBPM:185.000000;
#NOTES:
0000
0000
0000
0000
,
0000
0000
0000
0000
,
0000
0000
0000
0000
,
0000
0000
0000
0000
,
0010
0100
0010
1000
,
0001
0000
0010
0000
0100
0010
0100
0000
,
0010
0001
1000
0010
,
0220
0000
0330
0000
1000
0001
0010
0001
,
1000
0010
0100
0001
,
1000
0100
0011
0011
,
0001
0100
0010
1000
,
0200
0000
1300
0000
0010
0100
0001
0000
,
1000
0100
1000
0001
,
0100
0001
1000
0100
,
0010
0010
0100
0100
,
0010
0001
1000
0010
,
2002
0000
0000
0000
,
0000
0000
0000
3000
,
0200
0000
0000
0000
,
0000
0000
0000
0003
,
0020
0000
0000
0000
,
0000
0000
0000
0300
,
2000
0000
0000
0030
,
0002
0000
0000
3003
,
2000
0000
0000
0000
,
0000
0000
0000
0000
,
0002
0000
0000
0000
,
0000
0000
0000
3000
,
0020
0000
0000
0000
,
0000
0000
0000
0003
,
0200
0000
0000
0030
,
2000
0000
0000
3300
,
0001
0000
0100
0000
,
0001
0010
0100
1000
,
0010
0000
1000
0000
,
0100
1000
0001
1000
,
0100
0000
0010
0000
,
0001
0100
1000
0010
,
0001
0000
0010
0000
,
1000
0100
0001
0010
,
1000
1000
0001
0100
,
0001
0010
0100
0010
,
0001
0001
1000
0010
,
1000
0100
0010
0001
,
1000
1000
0010
0100
,
0010
1000
0100
0010
,
0100
0100
0010
0001
,
2000
0000
3002
0000
,
2003
0000
0100
3100
,
0002
0000
0010
0013
,
2000
0000
0010
3010
,
0002
0000
0100
0103
,
0010
1000
0100
0001
,
0100
1000
0010
0001
,
0100
0010
1000
0100
,
0010
0001
0100
0010
,
0020
0000
0000
0000
,
0000
0000
0000
0000
,
0000
0000
0000
0000
,
0000
0000
0000
0000
,
0000
0000
0000
0000
,
0000
0000
0000
0000
,
0000
0000
0000
0000
,
0000
0030
1000
0001
,
0010
0000
0001
0000
0100
0000
0010
1000
,
0000
0001
0000
1000
0010
0000
0100
0000
,
0001
0000
1000
0000
0100
0000
1000
0010
,
0000
0100
0000
0001
1000
0000
0100
0000
,
0010
0000
0100
0000
1000
0000
0001
0010
,
0000
0100
0000
0010
0001
0000
0100
0000
,
0010
0000
1000
0000
0001
0000
0010
0100
,
0000
1000
0000
0001
0100
0000
0010
0000
,
1000
0001
1000
0010
,
0100
0100
0010
1000
,
0001
0010
0001
0100
,
0010
0010
1000
0001
,
0010
0100
1000
0001
,
0100
0100
0001
0010
,
0100
1000
0020
0000
,
0230
0000
0310
0010
,
1000
0001
1000
0000
0010
0000
0010
0000
,
0100
0001
0100
0000
0010
1000
0001
0000
,
0010
0001
1000
0000
0010
0000
1000
0000
,
0100
0001
0020
0031
,
0001
0100
0010
0000
2000
0000
3100
0000
,
1000
0010
0100
0000
0002
0000
1003
0100
,
0000
0010
0000
0001
1000
0000
0010
0000
,
0100
0001
1000
0010
0200
0000
0000
0000
,
0000
0000
0000
0000
,
0000
0000
0002
0000
,
0000
0000
0000
0000
,
0000
0300
2000
0000
,
0000
0000
0000
0000
,
0000
0003
0200
0000
,
0000
3000
0020
0000
,
0000
0000
0330
0000
;

//---------------dance-single - ----------------
#NOTEDATA:;
#CHARTNAME:;
#STEPSTYPE:dance-single;
#DESCRIPTION:;
#CHARTSTYLE:;
#DIFFICULTY:Hard;
#METER:12;
#RADARVALUES:0.456865,0.682067,0.253940,0.253940,0.075388,403.000000,371.000000,32.000000,32.000000,0.000000,6.000000,0.000000,0.000000,0.000000,0.456865,0.682067,0.253940,0.253940,0.075388,403.000000,371.000000,32.000000,32.000000,0.000000,6.000000,0.000000,0.000000,0.000000;
#CREDIT:SHAYMIN;
#DISPLAYBPM:185.000000;
#NOTES:
0000
0000
0000
0000
,
0000
0000
0000
0000
,
0000
0000
0000
0000
,
0000
0000
0000
0000
,
0001
0100
0001
0100
0010
0000
1000
0100
,
1000
0100
0010
0000
0001
1000
0010
0000
,
1000
0100
0010
0100
1000
0000
0001
0100
,
0220
0000
0330
0000
1000
0100
0001
0100
,
1000
0010
1000
0010
0100
0000
0001
0010
,
0001
0010
0100
0000
0110
0000
1001
0000
,
1000
0100
0010
0100
1000
0000
0001
0100
,
0010
0100
0001
0000
1000
1000
1000
0000
,
0001
0010
0100
1000
0010
0000
1000
0100
,
0010
0001
0100
0000
0010
0100
0010
0100
,
0110
0000
1000
0100
0000
1001
0000
0001
,
0200
0000
0320
0000
1030
0001
0010
0000
,
2002
0000
0000
0000
,
0000
0000
0000
0000
,
0010
0000
0000
0000
,
0000
0000
0000
3003
,
2200
0000
0000
0000
,
0000
0000
0000
0000
,
0001
0000
0000
0000
,
0010
0000
0000
3300
,
0202
0000
0000
0000
,
0000
0000
0000
0000
,
1000
0000
0000
0000
,
0000
0000
0000
0303
,
0220
0000
0000
0000
,
0000
0000
0000
0000
,
1000
0000
0000
0000
,
0001
0000
0000
0330
,
1000
0000
0000
0000
0001
0000
0000
0000
0010
0000
0000
0001
0000
0000
0001
0000
,
0100
0000
0010
1000
0000
0001
0000
1000
,
0010
0000
0000
0000
1000
0000
0000
0000
0100
0000
0000
0010
0000
0000
0010
0000
,
0001
0000
1000
0010
0000
0100
0000
0010
,
1000
0000
0000
0000
0001
0000
0000
0000
0010
0000
0000
0100
0000
0000
1000
0000
,
0001
0000
1000
0100
0000
0010
0000
0001
,
0100
0000
0000
0000
0010
0000
0000
0000
1000
0000
0000
0001
0000
0000
0001
0000
,
1000
0000
0100
0010
0000
0001
0000
0100
,
0010
0000
1000
0000
0100
1000
0100
0000
,
0010
0000
0001
0100
0000
0010
0000
0100
,
0001
0000
1000
0000
0100
0010
0100
0000
,
1000
0000
0010
0100
0000
0001
0000
0010
,
0100
0000
0010
0000
0001
0100
0010
0000
,
1000
0000
0001
1000
0000
0100
0000
1000
,
0001
0000
1000
0000
0100
0010
0001
0000
,
0202
0303
2020
3030
,
0210
0000
0000
0000
0000
0000
0000
0000
0001
0000
0000
0001
0000
0000
0301
0000
,
0000
0000
1000
0000
0200
0000
0000
0000
0010
0000
0000
0010
0000
0000
0310
0000
,
0000
0000
0001
0000
2000
0000
0000
0000
0010
0000
0000
0010
0000
0000
3010
0000
,
0000
0000
0100
0000
0002
0000
0000
0000
0010
0000
0000
0010
0000
0000
0013
0000
,
0100
1000
0001
1000
0100
0010
0100
1000
,
0010
0100
0001
0100
0010
1000
0001
1000
,
0010
0000
0200
0001
0300
0020
1000
0030
,
0100
0001
1000
0100
1000
0001
0100
0010
,
0220
0000
0000
0000
,
0000
0000
0000
0000
,
0000
0000
0000
0000
,
0000
0000
0000
0000
,
0000
0000
0000
0000
,
0000
0000
0000
0000
,
0000
0000
0000
0000
,
0000
0000
0330
0000
1000
0100
1000
0010
,
0100
0001
0010
0100
1000
0100
0010
0011
,
0000
1100
0000
0101
0000
0010
1000
0001
,
1000
0010
0100
0001
0010
0100
0010
0110
,
0000
1001
0000
0110
0000
0100
0001
1000
,
0001
0100
0010
1000
0001
0010
0100
1100
,
0000
0101
0000
0110
0000
1000
0001
0010
,
0001
0100
0010
1000
0100
0010
0100
1100
,
0000
0101
0000
1001
0001
0100
0010
0100
,
0001
0010
0100
0010
0001
0100
0010
1000
,
0000
0100
0000
1000
0001
0100
0010
1000
,
0001
0010
0100
0010
0001
0100
0010
1000
,
0000
0100
0000
0010
0100
1000
0010
0100
,
0001
1000
0001
0100
0010
1000
0001
0010
,
0000
0100
0000
0010
0001
0100
0010
0100
,
0001
1000
0100
0010
0021
0000
0130
0000
,
0210
1000
1300
0000
0001
0100
0000
0010
,
1000
0000
0000
0001
0000
0000
1000
0000
0100
0000
0000
0010
0000
0000
0001
0000
,
0010
0000
0000
0100
0000
0000
1000
0000
0010
0000
0000
0100
0000
0000
0010
0000
,
0100
0000
0000
0001
0000
0000
0001
0000
1000
0000
0000
1000
0000
0000
1000
0000
,
0000
1000
0000
0000
0001
0000
0010
0000
0100
0000
0000
1000
0000
0000
0100
0000
,
0000
0010
0000
0000
0100
0000
1000
0000
0001
0000
0000
0100
0000
0000
0010
0000
,
0000
0100
0000
0000
0001
0000
1000
0000
0110
0000
0100
0000
0001
0000
0101
0000
,
0000
1001
0000
1100
0100
0010
0001
1000
,
0010
0000
1000
0002
0020
0000
0000
0000
,
0000
0000
0000
0000
,
0000
0000
0000
0000
,
0000
0000
0000
0000
,
0000
0033
2020
0000
,
0000
0000
0000
0000
,
0000
3030
0200
0000
,
0000
0000
0002
0000
,
0000
0000
0303
0000
;

//---------------dance-single - ----------------
#NOTEDATA:;
#CHARTNAME:;
#STEPSTYPE:dance-single;
#DESCRIPTION:;
#CHARTSTYLE:;
#DIFFICULTY:Challenge;
#METER:15;
#RADARVALUES:0.599707,0.909423,0.190455,0.182519,0.325361,529.000000,505.000000,24.000000,23.000000,11.000000,9.000000,0.000000,0.000000,0.000000,0.599707,0.909423,0.190455,0.182519,0.325361,529.000000,505.000000,24.000000,23.000000,11.000000,9.000000,0.000000,0.000000,0.000000;
#CREDIT:SHAYMIN;
#DISPLAYBPM:185.000000;
#NOTES:
// measure 0
0000
0000
0000
0000
,  // measure 1
0000
0000
0000
0000
,  // measure 2
0000
0000
0000
0000
,  // measure 3
0000
0000
0000
0000
,  // measure 4
0010
0100
0010
1000
0001
0000
0010
0100
,  // measure 5
0010
0000
0001
0000
1000
0000
0000
0000
1000
0001
0100
0001
1000
0000
0000
0000
,  // measure 6
0100
0010
0001
1000
0010
0000
1000
0001
,  // measure 7
2002
0000
0000
0000
3003
0000
0000
0000
0100
0010
1000
0000
0100
0010
0001
0000
,  // measure 8
1001
0001
0100
0010
1000
0000
0100
0010
,  // measure 9
0001
0010
0100
0000
2100
0000
3001
0000
,  // measure 10
0100
0010
1000
0010
0100
0000
0100
0001
,  // measure 11
1001
0000
0000
0000
0110
0000
0000
0000
1000
0001
0010
0100
1000
0000
0000
0000
,  // measure 12
0001
0100
0010
0100
0001
0000
1000
0100
,  // measure 13
0010
0001
1000
0000
0010
0010
0100
0100
,  // measure 14
0110
0010
1000
1010
0000
0101
0000
1100
,  // measure 15
0100
0000
0010
0001
1000
0000
0010
0000
0100
0001
1000
0010
0100
0000
0000
0000
,  // measure 16
0220
0000
0000
0000
,  // measure 17
M000
0000
0000
0000
,  // measure 18
0001
0000
0000
0000
,  // measure 19
M000
0000
0000
0330
,  // measure 20
2002
0000
0000
0000
,  // measure 21
0M00
0000
0000
0000
,  // measure 22
0010
0000
0000
0000
,  // measure 23
0010
0000
0000
3003
,  // measure 24
2200
0000
0000
0000
,  // measure 25
00M0
0000
0000
0000
,  // measure 26
0001
0000
0000
0000
,  // measure 27
00M0
0000
0000
3300
,  // measure 28
0202
0000
0000
0000
,  // measure 29
M000
0000
0000
0000
,  // measure 30
0010
0000
0000
0000
,  // measure 31
1000
0000
0000
0303
,  // measure 32
1000
0000
0100
0000
0010
0000
0100
0000
1000
0000
0001
1000
0000
1000
0001
0000
,  // measure 33
0000
0000
1000
0000
0100
0000
0010
0000
0001
0000
0100
0010
0000
0010
0100
0000
,  // measure 34
0001
0000
0010
0000
0100
0000
0010
0000
0001
0000
1000
0001
0000
0001
1000
0000
,  // measure 35
0000
0001
0100
0010
1000
0100
0010
0000
,  // measure 36
0001
0000
1000
0000
0010
0000
1000
0000
0001
0000
0010
0100
0000
0010
0100
0000
,  // measure 37
0000
0000
1000
0000
0100
0000
0010
0000
0001
0000
1000
0010
0000
1000
0010
0000
,  // measure 38
0100
0000
0001
0000
1000
0000
0001
0000
0100
0000
0010
1000
0000
0010
1000
0000
,  // measure 39
0000
0000
0100
0000
0010
0000
0001
0000
0100
0000
0010
1000
0000
0010
1000
0000
,  // measure 40
0001
0000
1000
0000
0100
0000
1000
0000
0010
0000
0100
0001
0000
0001
0010
0000
,  // measure 41
0001
0000
0100
0000
0010
0000
0100
0000
0001
0000
1000
0100
0000
0100
0010
0000
,  // measure 42
0001
0000
1000
0000
0100
0000
1000
0000
0001
0000
0100
0010
0000
0010
1000
0000
,  // measure 43
0100
0010
0100
1000
0010
0100
0001
1000
,  // measure 44
0001
0000
0100
0000
0010
0000
1000
0000
0001
0000
0010
0001
0000
0001
0100
0000
,  // measure 45
0001
0000
1000
0000
0100
0000
1000
0000
0010
0000
0100
0001
0000
0001
1000
0000
,  // measure 46
0100
0000
0010
0000
0100
0000
1000
0000
0010
0000
0100
0001
0000
0001
0010
0000
,  // measure 47
0002
0000
0100
0000
0103
0000
0000
0000
2000
0000
0000
0100
0000
0000
3100
0000
,  // measure 48
0110
0000
0000
0000
0100
0000
0000
0000
1000
0000
0000
0001
0000
0000
0200
0000
,  // measure 49
0000
0000
0010
0000
0310
0000
0000
0000
1000
0000
0000
0100
0000
0000
0020
0000
,  // measure 50
0000
0000
0001
0000
0031
0000
0000
0000
0001
0000
0000
0100
0000
0000
2000
0000
,  // measure 51
0000
0000
0001
0000
3001
0000
0000
0000
0010
0000
0000
0100
0000
0000
0010
0000
,  // measure 52
0001
1000
0001
0000
0010
0001
0010
0000
0100
0010
0100
0000
1000
0100
1000
0000
,  // measure 53
0001
0001
0100
0100
0010
0010
1000
1000
,  // measure 54
0001
0000
0010
0100
1000
0000
0001
0000
0100
0000
0001
1000
0100
0000
0010
0000
,  // measure 55
0001
0100
0010
0000
1000
0000
0001
0000
1000
0100
0010
0001
0100
0010
1000
0002
,  // measure 56
2000
0000
0000
0000
,  // measure 57
0000
0000
0000
0000
,  // measure 58
0000
0000
0000
0000
,  // measure 59
0000
0000
0000
0000
,  // measure 60
0000
0000
0000
0000
,  // measure 61
0000
0000
0000
0000
,  // measure 62
0000
0000
0000
0000
,  // measure 63
0000
0000
3003
0000
0110
0100
0001
1000
,  // measure 64
0001
0100
0010
1000
0100
1000
0010
0100
,  // measure 65
0100
0001
0001
1000
0100
1000
0010
0100
,  // measure 66
0001
1000
0100
1000
0001
0100
0010
1000
,  // measure 67
1000
0001
0001
1000
0001
0010
0001
0100
,  // measure 68
0010
1000
0100
1000
0010
0100
0001
0010
,  // measure 69
0010
0100
0100
0010
0001
0100
1000
0100
,  // measure 70
0001
0010
0100
1000
0010
0001
0010
0010
,  // measure 71
0001
0001
1000
0010
1010
1000
0100
1000
,  // measure 72
0010
0000
0100
0001
0100
0000
0010
0000
1000
0000
0001
0000
0010
0000
0001
0000
,  // measure 73
0001
1000
1000
0010
1000
0100
1000
0001
,  // measure 74
0100
0000
0010
1000
0010
0000
0100
0000
0001
0000
1000
0000
0100
0000
0010
0000
,  // measure 75
0010
0001
0001
1000
0001
0010
0100
0010
,  // measure 76
0001
0000
0100
0010
0100
0000
0001
0000
1000
0000
0100
0000
1000
0000
0010
0000
,  // measure 77
0010
1000
1000
0001
1000
0100
1000
0010
,  // measure 78
0100
0001
0010
0001
2001
0000
3100
0000
,  // measure 79
0010
0001
1000
0001
0010
0000
0000
0000
0100
0000
1000
0000
0010
0000
0001
0000
,  // measure 80
0010
0000
1000
0100
0000
1000
0100
0000
0010
0000
0001
0100
0000
0001
0100
0000
,  // measure 81
0010
0000
1000
0001
0000
0010
0001
0000
0100
0000
0010
1000
0000
0001
0100
0000
,  // measure 82
0010
0000
0100
0001
0000
1000
0001
0000
0010
0000
0001
0100
0000
0100
0010
0000
,  // measure 83
0010
1000
0000
1000
0001
0000
1000
0000
1100
0000
0010
0001
0000
0100
0010
0000
,  // measure 84
1000
0001
0000
0010
0001
0000
0100
0000
1010
0000
0100
0001
0000
1000
0100
0000
,  // measure 85
0010
0100
0000
1000
0001
0000
0100
0010
1000
0000
1000
0000
0001
0000
0011
0000
,  // measure 86
0000
0000
1100
0000
0000
0000
0101
0000
0100
0000
0010
1000
0001
0000
1000
0000
,  // measure 87
0100
0010
0001
0010
0100
0000
1000
0000
2002
0000
0000
0000
0000
0000
0000
0000
,  // measure 88
0000
0000
0M00
0000
,  // measure 89
0000
0000
0010
0000
,  // measure 90
0000
0000
0M00
0000
,  // measure 91
0000
3003
0220
0000
,  // measure 92
0000
0000
000M
0000
,  // measure 93
0000
0000
1000
0000
,  // measure 94
0000
0000
0001
0000
,  // measure 95
0000
0000
M33M
0000
;
