#VERSION:0.83;
#TITLE:ECHO;
#SUBTITLE:;
#ARTIST:Crusher-P;
#TITLETRANSLIT:;
#SUBTITLETRANSLIT:;
#ARTISTTRANSLIT:;
#GENRE:;
#ORIGIN:;
#CREDIT:;
#BANNER:echo-bn.png;
#BACKGROUND:echo-bg.png;
#PREVIEWVID:;
#JACKET:echo-jacket.png;
#CDIMAGE:;
#DISCIMAGE:;
#LYRICSPATH:;
#CDTITLE:pecd.png;
#MUSIC:ECHO.ogg;
#OFFSET:-0.027000;
#SAMPLESTART:33.883999;
#SAMPLELENGTH:12.000000;
#SELECTABLE:YES;
#BPMS:0.000=140.000;
#STOPS:;
#DELAYS:;
#WARPS:;
#TIMESIGNATURES:0.000=4=4;
#TICKCOUNTS:0.000=4;
#COMBOS:0.000=1;
#SPEEDS:0.000=1.000=0.000=0;
#SCROLLS:0.000=1.000;
#FAKES:;
#LABELS:0.000=Song Start;
#BGCHANGES:;
#KEYSOUNDS:;
#ATTACKS:
;

//---------------dance-single - ----------------
#NOTEDATA:;
#CHARTNAME:;
#STEPSTYPE:dance-single;
#DESCRIPTION:;
#CHARTSTYLE:;
#DIFFICULTY:Beginner;
#METER:2;
#RADARVALUES:0.118039,0.139737,0.000000,0.081007,0.000000,102.000000,102.000000,0.000000,10.000000,0.000000,0.000000,0.000000,0.000000,0.000000,0.118039,0.139737,0.000000,0.081007,0.000000,102.000000,102.000000,0.000000,10.000000,0.000000,0.000000,0.000000,0.000000,0.000000;
#CREDIT:SHAYMIN;
#NOTES:
0000
0000
0000
0000
,
0000
0000
0000
0000
,
0000
0000
0000
0000
,
0000
0000
0000
0000
,
0100
0000
0010
0000
,
0100
0000
0000
0000
,
0001
0000
1000
0000
,
0001
0000
0000
0000
,
1000
0000
0100
0000
,
1000
0000
0000
0000
,
0001
0000
0100
0000
,
0001
0000
0000
0000
,
2000
0000
3000
0000
,
0001
0000
0001
0000
,
0002
0000
0003
0000
,
0010
0000
0100
0000
,
0020
0000
0030
0000
,
0100
0000
0010
0000
,
0200
0000
0300
0000
,
0020
0000
0030
0000
,
0010
0000
0010
0000
,
0100
0000
0100
0000
,
0001
0000
1000
0000
,
0001
0000
1000
0000
,
0100
0000
0100
0000
,
0010
0000
0010
0000
,
0001
0000
1000
0000
,
0001
0000
1000
0000
,
0010
0000
0000
1000
,
1000
0000
0000
0010
,
0010
0000
0000
0100
,
0100
0000
0000
0001
,
0001
0000
1000
0000
,
0001
0000
0000
0000
,
1000
0000
0001
0000
,
1000
0000
0000
0000
,
0010
0000
0000
0000
,
0100
0000
0000
0000
,
0001
0000
0000
0000
,
1000
0000
0000
0000
,
0001
0000
0100
0000
,
0001
0000
0100
0000
,
0010
0000
1000
0000
,
0010
0000
1000
0000
,
0010
0000
0000
0100
,
0100
0000
0100
0000
,
0100
0000
0000
0010
,
0010
0000
0010
0000
,
0010
0000
0000
0000
,
1000
0000
0000
0000
,
0100
0000
0000
0000
,
0010
0000
0000
0000
,
0001
0000
1000
0000
,
0001
0000
0000
0000
,
1000
0000
0001
0000
,
1000
0000
0000
0000
,
0010
0000
0100
0000
,
0010
0000
0000
0000
,
0100
0000
0010
0000
,
0100
0000
0000
0000
,
0010
0000
1000
0000
,
0002
0000
0003
0000
,
0010
0000
0001
0000
,
2000
0000
3000
0000
,
0100
0000
1000
0000
,
0002
0000
0003
0000
,
0100
0000
0001
0000
,
2000
0000
3000
0000
,
0020
0000
0000
0000
,
0030
0000
0000
0000
;

//---------------dance-single - ----------------
#NOTEDATA:;
#CHARTNAME:;
#STEPSTYPE:dance-single;
#DESCRIPTION:;
#CHARTSTYLE:;
#DIFFICULTY:Easy;
#METER:5;
#RADARVALUES:0.189788,0.222769,0.008101,0.072906,0.000000,164.000000,163.000000,1.000000,9.000000,0.000000,0.000000,0.000000,0.000000,0.000000,0.189788,0.222769,0.008101,0.072906,0.000000,164.000000,163.000000,1.000000,9.000000,0.000000,0.000000,0.000000,0.000000,0.000000;
#CREDIT:SHAYMIN;
#NOTES:
0000
0000
0000
0000
,
0000
0000
0000
0000
,
0000
0000
0000
0000
,
0000
0000
0000
0000
,
1000
0000
0001
0000
,
0020
0000
0030
0000
,
0001
0000
1000
0000
,
0200
0000
0300
0000
,
1000
0000
0010
0000
,
0100
0000
0100
0000
,
0001
0000
0010
0000
,
0100
0000
0100
0000
,
1000
0000
0001
0000
,
1000
0000
0001
0000
,
0010
0000
0100
0000
,
0020
0000
0030
0000
,
0001
0000
1000
0000
,
0001
0000
1000
0000
,
0100
0000
0010
0000
,
0200
0000
0300
0000
,
1001
0000
0100
0000
,
0010
0010
0010
0000
,
1000
1000
0001
0001
,
0010
0000
0100
0000
,
0010
0000
0100
0000
,
1000
1000
1000
0000
,
0010
0010
0100
0100
,
0001
0000
1000
0000
,
0100
0000
0010
0100
,
0010
0000
0100
0010
,
0100
0000
1000
0001
,
1000
0001
1000
0000
,
0001
0001
0000
0000
,
1000
0000
0100
0000
,
1000
1000
1000
0001
,
0010
0010
0010
0000
,
0200
0000
0000
0300
,
1000
0000
0001
0000
,
0020
0000
0000
0030
,
1000
1000
1000
1000
,
0000
0001
0000
1000
,
0001
0000
1000
0000
,
0100
0000
0010
0000
,
0100
0010
0100
0010
,
0000
0001
0000
1000
,
0100
1000
0001
1000
,
0002
0003
2000
3000
,
0010
0100
0010
0010
,
1000
0000
0000
0001
,
0100
0000
0000
1000
,
0100
0000
0000
0010
,
0001
0000
1000
0000
,
0010
0010
0100
0100
,
0010
0000
1000
0000
,
0001
0001
1000
1000
,
0100
0000
0010
0000
,
0100
1000
0100
1000
,
0100
0000
0010
0000
,
0001
1000
0001
1000
,
0001
0000
0000
0000
,
1000
0100
0010
0001
,
1000
0100
0010
0000
,
0001
0010
0100
1000
,
0001
0010
0100
0000
,
1000
0001
1000
0001
,
1000
0010
0100
0000
,
0001
1000
0001
1000
,
0001
0010
0100
0000
,
0020
0000
0000
0030
;

//---------------dance-single - ----------------
#NOTEDATA:;
#CHARTNAME:;
#STEPSTYPE:dance-single;
#DESCRIPTION:;
#CHARTSTYLE:;
#DIFFICULTY:Medium;
#METER:7;
#RADARVALUES:0.312456,0.417693,0.064806,0.145813,0.000000,270.000000,262.000000,8.000000,18.000000,0.000000,0.000000,0.000000,0.000000,0.000000,0.312456,0.417693,0.064806,0.145813,0.000000,270.000000,262.000000,8.000000,18.000000,0.000000,0.000000,0.000000,0.000000,0.000000;
#CREDIT:SHAYMIN;
#NOTES:
0000
0000
0000
0000
,
0000
0000
0000
0000
,
0000
0000
0000
0000
,
0000
0000
0000
0000
,
0010
0000
0100
0000
0010
1000
0000
0000
,
0001
0010
0100
1000
0000
0000
0000
0000
,
1000
0001
1000
0000
0100
0000
0000
0000
,
0010
0001
0000
0010
0000
0000
0100
0000
,
1000
0010
0100
0001
,
1000
0100
0000
0010
0000
0000
0000
0000
,
0001
0010
0100
0010
0001
0000
1000
0000
,
0010
0100
0000
0001
0000
0000
0000
0000
,
2000
0000
0000
0100
0000
3100
0000
0000
,
0002
0000
0000
0100
0000
0103
0000
0000
,
2000
0000
0000
0010
0000
3100
0000
0000
,
0002
0013
0200
0300
,
2000
0000
0000
0001
0000
3001
0000
0000
,
0002
0000
0000
1000
0000
1003
0000
0000
,
0010
0000
0100
0010
0000
1000
0000
0001
,
0020
0000
0000
0130
,
1100
0001
1001
0100
,
0001
0010
0100
1000
0001
0000
0000
0000
,
1000
0100
0010
0000
0100
0000
1000
0000
,
0001
0100
0010
1000
0001
0000
0000
0000
,
1010
0100
0110
0001
,
1000
0100
0010
0100
1000
0000
0000
0000
,
0001
0010
0100
0000
1000
0000
0100
0000
,
0010
0001
1000
0100
0010
0000
0000
0000
,
0001
0200
0000
0310
0000
1000
0001
0000
,
1000
0200
0000
0310
0000
0001
0000
0000
,
1000
0100
0010
0001
1000
0000
0001
0000
,
1000
0010
0100
0001
1000
0000
0000
0000
,
0200
0000
0310
0000
0001
1000
0001
0000
,
0100
0010
0100
0000
0001
0000
1000
0000
,
0100
0100
1000
0010
,
0100
0001
1000
0001
,
0020
0000
0000
0000
,
0100
0000
0100
0030
,
0002
0000
0000
0003
,
2000
3000
0200
0300
,
1000
0010
0100
0010
,
1000
0001
0010
0001
,
1000
1000
0001
0001
,
1000
0100
0010
0100
1000
0000
0001
0100
,
0001
1000
0100
0100
,
1000
0001
1000
0000
0010
0000
0010
0000
,
1000
0000
0010
0000
0100
0001
1000
0000
,
0001
0010
0100
1000
,
0001
0000
0000
1000
,
0100
0010
0100
0010
0000
0001
0000
0000
,
0100
0000
0000
0010
,
2000
3000
0002
0003
,
1000
0000
1100
0000
1000
0010
0100
0001
,
0100
0000
0101
0000
0001
0100
0010
1000
,
0010
0100
0001
1000
,
0100
1000
0010
0100
,
0001
0000
0011
0000
0001
0010
0100
1000
,
0100
0000
1100
0000
1000
0010
0100
0001
,
0100
0010
1000
0001
,
0000
0000
0000
0000
,
1000
0100
1000
0000
0010
0000
0100
0000
,
0001
0010
0001
0000
0100
0000
0010
0000
,
1000
0001
1000
0000
0100
0000
0010
0000
,
0001
1000
0001
0000
0010
0000
0100
0000
,
1000
0010
0100
0010
,
0001
0010
0100
0010
,
1000
0100
0010
0001
,
0010
0100
1000
0000
0010
0100
0001
0000
,
0020
0000
0000
0030
;

//---------------dance-single - ----------------
#NOTEDATA:;
#CHARTNAME:;
#STEPSTYPE:dance-single;
#DESCRIPTION:;
#CHARTSTYLE:;
#DIFFICULTY:Hard;
#METER:11;
#RADARVALUES:0.438595,0.473385,0.056705,0.145813,0.028352,379.000000,372.000000,7.000000,18.000000,1.000000,0.000000,0.000000,0.000000,0.000000,0.438595,0.473385,0.056705,0.145813,0.028352,379.000000,372.000000,7.000000,18.000000,1.000000,0.000000,0.000000,0.000000,0.000000;
#CREDIT:SHAYMIN;
#NOTES:
// measure 0
0000
0000
0000
0000
,  // measure 1
0000
0000
0000
0000
,  // measure 2
0000
0000
0000
0000
,  // measure 3
0000
0000
0000
0000
,  // measure 4
1000
0000
0100
0000
1000
0010
0000
0100
,  // measure 5
0001
0100
0010
1000
0000
0000
0001
0000
,  // measure 6
1000
0100
0010
0001
0100
0000
0010
0000
,  // measure 7
0100
0010
0000
0100
0000
0000
0010
0000
,  // measure 8
1000
0000
0001
0010
0100
0000
0010
0001
,  // measure 9
0100
0010
0000
1000
0000
0000
0001
1000
,  // measure 10
0100
1000
0010
0100
0001
0000
1000
0001
,  // measure 11
0100
0010
0000
1000
0000
0000
0100
0000
,  // measure 12
0010
0000
0001
2000
0000
3010
0100
0000
,  // measure 13
0010
0000
1000
0002
0000
0013
0100
0000
,  // measure 14
0010
0000
0001
0200
0000
0310
1000
0000
,  // measure 15
0001
1000
0001
M000
,  // measure 16
0100
0000
0010
2000
0000
3001
0010
0000
,  // measure 17
0100
0000
0010
0002
0000
1003
0010
0000
,  // measure 18
1000
0000
0100
0020
0000
0031
0100
0000
,  // measure 19
0020
0000
0000
0000
2030
0000
3001
1000
,  // measure 20
1001
1100
0010
0001
,  // measure 21
0100
0010
1000
0001
0100
0000
0010
0000
,  // measure 22
0100
0001
0100
0001
1000
0001
0100
0001
,  // measure 23
1000
0100
0010
0001
1000
0000
0010
0000
,  // measure 24
0110
0000
0010
1000
0001
0000
0011
0000
,  // measure 25
0010
0100
1000
0001
0010
0000
0100
0000
,  // measure 26
0010
0001
0010
0001
0010
0100
0010
0001
,  // measure 27
0010
0100
1000
0010
0100
0000
0001
0000
,  // measure 28
1000
0100
0010
0200
0000
1300
0010
0000
,  // measure 29
0100
0001
1000
0002
0000
0103
0010
0000
,  // measure 30
1000
0100
0010
0001
1000
0000
0001
0100
,  // measure 31
0001
0010
0100
1000
0001
0000
0100
0000
,  // measure 32
1010
0000
0110
0000
0001
0001
0001
1000
,  // measure 33
0100
0010
0001
0000
1000
0010
0100
0010
,  // measure 34
1000
0000
0000
0100
0000
0000
1000
0000
0000
0010
0000
0000
0100
0000
0001
0000
,  // measure 35
1000
0001
0100
0010
1000
0100
0010
0001
,  // measure 36
2000
0100
0010
0100
,  // measure 37
0001
0100
0010
0001
,  // measure 38
3200
0010
1000
0310
,  // measure 39
0001
0000
0000
0100
0000
0000
0001
0000
1000
0000
0100
0000
0000
0010
0000
0000
,  // measure 40
0001
1000
0100
1000
0100
1000
0010
0100
,  // measure 41
0001
0000
1000
0000
0100
0000
1000
0010
,  // measure 42
0200
0302
0023
0230
,  // measure 43
1300
0010
0100
0001
0010
0100
1000
0001
,  // measure 44
0100
0000
0110
0000
0010
1000
0001
1000
,  // measure 45
0100
1000
1000
0000
0010
0100
0001
1000
,  // measure 46
0100
0000
0100
0000
0000
0100
0000
0000
0010
0000
0001
0000
1000
0000
0000
0000
,  // measure 47
0001
0100
0001
1000
0100
0000
0010
0000
,  // measure 48
0100
0000
1000
0000
,  // measure 49
0010
0100
0010
1000
,  // measure 50
0001
0000
1000
0000
,  // measure 51
0100
0000
0000
0100
0000
0000
0100
0000
0010
0000
0000
0010
0000
0000
0010
0000
,  // measure 52
0001
0000
0100
0010
1000
0000
0100
0010
,  // measure 53
0100
0000
1000
0010
0100
0001
1000
0100
,  // measure 54
0010
0000
0100
1000
0100
0000
0010
0001
,  // measure 55
0010
0100
0010
0100
1000
0001
1000
0001
,  // measure 56
0100
0000
0010
1000
0001
0000
0010
0001
,  // measure 57
0100
0000
0010
1000
0100
1000
0010
0100
,  // measure 58
0001
0000
1000
0100
0010
0100
1000
0010
,  // measure 59
0200
0000
0000
0000
,  // measure 60
0310
1000
0001
1000
0010
1000
0001
1000
,  // measure 61
0010
0100
0001
0100
0010
0100
0001
0000
,  // measure 62
1000
0100
0010
0100
1000
0100
0010
0100
,  // measure 63
1000
0010
0100
0001
1000
0010
1000
0000
,  // measure 64
0100
0010
0100
0010
0001
1000
0001
1000
,  // measure 65
0010
1000
0010
1000
0001
0100
0001
0000
,  // measure 66
1000
0100
1000
0100
0010
0001
0010
0001
,  // measure 67
1000
0010
0100
0001
1000
0100
0010
0001
,  // measure 68
2000
0000
0000
3000
;

//---------------dance-single - ----------------
#NOTEDATA:;
#CHARTNAME:;
#STEPSTYPE:dance-single;
#DESCRIPTION:;
#CHARTSTYLE:;
#DIFFICULTY:Challenge;
#METER:13;
#RADARVALUES:0.510345,0.556924,0.121511,0.178216,0.153913,441.000000,426.000000,15.000000,22.000000,129.000000,0.000000,0.000000,0.000000,0.000000,0.510345,0.556924,0.121511,0.178216,0.153913,441.000000,426.000000,15.000000,22.000000,129.000000,0.000000,0.000000,0.000000,0.000000;
#CREDIT:SHAYMIN;
#NOTES:
0000
0000
0000
0000
,
0000
0000
0000
0000
,
0000
0000
0000
0000
,
0000
0000
0000
0000
,
1000
0100
1000
0100
1000
0001
1000
0001
,
1000
0010
0100
0001
1000
0000
1000
0000
,
0001
0010
0001
0010
0100
1000
0100
1000
,
0001
0100
0000
0010
0000
1000
0001
0000
,
1000
0100
0010
0100
1000
0001
1000
0010
,
0100
0001
1000
0001
0000
0001
1000
0001
,
0010
0100
1000
0100
0010
0100
1000
0001
,
0100
0010
1000
0100
0000
0100
1000
0010
,
0100
0001
0100
0000
0010
0000
2000
0000
0000
0000
3100
0000
MMMM
0000
0000
0000
,
0010
0001
0010
0000
0100
0000
2000
0000
0000
0000
3010
0000
MMMM
0000
0000
0000
,
0100
0010
0100
0000
0001
0000
0020
0000
0000
0000
0130
0000
MMMM
0000
0000
0000
,
1100
0010
1001
MMMM
,
0001
0100
0001
0000
1000
0000
0200
0000
0000
0000
0310
0000
MMMM
0000
0000
0000
,
0001
1000
0001
0000
0100
0000
0020
0000
0000
0000
1030
0000
MMMM
0000
0000
0000
,
1000
0100
1000
0000
0001
0000
0200
0000
0000
0000
0310
0000
MMMM
0000
0000
0000
,
0020
0000
0000
0000
0000
0000
0130
0010
,
1001
0000
1100
0100
0010
0000
1001
0000
,
0001
0100
0010
1000
0001
0000
MMMM
0000
,
1000
0100
0010
0001
0100
0010
0100
0001
,
0010
0100
1000
0001
0100
0000
0010
1000
,
1001
0000
0101
0100
0010
0000
1001
0000
,
1000
0100
0010
0001
1000
0000
0001
0000
,
1000
0100
0010
0100
0001
0100
0010
0001
,
0100
0000
0010
0000
1000
0000
0001
0000
0010
0000
0000
0010
0000
0000
0010
0000
,
0100
1000
0200
0000
0000
0000
1000
0000
0000
0000
0310
0000
MMMM
0000
1000
0000
,
0001
0100
0002
0000
1000
0000
1000
0000
0000
0000
0013
0000
MMMM
0000
0000
0000
,
1000
0100
0010
0100
1001
0000
0101
0100
,
0010
1000
0001
0010
0100
0000
MMMM
0000
,
2000
0000
3002
0000
0013
0010
0010
0100
,
1000
0000
0001
0000
0100
0000
MMMM
0000
0100
0000
0010
0000
1000
0001
0010
0000
,
0100
0000
0000
1000
0000
0000
0100
0000
0000
0010
0000
0000
0001
0000
0100
0000
,
0010
1000
0001
1000
0010
0100
0001
1000
,
0001
MMMM
MMMM
MMMM
,
1MMM
M1MM
MMM1
MM1M
,
200M
0M10
001M
3M10
,
0M02
0000
0000
0010
0000
0000
1000
0000
2003
0000
0010
0000
0000
3010
0000
0000
,
MMMM
1000
0100
0010
0100
0001
0100
0010
,
0001
0000
0000
0000
0001
0000
0001
0100
0000
0000
0010
0000
1000
0000
0001
0000
,
2000
3002
0023
0230
,
1300
0001
1000
0001
1000
0010
1000
0000
0100
0010
0000
0000
0001
0000
1000
0000
,
0002
0000
0000
0000
1003
0100
0010
0000
0100
0000
1000
0000
0001
0000
0100
0000
,
0010
0000
1000
0001
0010
0100
0000
0000
0010
0000
0001
0000
0100
0000
0010
0000
,
1000
0000
0100
0000
1000
0100
0000
0100
1000
0000
0010
0000
0200
0000
0000
0000
,
0301
0010
0100
1000
0010
0000
MMMM
0000
,
0001
0000
0010
0100
0000
0100
0000
0100
1000
0000
0010
0000
0100
0000
0001
0000
,
1000
0001
0010
0100
0000
1000
0010
0100
,
0001
0000
1000
0100
0000
0100
0000
0100
0010
0000
0001
0000
1000
0000
0001
0000
,
0020
0000
0000
0100
0000
0000
0130
0000
2000
0000
0000
0001
0000
0000
3001
0000
,
1001
0000
1100
0100
0010
0100
1000
0010
,
0100
0001
0010
0100
0010
0001
0100
0010
,
1001
0000
1100
0100
0010
0100
1000
0010
,
0100
0001
0001
0010
0001
0100
0010
1000
,
MMMM
0000
1000
0100
1000
0001
0100
0001
,
0010
0100
1000
0001
1000
0100
0010
0001
,
MMMM
0000
1000
0010
0100
0001
0010
0100
,
MMMM
0000
0000
MMMM
0000
0000
MMMM
0000
MMMM
0000
0000
MMMM
0000
0000
MMMM
0000
,
1000
0100
1000
0000
0010
0000
0100
0000
0001
0000
1000
0000
0001
0000
0100
0000
,
0010
0001
1000
0100
1000
0010
0100
0001
,
0010
0100
0010
0000
0001
0000
0100
0000
0010
0000
1000
0000
0001
0000
0010
0000
,
0001
1000
1000
0010
0100
0001
1000
0100
,
0010
0001
0010
0000
0100
0000
1000
0000
0001
0000
0100
0000
0001
0000
1000
0000
,
0010
1000
0100
1000
0010
0001
0010
1000
,
0001
0010
0001
0000
0100
0000
0010
0000
1000
0000
0010
0000
0100
0000
0001
0000
,
1000
0001
0010
0001
0010
1000
0010
0001
,
1001
MMMM
MMMM
MMMM
;
