#VERSION:0.83;
#TITLE:Apocaliptix;
#SUBTITLE:;
#ARTIST:Juggernaut.;
#TITLETRANSLIT:;
#SUBTITLETRANSLIT:;
#ARTISTTRANSLIT:;
#GENRE:;
#ORIGIN:;
#CREDIT:;
#BANNER:apocaliptix-bn.png;
#BACKGROUND:apocaliptix-bg.png;
#PREVIEWVID:;
#JACKET:apocaliptix-jacket.png;
#CDIMAGE:;
#DISCIMAGE:;
#LYRICSPATH:;
#CDTITLE:pecd.png;
#MUSIC:Apocaliptix.ogg;
#OFFSET:-0.020000;
#SAMPLESTART:86.870003;
#SAMPLELENGTH:8.500000;
#SELECTABLE:YES;
#BPMS:0.000=105.000,
36.000=210.000,
44.000=105.000,
45.000=210.000,
51.000=105.000,
52.000=210.000,
58.000=105.000,
59.000=210.000,
99.000=105.000,
100.000=210.000,
196.000=105.000,
228.000=210.000,
355.500=105.000;
#STOPS:73.000=0.140,
73.250=0.160,
80.000=0.140,
80.250=0.140,
95.000=0.140,
95.250=0.140,
96.000=0.140,
96.250=0.140,
355.500=0.440;
#DELAYS:;
#WARPS:;
#TIMESIGNATURES:0.000=4=4;
#TICKCOUNTS:0.000=4;
#COMBOS:0.000=1;
#SPEEDS:0.000=1.000=0.000=0;
#SCROLLS:0.000=1.000;
#FAKES:;
#LABELS:0.000=Song Start;
#BGCHANGES:;
#KEYSOUNDS:;
#ATTACKS:
;

//---------------dance-single - ----------------
#NOTEDATA:;
#CHARTNAME:;
#STEPSTYPE:dance-single;
#DESCRIPTION:;
#CHARTSTYLE:;
#DIFFICULTY:Beginner;
#METER:5;
#RADARVALUES:0.199093,0.243212,0.023228,0.147108,0.000000,180.000000,177.000000,3.000000,19.000000,0.000000,0.000000,0.000000,0.000000,0.000000,0.199093,0.243212,0.023228,0.147108,0.000000,180.000000,177.000000,3.000000,19.000000,0.000000,0.000000,0.000000,0.000000,0.000000;
#CREDIT:SHAYMIN;
#NOTES:
// measure 0
0000
0000
0000
0000
,  // measure 1
0000
0000
0000
0000
,  // measure 2
0000
0000
0000
0000
,  // measure 3
0000
0000
0000
0000
,  // measure 4
0010
0000
0100
0100
,  // measure 5
0100
0000
0010
0000
,  // measure 6
1000
0000
0001
0001
,  // measure 7
0001
0000
1000
0000
,  // measure 8
0001
0000
0000
0000
,  // measure 9
0020
0000
0000
0000
,  // measure 10
0000
0000
0030
0000
,  // measure 11
2000
3000
0000
1000
,  // measure 12
0000
1000
0000
0002
,  // measure 13
0003
0000
0001
0000
,  // measure 14
0001
0000
0020
0030
,  // measure 15
0000
0010
0000
0010
,  // measure 16
0000
0100
0000
0100
,  // measure 17
0000
0010
0000
0100
,  // measure 18
0000
0020
0030
0000
,  // measure 19
0010
0000
0010
0000
,  // measure 20
0200
0300
0000
0100
,  // measure 21
0000
0100
0000
0010
,  // measure 22
0000
0001
0000
0010
,  // measure 23
0000
0001
0000
2002
,  // measure 24
0000
3003
0000
1001
,  // measure 25
0001
0001
0000
0100
,  // measure 26
0000
0001
0000
0100
,  // measure 27
0000
0010
0000
1000
,  // measure 28
0000
0010
0000
1000
,  // measure 29
1000
1000
0000
0100
,  // measure 30
0000
0010
0000
0001
,  // measure 31
0000
1000
0000
0100
,  // measure 32
0000
0010
0000
0001
,  // measure 33
0001
0001
0000
0100
,  // measure 34
0000
0010
0000
0100
,  // measure 35
0000
0001
0000
0100
,  // measure 36
0000
0010
0000
0100
,  // measure 37
0100
0100
0000
0010
,  // measure 38
0000
1000
0000
0010
,  // measure 39
0010
0000
0100
0000
,  // measure 40
0010
0100
0010
0100
,  // measure 41
0010
0000
0000
0000
,  // measure 42
2000
0000
0000
3000
,  // measure 43
0001
0000
0001
0000
,  // measure 44
0001
0000
0001
0000
,  // measure 45
0010
0000
0000
0000
,  // measure 46
0200
0000
0000
0300
,  // measure 47
1000
0000
1000
0000
,  // measure 48
1000
0000
1000
0000
,  // measure 49
0010
0000
0000
0000
,  // measure 50
0000
0000
0000
0000
,  // measure 51
0100
0000
0010
0000
,  // measure 52
1000
0000
0001
0000
,  // measure 53
0010
0010
0001
0000
,  // measure 54
1000
1000
0100
0000
,  // measure 55
1000
0000
0010
0000
,  // measure 56
0100
0100
0001
0001
,  // measure 57
1000
0000
0100
0000
,  // measure 58
1000
0100
1000
0000
,  // measure 59
0001
0000
0100
0000
,  // measure 60
0001
0100
0001
0000
,  // measure 61
1000
0000
0001
0000
,  // measure 62
1000
0001
1000
0000
,  // measure 63
0001
0000
1000
0000
,  // measure 64
0001
1000
0001
0000
,  // measure 65
1000
1000
0000
1000
,  // measure 66
0000
1000
0000
1000
,  // measure 67
0001
0001
0000
0001
,  // measure 68
0000
0001
0000
0001
,  // measure 69
0010
0010
0000
0010
,  // measure 70
0100
0100
0000
0100
,  // measure 71
1000
0000
0001
0000
,  // measure 72
0020
0000
0000
0030
,  // measure 73
0200
0000
0000
0300
0000
0000
2000
0000
,  // measure 74
0000
3000
0000
0000
0010
0000
0000
0000
,  // measure 75
0002
0000
0000
0003
0000
0000
0010
0000
,  // measure 76
0010
0000
0100
0000
,  // measure 77
2000
0000
0000
3000
0000
0000
0002
0000
,  // measure 78
0000
0003
0000
0000
1000
0000
0000
0000
,  // measure 79
0002
0000
0000
0003
0000
0000
0100
0000
,  // measure 80
0100
0000
0010
0000
,  // measure 81
1000
0000
0100
0000
,  // measure 82
0010
0001
0010
0000
,  // measure 83
0001
0000
0100
0000
,  // measure 84
0010
1000
0010
0000
,  // measure 85
0100
0000
0001
0000
,  // measure 86
1000
0000
0001
0000
,  // measure 87
0100
0000
0010
0000
,  // measure 88
1000
0000
0001
0001
,  // measure 89
2002
0000
0000
3003
;

//---------------dance-single - ----------------
#NOTEDATA:;
#CHARTNAME:;
#STEPSTYPE:dance-single;
#DESCRIPTION:;
#CHARTSTYLE:;
#DIFFICULTY:Easy;
#METER:9;
#RADARVALUES:0.371641,0.451679,0.240018,0.247760,0.000000,336.000000,305.000000,31.000000,32.000000,0.000000,0.000000,0.000000,0.000000,0.000000,0.371641,0.451679,0.240018,0.247760,0.000000,336.000000,305.000000,31.000000,32.000000,0.000000,0.000000,0.000000,0.000000,0.000000;
#CREDIT:SHAYMIN;
#NOTES:
0000
0000
0000
0000
,
0000
0000
0000
0000
,
0000
0000
0000
0000
,
0000
0000
0000
0000
,
1000
1000
0200
0310
,
0002
0003
2000
3000
,
0001
0001
0200
0310
,
2000
3000
0002
0003
,
0020
0000
0000
0030
,
2002
0000
0000
0000
,
0000
0000
3003
0000
,
0220
0330
1000
0000
1000
0000
0001
0000
,
0001
0000
0010
0000
0100
0000
2002
3003
,
0010
0010
0100
0010
,
0100
0000
0010
0000
0220
0330
1000
0000
,
0100
0010
0001
1000
,
0100
0010
0001
1000
,
0010
0001
0010
1000
,
0001
2000
3001
0000
,
0001
1000
1001
0000
,
0020
0130
0000
0010
,
0100
0110
0000
1000
,
0100
0001
1000
0001
,
0100
1000
0001
2000
,
3002
0013
0100
0020
,
0031
0100
0010
1000
,
0001
1000
0010
0100
,
0010
1000
0001
0010
,
0001
0000
1000
0000
0010
0000
1000
0001
,
1000
0010
0100
0010
,
1000
0001
0010
0001
,
1000
0010
0100
0001
,
1000
0000
0100
0000
0010
0000
0001
1000
,
0001
0010
0010
0100
,
1000
0010
0010
1000
,
0001
1000
0100
1000
,
0001
0000
0100
0000
0010
0000
1000
0001
,
1000
0010
0100
0010
,
1000
1000
0001
0001
,
1000
0100
0010
0001
,
0100
0010
0100
0000
0010
0100
0010
0000
,
2000
0000
0000
3000
,
0001
0000
0000
0010
0000
0000
0100
0000
,
1000
0000
0000
1001
0000
0000
0001
0000
,
1000
0001
1000
0000
,
0002
0000
0000
0003
,
1000
0000
0000
0100
0000
0000
0010
0000
,
0001
0000
0000
1001
0000
0000
1000
0000
,
0001
1000
0001
0000
,
1000
0000
0000
0000
,
0100
0000
0000
0000
,
0010
0001
0010
0100
,
0010
0001
0100
0010
,
1000
0000
0000
1000
0001
0000
0001
0000
,
0010
0000
0000
0010
0001
0000
0001
0000
,
0100
0100
0100
0000
0010
0010
0010
0000
,
1000
0001
1000
0001
1000
0000
0010
0000
,
1000
0100
1000
0001
,
1000
0000
0010
0000
0100
0010
0100
0000
,
0001
0100
0001
1000
,
0001
0010
0100
0100
,
0010
0001
0010
0001
,
1000
0000
0100
0000
1000
0100
1000
0000
,
0010
1000
0010
1000
,
0001
0001
0100
0100
,
0010
1010
0000
1001
,
0001
0010
0001
1000
,
0010
0110
0000
0101
,
0001
0010
0100
1000
,
0010
0010
1000
1000
,
0001
0001
0100
0100
,
0010
1000
0100
0010
,
0001
0010
0100
1000
,
1001
0000
0000
1001
0000
0000
1001
0000
,
0000
1001
0000
0000
2002
0000
3003
0000
,
0110
0000
0000
0110
0000
0000
0110
0000
,
0100
0010
0220
0330
,
1001
0000
0000
0110
0000
0000
1001
0000
,
0000
0110
0000
0000
2002
0000
3003
0000
,
0110
0000
0000
1001
0000
0000
0110
0000
,
0010
0100
0220
0330
,
1000
0100
1000
0100
,
0001
0100
0001
0100
,
1000
0010
0100
0001
,
1000
0100
0010
0001
,
1000
0100
0010
0100
,
0001
0100
0010
0100
,
1000
0010
0100
0010
,
0001
0000
0010
0000
0100
0000
0010
0010
,
2002
0000
0000
3003
;

//---------------dance-single - ----------------
#NOTEDATA:;
#CHARTNAME:;
#STEPSTYPE:dance-single;
#DESCRIPTION:;
#CHARTSTYLE:;
#DIFFICULTY:Medium;
#METER:13;
#RADARVALUES:0.571840,0.625402,0.309701,0.263246,0.000000,517.000000,477.000000,40.000000,34.000000,4.000000,0.000000,0.000000,0.000000,0.000000,0.571840,0.625402,0.309701,0.263246,0.000000,517.000000,477.000000,40.000000,34.000000,4.000000,0.000000,0.000000,0.000000,0.000000;
#CREDIT:SHAYMIN;
#NOTES:
0000
0000
0000
0000
,
0000
0000
0000
0000
,
0000
0000
0000
0000
,
0000
0000
0000
0000
,
0010
0100
0001
0000
0010
0100
1000
0000
,
0020
0130
0002
1003
,
0100
0010
0001
0000
0100
0010
1000
0000
,
0200
0310
0002
1003
,
0020
0000
0100
0030
,
0100
0010
0100
0010
1000
0001
1000
0001
,
1000
0100
0010
0001
1000
1000
0001
0001
,
0020
0000
0130
1000
0100
0000
0010
0000
,
0100
1000
0100
0000
0010
0000
0002
0000
,
0103
0001
0100
0000
0010
0000
0100
0001
,
0100
0000
0010
0000
2000
0000
3001
0010
,
0001
0000
1000
0000
0001
0010
0001
0000
,
1000
0000
0010
0100
0010
0000
1000
0001
,
1000
0000
0010
0100
0001
1000
0010
0000
,
0100
0000
0000
0000
0020
0030
0010
0000
0100
0000
0000
0000
0001
0000
1000
0000
,
0000
1000
0001
0000
0100
0000
0010
0000
,
0200
0300
0100
0000
0010
0000
0000
0000
0100
0000
0010
0000
0000
0000
0010
0000
,
0100
0000
0001
0000
1000
0000
0001
0010
,
0100
0000
1000
0000
1000
0010
0100
0000
,
0001
1001
0010
0200
,
0320
0000
0130
0000
0010
0000
0220
0330
,
1000
0100
0010
0001
0000
0100
0010
1000
,
0000
0010
0100
0001
0000
1000
0100
1000
,
0001
1000
0010
0100
0000
0001
0010
0100
,
0000
1000
0010
0100
0010
1000
0001
0000
,
0010
0001
0100
0010
0000
1000
0100
0010
,
0000
0001
0100
0010
0000
1000
0100
0010
,
0100
1000
0001
0100
0000
0010
1000
0001
,
1000
0010
0100
0001
1000
0100
0020
0000
,
0031
0100
0001
0000
1000
0100
1000
0000
,
0010
0100
0001
0100
0010
1000
0001
0000
,
1000
0100
1000
0000
0001
0100
0001
0000
,
1000
0100
0010
0100
1000
0001
0100
0000
,
1000
0001
1000
0010
1000
0001
1000
0000
,
1000
0010
0100
0010
1000
0100
0010
0000
,
1000
0001
0010
0100
1000
0010
0100
0010
,
1000
0001
0010
0001
1000
0010
1000
0001
,
2002
0000
0000
0MM0
0000
0000
3003
0000
,
0020
0000
0000
0230
0000
0000
0320
0000
,
1030
0000
0000
1010
0000
0000
1001
0000
,
1000
0100
0010
0001
0000
0000
1000
0000
,
0220
0000
0000
M00M
0000
0000
0330
0000
,
0002
0000
0000
0023
0000
0000
0230
0000
,
1300
0000
0000
0110
0000
0000
0001
0000
,
1000
0100
0010
0001
1000
0010
0100
0001
,
2000
0000
0000
0000
,
3200
0000
0000
0000
,
0310
0001
0010
0100
0010
0000
0001
0000
,
0100
0010
1000
0010
0100
0000
1000
0000
,
0001
0010
0001
1000
1000
0010
1000
0001
,
0001
0100
0001
1000
1000
0100
1000
0001
,
1000
0010
0100
0001
1000
0100
0010
0001
,
0010
0100
1000
0010
0100
0001
1001
0000
,
1000
0000
0100
1000
0000
0001
0000
1000
,
0000
0010
0000
0100
0001
1000
0010
0100
,
0001
0000
1000
0100
0000
0010
0100
0010
,
0100
1000
0010
0100
0001
1000
0001
1000
,
0010
0000
0100
0001
0000
1000
0000
0001
,
0000
0010
0000
0100
1000
0001
0100
0010
,
1000
0001
1000
0010
0000
0010
0100
0010
,
1000
0001
0010
0001
1000
0010
2000
0000
,
3001
0000
0101
0000
0100
0010
0110
0000
,
0010
0000
1010
0000
1000
0001
1001
0000
,
1100
0000
0010
0100
0000
0001
0010
0001
,
0100
0010
1000
0001
0000
1000
0100
0010
,
0001
0100
0001
0100
0001
1000
0001
1000
,
0010
1000
0010
1000
0001
1000
0001
1000
,
0100
0010
0001
1000
0000
1010
0000
0110
,
0000
0101
0000
1100
0000
0001
0100
0010
,
0110
0000
0000
1001
0000
0000
1010
0000
,
0000
0101
0000
0000
1200
0000
0310
0000
,
0011
0000
0000
0101
0000
0000
1010
0000
,
1100
1010
0210
0301
,
1001
0000
0000
0110
0000
0000
1010
0000
,
0000
1001
0000
0000
0021
0000
0130
0000
,
1100
0000
0000
0110
0000
0000
0011
0000
,
0110
0110
2100
3010
,
0100
0001
0100
0010
0000
1000
0001
0000
,
0010
0001
0000
1000
0010
0100
0001
1000
,
0001
0100
0010
1000
0000
0001
0010
0100
,
1000
0010
1000
0100
0000
0001
0010
0001
,
0010
0001
0010
0001
1000
0010
1000
0010
,
0100
0001
0100
0001
1000
0100
1000
0100
,
1000
0010
0100
0001
1000
0100
0010
0100
,
1000
0001
0100
0010
1000
0001
0010
0100
,
2002
0000
0000
3003
;

//---------------dance-single - ----------------
#NOTEDATA:;
#CHARTNAME:;
#STEPSTYPE:dance-single;
#DESCRIPTION:;
#CHARTSTYLE:;
#DIFFICULTY:Hard;
#METER:16;
#RADARVALUES:0.752130,1.146570,0.402611,0.309701,0.317443,680.000000,628.000000,52.000000,40.000000,13.000000,1.000000,0.000000,0.000000,0.000000,0.752130,1.146570,0.402611,0.309701,0.317443,680.000000,628.000000,52.000000,40.000000,13.000000,1.000000,0.000000,0.000000,0.000000;
#CREDIT:SHAYMIN;
#NOTES:
0000
0000
0000
0000
,
0000
0000
0000
0000
,
0000
0000
0000
0000
,
0000
0000
0000
0000
,
2000
000M
3200
0320
,
0032
0100
2003
0100
,
3020
1000
0230
0302
,
2003
0010
3002
0010
,
0200
0000
1000
0303
,
0001
0010
0100
1000
0010
0100
0001
1000
,
0001
1000
0001
1000
0001
1000
0001
1000
0001
0000
0001
0000
1000
0000
1000
0000
,
0220
0330
1000
0100
0210
000M
1300
0010
,
0100
0000
0001
1000
0002
0000
0M00
0000
0010
0003
0000
0000
2200
0000
3300
0000
,
0001
0000
0100
0000
0210
0000
M000
0000
0301
1000
0001
0000
0010
0000
0100
1000
,
0200
000M
0310
0000
0022
0033
0110
0000
,
2100
0000
000M
0000
3010
0000
0100
0000
0001
0000
1000
0001
2000
0000
0M00
0000
,
3010
0000
1200
0000
0010
0000
1300
1000
,
1001
0000
0201
0000
0010
0310
0120
0000
,
1030
0000
0000
0000
1000
1000
1000
0000
0001
0000
0000
0000
1000
0000
0100
0000
,
0000
0000
0010
0001
0010
0000
0100
1000
0200
0000
0000
0000
0310
0000
0000
0000
,
0001
0001
0001
0000
1000
0000
0000
0000
0001
0000
0100
0000
0000
0000
0010
1000
,
0010
0000
0100
0001
0200
0000
0000
0000
0300
0000
0000
0000
0010
0000
1000
0000
,
1100
0000
0010
0001
0101
0000
1000
0001
,
0100
0000
0001
1000
0100
0000
1000
0000
0010
0000
0100
0000
0010
0010
0010
0000
,
0100
0100
0100
0000
0020
0000
0000
0000
0130
0000
0010
0100
0020
0000
0000
0000
,
1030
0000
0001
0000
0010
0001
0010
0000
0001
0000
1000
0000
0010
1000
0010
0000
,
0100
0000
0001
0000
1000
0100
1000
0000
0001
0000
0100
0000
1000
0000
0100
0000
,
0001
0000
0010
0000
0001
0010
0001
0000
1000
0000
0010
0000
1000
0010
1000
0000
,
0001
0000
0100
0000
0001
0100
0001
0000
1000
0000
0100
0000
0001
0000
0100
0000
,
1000
0000
0010
0000
0100
0010
1000
0000
0010
0000
0100
0000
0010
0100
0001
0000
,
1000
0000
0001
0000
1000
0001
0100
0000
0001
0000
1000
0000
0001
1000
0100
0000
,
1000
0010
0100
0010
1000
0001
0010
0001
,
0100
0000
0010
0000
1000
0000
0010
0000
0001
0000
0010
0000
0100
1000
0001
0100
,
0010
0000
1000
0000
0001
1000
0001
0000
0010
0000
0001
0000
1000
0001
1000
0000
,
0010
0000
0100
0000
0001
1000
0001
0000
0100
0000
0010
0000
1000
0001
1000
0000
,
0010
0000
1000
0000
0001
0010
0001
0000
0010
0000
0001
0000
1000
0010
1000
0000
,
0001
0100
0010
1000
0010
0100
0001
1000
,
0001
0000
0010
0000
0100
1000
0100
0000
1000
0000
0010
0000
0100
0001
0100
0000
,
0001
0000
0010
0000
0100
0010
0100
0000
1000
0000
0010
0000
0100
0010
0100
0000
,
0001
0010
0001
0100
0010
1000
0100
1000
,
0010
0100
0001
1000
0100
0001
0100
1000
,
0010
0000
0000
0010
0000
0000
0010
0000
0M0M
0010
0000
0000
0010
0000
0000
0000
,
1001
0000
0000
0010
0000
0000
0011
0000
0000
0100
0000
0000
1100
0000
0000
0000
,
0101
0000
0100
0010
0000
1000
0001
0000
,
0010
0100
1000
0001
0000
0100
0001
0000
,
0100
0000
0100
0100
M0M0
0100
0100
0000
,
1001
0000
0000
0100
0000
0000
1100
0000
0000
0010
0000
0000
0011
0000
0000
0000
,
1010
0000
0100
0001
0000
1000
0100
0000
,
0010
0001
0100
0010
1000
0001
0010
0000
,
2002
0000
0000
3000
,
0200
0000
0000
0000
0000
0000
0000
0303
,
2200
0000
0000
3000
,
0020
0000
0000
0000
0000
0000
0000
0330
,
0001
0000
1000
0100
1000
0001
1000
0000
0010
0000
0100
0001
0100
0010
0100
0000
,
0001
0000
0010
0100
1000
0010
0100
0000
0001
0000
1000
0100
0010
0001
0100
0000
,
0010
1000
0010
1000
0001
0100
0001
0100
0001
0010
0001
0010
0100
1000
0100
1000
,
0010
0100
0010
1000
0001
1000
0010
0100
0001
0010
0100
1000
0010
0100
0010
1000
,
0100
0000
0010
0001
0010
0000
0100
0000
1000
0000
0010
0000
0100
0000
0010
0000
,
1000
0000
0001
0000
0010
0000
0001
0000
1000
0010
1000
0001
1000
0000
0010
0000
,
0100
0000
0001
1000
0001
0000
0010
0000
0100
0000
0010
0000
0001
0000
0100
0000
,
0010
1000
0100
1100
0000
0101
0001
0100
,
0001
0000
1000
0100
1000
0000
0001
0000
1000
0000
0001
0000
0010
0000
0001
0000
,
0100
0000
0010
0000
1000
0000
0001
0000
0010
0001
0010
0100
0010
0000
0001
0000
,
0100
0000
0010
1000
0010
0000
0100
0000
0001
0000
0010
0000
0001
0000
1000
0000
,
0001
0000
0100
0000
0010
0000
1000
0000
0100
0000
0010
0000
0100
1000
0001
0100
,
0010
1000
0100
1000
0010
0100
0101
M000
,
0010
0001
0100
0001
0010
0100
1100
000M
,
0110
0100
1000
0010
0100
0010
1000
0001
,
0010
0010
0001
0100
0010
1000
0010
1000
,
0001
0001
0010
0001
1000
1000
0010
1000
,
0001
0100
0001
0100
1000
0100
1000
0100
,
0010
0100
0001
1000
0001
0100
0010
1000
,
0001
0010
0001
0100
0010
0100
0220
0330
,
0101
0000
0001
0011
0000
0010
0110
0000
,
0100
1100
0000
0100
0101
0000
1100
0000
,
1001
0000
0010
0110
0000
1000
1001
0000
,
0010
0100
0101
0000
0001
1000
1100
0000
,
0110
0000
0010
0011
0000
0001
0101
0000
,
0100
0110
0000
0010
1010
0000
0011
0000
,
1001
0000
0100
0110
0000
1000
1001
0001
,
1000
0100
1100
0000
0001
0100
0101
0000
,
1000
0100
1000
0010
0100
0001
1000
0001
,
0100
0010
1000
0001
0010
1000
0010
0001
,
0100
0010
0100
0001
0010
0001
0100
0010
,
1000
0001
1000
0100
1000
0010
0001
0010
,
1000
0100
0010
0100
1000
0010
0100
0010
,
1000
0001
0010
0001
1000
0001
0100
0001
,
1000
0100
0001
0100
1000
0010
0001
0010
,
1000
0000
0100
0000
0001
0000
1000
0000
0001
0100
0010
0000
1000
0100
0010
0000
,
2002
0000
0000
3003
;

//---------------dance-single - ----------------
#NOTEDATA:;
#CHARTNAME:;
#STEPSTYPE:dance-single;
#DESCRIPTION:;
#CHARTSTYLE:;
#DIFFICULTY:Challenge;
#METER:18;
#RADARVALUES:1.008739,1.702482,0.681341,0.317443,0.921359,912.000000,824.000000,88.000000,41.000000,27.000000,1.000000,0.000000,0.000000,0.000000,1.008739,1.702482,0.681341,0.317443,0.921359,912.000000,824.000000,88.000000,41.000000,27.000000,1.000000,0.000000,0.000000,0.000000;
#CREDIT:SHAYMIN;
#NOTES:
0000
0000
0000
0000
,
0000
0000
0000
0000
,
0000
0000
0000
0000
,
0000
0000
0000
0000
,
0020
0000
0000
0000
0100
0000
1000
0000
0230
0000
0301
0000
0020
0000
0031
1000
,
0002
0000
0200
0003
0010
0000
0310
1000
0020
0000
0000
0000
0130
0000
0001
1000
,
0002
0000
0010
0000
2003
0000
3010
0100
0002
0000
0100
0000
0010
0000
0103
0010
,
2000
0000
0100
0100
0000
3010
0100
0001
2000
0000
0000
0000
3200
0000
0000
0000
,
0020
0000
100M
0330
,
0010
0001
0010
0001
1000
0010
1000
0010
0100
0001
0100
0001
1000
0100
1000
0100
,
0010
0100
1000
0010
0100
0001
1000
0100
0010
0000
0001
0000
1000
0000
0010
0000
,
2002
3003
0120
1030
0210
0000
0301
1000
,
0100
0000
0010
0001
2000
0000
0M00
0000
3010
0000
0000
0000
0220
0000
0330
0000
,
0102
0000
1003
0000
0201
0000
0000
0000
0310
1000
0001
0010
0100
0000
M00M
0000
,
0210
000M
1300
0000
2200
3300
0102
0013
,
0201
0000
0310
0010
1000
0100
0210
000M
,
1300
0000
0000
0000
0201
0000
M000
0000
0310
0000
0010
0000
1000
0100
1000
0100
,
0010
0000
0001
0000
1000
0001
0100
0001
1000
0000
0100
0010
0002
0000
0M00
0000
,
1003
0000
0000
0000
1010
0011
1001
0000
0200
0000
0000
0000
0310
0000
1000
0000
,
0100
0010
0001
0010
0100
1000
0010
0100
0020
0000
000M
0000
1030
0000
0000
0000
,
0011
1010
1001
0000
0200
0000
0000
0000
0310
0000
1000
0000
0001
0010
0001
0100
,
0010
1000
0001
1000
0200
0000
000M
0000
0310
0000
0000
0000
1000
0000
0100
0000
,
1100
00M0
0001
0100
0101
M000
0010
1000
,
1100
0000
0010
0001
0020
0000
M000
0000
0130
0000
M00M
0000
1100
0101
1001
0000
,
0101
1100
1001
0000
0120
0000
0000
0000
0130
0000
0010
0100
0020
0000
0M0M
0000
,
1030
0000
0100
0000
0010
0001
0010
0100
0010
0000
0001
0000
0100
0010
1000
0010
,
0100
0000
0001
0000
1000
0100
1000
0001
1000
0000
0010
0000
0100
0010
0100
0000
,
0001
0000
0010
0000
0100
1000
0100
0010
0100
0000
1000
0000
0010
0100
0001
0100
,
0010
0000
1000
0000
0001
0010
0100
0010
0001
0000
0100
0000
0010
1000
0001
0000
,
1001
0000
1000
0000
0100
0010
0001
0000
0100
0000
0010
0000
0100
0010
1000
0000
,
0001
0000
1000
0000
0100
1000
0001
0000
0100
0000
0001
0000
1000
0100
0010
0000
,
0100
1000
0010
0000
0100
0000
0001
0000
0010
0001
0100
0000
0010
0000
0100
0000
,
0001
1000
0100
0000
1000
0001
0100
0000
0001
1000
0100
1000
0001
0100
0010
1000
,
0001
0000
1000
0000
0100
1000
0100
0010
0100
0000
1000
0000
0010
0100
0010
1000
,
0010
0000
0100
0000
0001
0010
0001
0100
0001
0000
1000
0000
0100
0010
0001
0000
,
1000
0000
0001
0000
0010
0100
1000
0100
0010
0000
0100
0000
1000
0010
0100
0001
,
1000
0000
0100
0000
0010
0001
0010
0100
1000
0000
0001
0000
0100
0010
1000
0000
,
1001
0000
0001
0000
0010
0100
1000
0000
0010
0000
0100
0000
0001
1000
0010
0000
,
0100
0000
0001
0000
0010
0100
1000
0000
0010
0100
0001
0000
1000
0100
0010
0000
,
0001
0100
0010
0000
0100
0000
0001
0000
1000
0100
0010
0000
0100
0000
1000
0000
,
0001
0010
0001
0000
1000
0010
0100
0001
1000
0000
0100
0000
0010
0001
1000
0000
,
1001
0000
0M00
1000
0000
00M0
0001
0000
0M00
1000
0000
00M0
0001
0000
0010
0001
,
0011
0000
0000
1100
0000
0000
1010
0000
0000
0101
0000
0000
0110
0000
1000
0001
,
1001
0100
0010
1010
1000
0001
1001
0000
,
1100
0000
0010
0001
1000
0001
0010
0000
0100
1000
0001
0100
0010
0000
1000
0001
,
1001
0M00
0001
00M0
1000
0M00
0001
00M0
1000
0M00
0001
00M0
1000
0000
0010
1000
,
1010
0000
0000
0101
0000
0000
0011
0000
0000
1100
0000
0000
0110
0000
1000
0001
,
1001
0010
0001
0011
0100
1000
1100
0000
,
0101
0000
0100
0010
1000
0010
0100
0001
1000
0001
0100
0000
0220
0000
0330
0000
,
1001
0000
0000
0000
,
0000
0000
0000
0000
,
1000
0000
0100
0010
0000
0100
0000
1000
0000
0010
0000
0100
0001
1000
0001
0100
,
0010
0000
1000
0001
0000
0010
0000
0001
0000
0100
0000
0010
1000
0100
0010
0001
,
1000
0010
1000
0001
1000
0000
1100
0000
0011
0001
1000
0001
0100
0000
0101
0000
,
1010
1000
0100
0010
0001
0000
1001
0000
0101
0100
0010
1000
0001
0000
1001
0000
,
1100
0100
0010
0001
0100
0100
0010
1000
1001
0001
0010
0001
1000
0010
1000
0001
,
1000
0100
1000
0100
0010
0001
0010
0001
1000
0010
1000
0010
0100
0001
0100
0001
1000
0100
0010
0001
0100
0010
1000
0001
1000
0010
0100
0001
1000
0000
0100
0000
,
0010
0001
1000
0001
0010
0000
0100
0000
1000
0000
0010
0100
0001
0000
1000
0100
,
0010
0000
0001
0100
0010
0000
1000
0100
0010
0001
0010
0100
1000
0000
0001
0000
,
0100
0010
1000
0000
0001
0000
1000
0010
0100
0000
0001
0000
1000
0100
0010
0001
,
0010
0100
1000
0010
0100
0001
0100
0010
,
1000
0001
0010
0001
1000
0000
0010
0000
0100
0000
0001
0010
0100
0000
1000
0010
,
0100
0000
0001
1000
0100
0000
0010
0001
1000
0010
0100
0001
1000
0000
0100
0000
,
0010
0001
1000
0000
0010
0000
0100
0001
1000
0000
0100
0000
0010
0001
0100
0010
,
1000
0010
0100
0001
0100
0010
0110
0010
,
1000
0100
1000
0000
1100
0000
1000
0000
0010
0100
0010
0000
0110
0000
0100
0000
,
0001
0100
0001
0000
0101
0000
0001
0000
1000
0100
1000
0000
1100
0000
1000
0000
,
0010
0100
0101
0001
0010
0100
0110
0100
,
1000
0100
0001
0100
1000
0010
0001
0010
,
1000
1000
0100
0001
0100
0100
1000
0010
,
0001
0001
0010
1000
0001
0010
1000
0010
,
0001
0100
0010
0100
0001
0010
0001
1000
,
0001
0100
0010
0000
1000
0100
0010
0000
0001
1000
0010
0000
1000
0001
0010
0100
,
1000
0000
1010
0110
0000
0110
0101
0000
,
0101
0000
1001
0000
0000
0000
1001
0000
1000
0100
0010
0001
1000
0010
0100
0001
,
0010
0000
0011
0110
0000
1100
1000
0001
,
0100
0000
0001
0000
1001
0000
1000
0000
0100
0010
0001
0010
0100
0010
0001
0010
,
0100
0000
1100
1010
0000
0101
0011
0000
,
0110
0000
1001
0000
0000
0000
0110
0000
0100
0001
1000
0001
0100
0001
0010
0100
,
1000
0010
0010
0001
0010
0010
1000
0100
,
0010
0000
0001
0000
0101
0000
0100
0000
0010
1000
0100
0010
0001
0100
0010
1000
,
0001
0000
0010
0000
0100
1000
0001
0000
0100
0000
0001
0000
0010
0100
1000
0000
,
0010
0000
0100
0000
0010
1000
0001
0000
0010
0000
0001
0000
0100
0010
1000
0000
,
0001
0000
1000
0000
0100
0010
0001
0000
0100
0000
0010
0000
1000
0001
0010
0000
,
0001
0000
1000
0000
0010
0100
0001
0000
1000
0000
0001
0000
0010
0100
1000
0000
,
0001
0000
0100
0000
0010
1000
0100
0000
1000
0000
0010
1000
0100
0000
1000
0000
,
0010
0100
0001
0000
0100
0000
0010
0100
0001
0000
0100
0000
0010
1000
0100
0010
,
0001
0000
1000
0000
0001
0010
0100
0000
1000
0000
0001
0100
0010
0000
1000
0000
,
0010
0000
0100
0000
0001
0000
1000
0000
0100
0000
0010
0000
0001
1000
0010
0000
,
2002
0000
0000
3003
;
