#VERSION:0.83;
#TITLE:Another Day;
#SUBTITLE:;
#ARTIST:61 Degrees;
#TITLETRANSLIT:;
#SUBTITLETRANSLIT:;
#ARTISTTRANSLIT:;
#GENRE:;
#ORIGIN:;
#CREDIT:;
#BANNER:another-day-bn.png;
#BACKGROUND:another-day-bg.png;
#PREVIEWVID:;
#JACKET:another-day-jacket.png;
#CDIMAGE:;
#DISCIMAGE:;
#LYRICSPATH:;
#CDTITLE:pecd.png;
#MUSIC:Another Day.ogg;
#OFFSET:0.000000;
#SAMPLESTART:51.200001;
#SAMPLELENGTH:12.000000;
#SELECTABLE:YES;
#BPMS:0.000=150.000;
#STOPS:;
#DELAYS:;
#WARPS:;
#TIMESIGNATURES:0.000=4=4;
#TICKCOUNTS:0.000=4;
#COMBOS:0.000=1;
#SPEEDS:0.000=1.000=0.000=0;
#SCROLLS:0.000=1.000;
#FAKES:;
#LABELS:0.000=Song Start;
#BGCHANGES:;
#KEYSOUNDS:;
#ATTACKS:
;

//---------------dance-single - ----------------
#NOTEDATA:;
#CHARTNAME:;
#STEPSTYPE:dance-single;
#DESCRIPTION:;
#CHARTSTYLE:;
#DIFFICULTY:Beginner;
#METER:1;
#RADARVALUES:0.103871,0.143980,0.043194,0.000000,0.000000,101.000000,95.000000,6.000000,0.000000,0.000000,0.000000,0.000000,0.000000,0.000000,0.103871,0.143980,0.043194,0.000000,0.000000,101.000000,95.000000,6.000000,0.000000,0.000000,0.000000,0.000000,0.000000,0.000000;
#CREDIT:SHAYMIN;
#NOTES:
// measure 0
0000
0000
0000
0000
,  // measure 1
0000
0000
0000
0000
,  // measure 2
0000
0000
0000
0000
,  // measure 3
0000
0000
0000
0000
,  // measure 4
0000
0000
0000
0000
,  // measure 5
0000
0000
0000
0000
,  // measure 6
0000
0000
0000
0000
,  // measure 7
0000
0000
0000
0000
,  // measure 8
0010
0000
0000
0000
,  // measure 9
0100
0000
0100
0000
,  // measure 10
0010
0000
0000
0000
,  // measure 11
0100
0000
0000
0000
,  // measure 12
0010
0000
0000
0000
,  // measure 13
0100
0000
0100
0000
,  // measure 14
0010
0000
0000
0000
,  // measure 15
0100
0000
0000
0000
,  // measure 16
1001
0000
0000
0000
,  // measure 17
0100
0000
0000
0000
,  // measure 18
0010
0000
0000
0000
,  // measure 19
0100
0000
0000
0000
,  // measure 20
0010
0000
0000
0000
,  // measure 21
0010
0000
0000
0000
,  // measure 22
0100
0000
0000
0000
,  // measure 23
0010
0000
0000
0000
,  // measure 24
1000
0000
1000
0000
,  // measure 25
1000
0000
0000
0000
,  // measure 26
0001
0000
0001
0000
,  // measure 27
0001
0000
0000
0000
,  // measure 28
1000
0000
0001
0000
,  // measure 29
1000
0000
0000
0000
,  // measure 30
0001
0000
1000
0000
,  // measure 31
0001
0000
0000
0000
,  // measure 32
0100
0000
0000
0000
,  // measure 33
0100
0000
0100
0000
,  // measure 34
0100
0000
0000
0000
,  // measure 35
0010
0000
0010
0000
,  // measure 36
0010
0000
0000
0000
,  // measure 37
0001
0000
0001
0000
,  // measure 38
0001
0000
0000
0000
,  // measure 39
1000
0000
1000
0000
,  // measure 40
1000
0000
0000
0000
,  // measure 41
0001
0000
0000
0000
,  // measure 42
0010
0000
0000
0000
,  // measure 43
0001
0000
0000
0000
,  // measure 44
0100
0000
0000
0000
,  // measure 45
0010
0000
0000
0000
,  // measure 46
1000
0000
0000
0000
,  // measure 47
0001
0000
0000
0000
,  // measure 48
1001
0000
0000
0000
,  // measure 49
0100
0000
0000
0000
,  // measure 50
1001
0000
0000
0000
,  // measure 51
0010
0000
0000
0000
,  // measure 52
1001
0000
0000
0000
,  // measure 53
0100
0000
0000
0000
,  // measure 54
1001
0000
0000
0000
,  // measure 55
0010
0000
0000
0000
,  // measure 56
0100
0000
0000
0000
,  // measure 57
0100
0000
0100
0000
,  // measure 58
1000
0000
0000
0000
,  // measure 59
1000
0000
1000
0000
,  // measure 60
0010
0000
0000
0000
,  // measure 61
0100
0000
0000
0000
,  // measure 62
0001
0000
1000
0000
,  // measure 63
0001
0000
1000
0000
,  // measure 64
0001
0000
0001
0000
,  // measure 65
0001
0000
0000
0000
,  // measure 66
1000
0000
1000
0000
,  // measure 67
1000
0000
0000
0000
,  // measure 68
0001
0000
1000
0000
,  // measure 69
0001
0000
0000
0000
,  // measure 70
1000
0000
0001
0000
,  // measure 71
1000
0000
0000
0000
,  // measure 72
0010
0000
0010
0000
,  // measure 73
0010
0000
0000
0000
,  // measure 74
0100
0000
0100
0000
,  // measure 75
0100
0000
0000
0000
,  // measure 76
0010
0000
0100
0000
,  // measure 77
0010
0000
0000
0000
,  // measure 78
0100
0000
0010
0000
,  // measure 79
0100
0000
0000
0000
,  // measure 80
1001
0000
0000
0000
;

//---------------dance-single - ----------------
#NOTEDATA:;
#CHARTNAME:;
#STEPSTYPE:dance-single;
#DESCRIPTION:;
#CHARTSTYLE:;
#DIFFICULTY:Easy;
#METER:5;
#RADARVALUES:0.209800,0.265643,0.028796,0.086388,0.000000,204.000000,200.000000,4.000000,12.000000,0.000000,0.000000,0.000000,0.000000,0.000000,0.209800,0.265643,0.028796,0.086388,0.000000,204.000000,200.000000,4.000000,12.000000,0.000000,0.000000,0.000000,0.000000,0.000000;
#CREDIT:SHAYMIN;
#NOTES:
0000
0000
0000
0000
,
0000
0000
0000
0000
,
0000
0000
0000
0000
,
0000
0000
0000
0000
,
0000
0000
0000
0000
,
0000
0000
0000
0000
,
0000
0000
0000
0000
,
0000
0000
0000
0000
,
1000
0000
0001
0000
,
1000
1000
1000
0000
,
0001
0000
1000
0000
,
0010
0100
0010
0000
,
0010
0000
0100
0000
,
0010
0010
0010
0000
,
0100
0000
0001
0000
,
1000
0001
1000
0000
,
0020
0000
0030
0000
,
0020
0000
0030
0000
,
0200
0000
0300
0000
,
0200
0000
0300
0000
,
2000
0000
3001
0000
,
0002
0000
1003
0000
,
0020
0000
0130
0000
,
0200
0000
0310
0000
,
1000
0001
0001
1000
,
0001
0000
0010
0000
,
0001
0001
0100
0100
,
0001
0000
1000
0000
,
0100
0010
0100
0010
,
0001
0010
0001
0010
,
0100
1000
0100
1000
,
0010
0100
0001
0000
,
1001
0000
1000
0000
,
0001
1000
0001
0000
,
0010
0000
0100
0000
,
1000
0100
1000
0000
,
0010
0000
1000
0000
,
0010
0100
0010
0000
,
0100
0000
0001
0000
,
0100
0010
0100
0000
,
0110
0000
1000
0000
,
0001
0001
1000
0000
,
0010
0000
1000
0000
,
0001
0001
1000
0000
,
0100
0010
0001
0000
,
0100
0010
1000
0000
,
0001
1000
0100
0000
,
1000
0001
0100
0000
,
0010
0000
0010
0000
,
0020
0000
0000
0030
0000
0000
0010
0000
,
0100
0000
0100
0000
,
0200
0000
0000
0300
0000
0000
1000
0000
,
0001
0100
0010
1000
,
0020
0000
0000
0030
0000
0000
0100
0000
,
0001
1000
0100
0010
,
0001
1000
0001
0000
,
1000
0000
1000
0000
,
0001
0100
0010
1000
,
0001
0000
0001
0000
,
1000
0100
0010
0001
,
1000
0000
1001
0000
,
0001
0000
1001
0000
,
0010
0100
0010
0100
,
0001
1000
0001
0000
,
1000
0100
1000
0001
,
1000
0000
0010
0000
,
0100
0001
0100
0010
,
0100
0000
0001
0000
,
0010
0100
1000
0001
,
0010
0000
0100
0000
,
0010
0001
0100
0010
,
1000
0000
0001
0000
,
1000
0100
1000
0001
,
1000
0010
1000
0000
,
0001
0100
0001
1000
,
0001
0010
0001
0000
,
0100
0010
0100
0010
,
1000
0010
1000
0010
,
0100
0001
0100
0001
,
1000
0100
0010
0001
,
2000
0000
0000
0000
,
0000
0000
0000
0000
,
3000
0000
0000
0000
;

//---------------dance-single - ----------------
#NOTEDATA:;
#CHARTNAME:;
#STEPSTYPE:dance-single;
#DESCRIPTION:;
#CHARTSTYLE:;
#DIFFICULTY:Medium;
#METER:8;
#RADARVALUES:0.382576,0.442739,0.179975,0.194373,0.000000,372.000000,347.000000,25.000000,27.000000,0.000000,0.000000,0.000000,0.000000,0.000000,0.382576,0.442739,0.179975,0.194373,0.000000,372.000000,347.000000,25.000000,27.000000,0.000000,0.000000,0.000000,0.000000,0.000000;
#CREDIT:SHAYMIN;
#NOTES:
0000
0000
0000
0000
,
0000
0000
0000
0000
,
0000
0000
0000
0000
,
0000
0000
0000
0000
,
0000
0000
0000
0000
,
0000
0000
0000
0000
,
0000
0000
0000
0000
,
0000
0000
0000
0000
,
0010
0100
0001
1000
,
0100
0000
0010
0000
0100
1000
0100
0000
,
0010
0001
1000
0010
,
0100
0010
0100
0000
,
0001
0010
0100
1000
,
0010
0000
0100
0000
0001
1000
0001
0000
,
0100
0010
1000
0100
,
0020
0032
2000
3003
,
0010
1000
0010
0000
0010
1000
0010
0000
,
0100
0001
0100
0000
0100
0001
0100
0000
,
0010
1000
0100
0001
,
0100
1000
0010
0001
,
0010
0001
0010
0000
0010
0001
0010
0000
,
0100
1000
0100
0000
0100
1000
0100
0000
,
1000
0001
1000
0000
0001
1000
0001
0000
,
0010
0100
0010
0000
0100
0000
0010
0000
,
0100
1001
0100
1001
,
0010
1001
0010
1001
,
1000
1100
0001
0101
,
1000
1010
1001
0011
,
0100
1000
0100
0000
0100
1000
0100
0000
,
0010
0001
0010
0000
0010
0001
0010
0000
,
0100
1000
0001
0000
0100
0001
1000
0000
,
0010
1000
0001
0100
0010
0000
0100
0000
,
0020
1030
0002
0013
,
0100
1000
0001
0000
0200
0000
0310
0000
,
2000
3001
0020
0130
,
0010
0001
1000
0000
0020
0000
0130
0000
,
0002
0013
0200
1300
,
0010
1000
0100
0000
0020
0000
0031
0000
,
0200
0310
2000
3001
,
1000
0100
0010
0000
0002
0000
0103
0000
,
1000
0100
1000
0001
1000
0000
0010
0000
,
0100
1001
0100
1001
,
0001
0100
0001
1000
0001
0000
0010
0000
,
0100
1001
0100
1001
,
0200
0310
2000
3001
,
0010
0100
1000
0000
0002
0000
0103
0000
,
0020
1030
0200
0310
,
0001
1000
0100
0000
0010
0001
1000
0010
,
0100
0000
0110
0000
,
1000
0100
0010
0001
0000
0001
0010
0100
,
1000
0000
1001
0000
,
0001
0100
0010
1000
0000
1000
0010
0100
,
0001
0000
1001
0000
,
1000
0001
0010
0100
0000
0100
0010
0001
,
1000
0010
0100
0001
,
1000
0100
0010
0001
1000
0000
0000
0000
,
0201
0000
0001
0000
,
0301
0000
1000
0000
0100
1000
0001
0000
,
1200
0000
1000
0000
,
1300
0000
0001
0000
1000
0001
0100
0000
,
0210
0000
0310
0000
1000
0001
0010
0000
,
0120
0000
0130
0000
1000
0001
0100
0000
,
1002
0103
2001
3010
,
1000
0100
0010
0001
1000
0000
0000
0000
,
1000
0100
0010
0100
1000
0000
0010
0000
,
0100
0000
0001
0000
1000
0001
1000
0000
,
0001
0010
0100
0010
0001
0000
0100
0000
,
0010
0100
0110
0000
,
1000
0001
0010
0001
1000
0000
0010
0000
,
0100
0000
0001
0000
1000
0100
1000
0000
,
0001
1000
0010
1000
0001
0000
1000
0000
,
0010
0100
0110
0000
,
1000
0001
1000
0000
1000
0001
1000
0000
,
0001
0000
0010
0000
0100
1000
0100
0000
,
0001
1000
0001
0000
0001
1000
0001
0000
,
0100
0010
0110
1000
,
0001
0100
0001
0000
1000
0100
1000
0000
,
0010
0000
1000
0000
0001
0010
0100
0000
,
1000
0001
0100
0000
0001
1000
0100
0000
,
0010
0001
0100
0010
1000
0100
0010
0001
,
2000
0000
0000
0000
,
0000
0000
0000
0000
,
3000
0000
0000
0000
;

//---------------dance-single - ----------------
#NOTEDATA:;
#CHARTNAME:;
#STEPSTYPE:dance-single;
#DESCRIPTION:;
#CHARTSTYLE:;
#DIFFICULTY:Hard;
#METER:12;
#RADARVALUES:0.519357,0.649351,0.266363,0.129582,0.097187,505.000000,468.000000,37.000000,18.000000,0.000000,0.000000,0.000000,0.000000,0.000000,0.519357,0.649351,0.266363,0.129582,0.097187,505.000000,468.000000,37.000000,18.000000,0.000000,0.000000,0.000000,0.000000,0.000000;
#CREDIT:SHAYMIN;
#NOTES:
0000
0000
0000
0000
,
0000
0000
0000
0000
,
0000
0000
0000
0000
,
0000
0000
0000
0000
,
0000
0000
0000
0000
,
0000
0000
0000
0000
,
0000
0000
0000
0000
,
0000
0000
0000
0000
,
1000
0100
0010
0000
0001
0100
0010
0000
,
2000
0000
3001
0000
0010
0100
1000
0001
,
0100
0010
1000
0000
0001
0010
0100
0000
,
1000
0001
1001
0100
,
0010
1000
0001
0000
0010
0001
1000
0000
,
0020
0000
0130
0000
0001
0010
0100
1000
,
0001
0100
0010
0000
1000
0100
0010
0000
,
0110
1001
0220
0330
,
1000
1000
0100
0100
1000
1000
0100
0100
,
1000
1000
0001
0001
1000
1000
0001
0001
,
0010
0010
0001
0001
0010
0010
0001
0001
,
1000
1000
0100
0100
0010
0010
0001
0001
,
1000
0100
1000
0100
0010
0100
0010
0100
,
0010
0001
0010
0001
1000
0001
1000
0001
,
0100
0001
0100
0001
1000
0100
1000
0100
,
0010
0001
0100
0010
1000
0100
0010
0000
,
0100
0000
1001
0000
0100
0010
1000
0000
,
0100
0000
1001
0000
0100
0010
0001
0000
,
1000
0000
1010
0000
0001
0100
0010
0000
,
1000
1100
1001
0101
,
0001
0001
0100
0100
0001
0001
1000
1000
,
0100
0100
1000
1000
0001
0001
1000
1000
,
0100
0010
0100
0010
0001
0010
0001
0010
,
0100
1000
0100
1000
0001
0100
0010
0000
,
1000
1001
0001
1001
,
0001
0100
0010
1000
0002
0000
0013
0000
,
0100
0110
0010
0110
,
0100
1000
0010
0100
0002
0000
1003
0100
,
0010
0011
0100
1100
,
0001
0100
0010
1000
0002
0000
1003
0000
,
0100
1100
0010
0011
,
0100
1000
0010
0100
0002
0000
0013
0000
,
0100
1000
0100
0000
1000
0100
1000
0000
0020
0000
0000
0000
0130
0000
0000
0000
,
0001
1000
0100
1000
0002
0000
0103
0000
,
0010
1000
0010
0000
1000
0010
1000
0000
0020
0000
0000
0000
0130
0000
0000
0000
,
1000
0001
0100
0001
2000
0000
3100
0000
,
0010
1001
0100
1001
,
0100
0010
1000
0001
0020
0000
0130
0000
,
1000
1010
0001
0011
,
0100
1000
0001
0100
0020
0000
0030
0000
,
1000
0100
0000
0000
0010
0000
0000
0000
0001
0000
0000
0000
0100
0010
0100
0000
,
0001
1000
0100
1000
0000
0001
0000
0000
,
0100
0010
0000
0000
1000
0000
0000
0000
0001
0000
0000
0000
0010
0100
0010
0000
,
0001
0000
0100
0000
0010
0000
1000
0000
0000
0000
0100
0000
0010
0100
0010
0000
,
0001
1000
0000
0000
0010
0000
0000
0000
0100
0000
0000
0000
0001
1000
0001
0000
,
0010
0000
0100
0000
1000
0000
0010
0000
0000
0000
0100
0000
0000
0010
0100
0000
,
0001
1000
0000
0000
0100
1000
0100
0000
0010
0001
0000
0000
0100
0001
0100
0000
,
0010
0000
1000
0001
0010
0000
0001
1000
0010
0000
0000
0000
0000
0000
0000
0000
,
0101
0100
1100
0100
,
0101
0000
1100
0000
0001
0100
0010
0000
,
1010
0010
0011
0010
,
1010
0000
0011
0000
0010
0001
0100
0000
,
0101
0000
0100
0000
0010
1000
0100
0000
,
1100
0000
0100
0000
0010
0001
0100
0000
,
0101
0010
1100
0010
,
0101
0100
0110
0010
1001
0000
0000
0000
,
1000
1000
0100
0100
1000
1000
0100
0100
,
0010
0001
0010
0001
1000
0100
1000
0100
,
0010
0010
0001
0001
0010
0010
0001
0001
,
1000
0100
0010
0001
2000
0000
3001
0000
,
0100
0100
0010
0010
0100
0100
0010
0010
,
1000
0001
1000
0001
0010
0001
0010
0001
,
1000
1000
0010
0010
0100
0100
0001
0001
,
1000
0100
0010
0001
2000
0000
3001
0000
,
0010
1000
0010
0000
1000
0010
1000
0000
0010
0000
0100
0000
0001
0000
0000
0000
,
1000
0100
0010
0001
1000
0010
0100
0000
,
0001
0100
0001
0000
0100
0001
0100
0000
0010
0000
1000
0000
0100
0000
0000
0000
,
0010
0001
1000
0010
0200
0000
0310
0000
,
1000
1000
0001
0001
0010
0010
0001
0001
,
1000
0010
0100
0001
1000
0100
0010
0001
,
1000
0001
1000
0001
0010
0100
0010
0100
,
1000
0100
1000
0000
0001
1000
0001
0000
0100
0001
0100
0000
0010
0100
0010
0100
,
0020
0000
0000
0000
,
0000
0000
0000
0000
,
0030
0000
0000
0000
;

//---------------dance-single - ----------------
#NOTEDATA:;
#CHARTNAME:;
#STEPSTYPE:dance-single;
#DESCRIPTION:;
#CHARTSTYLE:;
#DIFFICULTY:Challenge;
#METER:15;
#RADARVALUES:0.767209,0.974026,0.482334,0.172776,0.622714,746.000000,679.000000,67.000000,24.000000,8.000000,0.000000,0.000000,0.000000,0.000000,0.767209,0.974026,0.482334,0.172776,0.622714,746.000000,679.000000,67.000000,24.000000,8.000000,0.000000,0.000000,0.000000,0.000000;
#CREDIT:SHAYMIN;
#NOTES:
0000
0000
0000
0000
,
0000
0000
0000
0000
,
0000
0000
0000
0000
,
0000
0000
0000
0000
,
0000
0000
0000
0000
,
0000
0000
0000
0000
,
0000
0000
0000
0000
,
0000
0000
0000
0000
,
0100
0000
0010
0000
1000
0000
0001
0000
0010
0100
1000
0000
0100
0000
0010
0100
,
1000
0001
0100
0000
0001
0000
1000
0000
0100
0010
0001
0000
1000
0000
0001
0000
,
0010
0000
0100
0000
1000
0000
0010
0000
0100
0001
0010
0000
0001
0000
0100
0001
,
0010
0100
1000
0010
0120
0000
1030
0000
,
0001
0000
0010
0000
0100
0000
1000
0000
0001
1000
0100
0000
1000
0000
0001
1000
,
0100
0010
0001
0000
0100
0000
0010
0000
1000
0001
0100
0000
0001
0000
1000
0000
,
0100
0010
0001
0000
0100
0000
0010
0000
0100
0010
1000
0000
0001
0000
1000
0000
,
0100
0010
0100
0010
0001
1000
0001
1000
0010
1000
0010
1000
0001
0100
0010
1000
,
0001
0100
0001
0000
0100
0001
0100
0000
0001
0100
0001
0000
0100
0001
0100
0000
,
0010
1000
0010
0000
1000
0010
1000
0000
0010
1000
0010
0000
1000
0010
1000
0000
,
0001
0100
0001
0000
1000
0100
1000
0000
0001
0100
0001
0000
1000
0100
1000
0000
,
0001
0010
0001
0000
1000
0010
1000
0000
0001
0010
0100
0000
1000
0010
0100
0000
,
0001
0100
0001
0000
0001
0100
0001
0000
0001
1000
0001
0000
0001
0010
0001
0000
,
1000
0100
1000
0000
1000
0100
1000
0000
1000
0001
1000
0000
1000
0010
1000
0000
,
0001
0100
0010
0000
1000
0100
0010
0000
0001
0100
0010
0000
1000
0100
0010
0000
,
0001
0100
0010
0000
1000
0100
0010
0001
0100
0010
1000
0001
0010
0000
0000
0000
,
1000
0100
1000
0000
1100
0000
1000
0000
0010
0100
0001
0000
0101
0000
0001
0000
,
0010
0100
1000
0000
1100
0000
1000
0000
0010
0100
0010
0000
0110
0000
0010
0000
,
1000
0001
0010
0000
0011
0000
0010
0000
0001
1000
0010
0000
1010
0000
0010
0000
,
0100
0001
1000
0000
1100
0000
0100
0000
0010
0001
1000
0000
0010
1000
0001
0000
,
0010
0001
0010
0000
0001
0010
0001
0000
0010
0100
0010
0000
0100
1000
0100
0000
,
1000
0010
1000
0000
0010
1000
0010
0000
0100
0010
0100
0000
0001
0100
0001
0000
,
1000
0100
0010
0000
0001
0100
0010
0000
1000
0100
0010
0000
0001
0100
0010
0000
,
1000
0100
0010
0000
0001
0100
0010
1000
0100
0010
0001
0100
0010
0000
0000
0000
,
2100
3001
0012
1003
,
0001
0100
1000
0000
1200
0000
0310
0000
,
0210
0301
2001
3100
,
1000
0010
0001
0000
0021
0000
0130
0001
,
1001
1000
1100
0000
1001
0001
0011
0000
,
1100
1000
1001
0001
0021
0000
0130
0000
,
1100
1000
1010
0000
0101
0001
0011
0000
,
1100
1000
1010
0010
0110
0100
0101
1001
,
1000
0100
0010
0000
0011
0000
0000
0000
0001
0100
0010
0000
1010
0000
0000
0000
,
1000
0100
0011
0001
2001
0000
3100
0000
,
0001
0100
0010
0000
1010
0000
0000
0000
1000
0100
0010
0000
0011
0000
0000
0000
,
0001
0100
1010
1000
2001
0000
3100
0010
,
0001
0100
0001
0000
0010
0000
0100
0000
1000
0000
0010
0000
1010
0000
1000
0000
,
0100
0010
0001
0000
0100
0000
0001
0000
0010
0000
0100
0000
1100
0000
1000
0000
,
0001
0100
0010
0000
1000
0000
0001
0000
1000
0010
0100
0000
0001
0000
1000
0000
,
0100
0010
0001
0100
0010
0100
0001
0010
0100
1000
0010
0100
0010
1000
0100
0010
,
0001
0100
0000
0000
1200
0000
0000
0000
0310
0000
0000
0000
0001
1000
0001
0000
,
0010
0100
1000
1020
0000
0130
MMMM
0000
,
1000
0100
0000
0000
0201
0000
0000
0000
0310
0000
0000
0000
1000
0001
1000
0000
,
0010
0000
0100
0000
0001
0000
0102
0000
0000
0000
0013
0000
0100
1000
0001
0000
,
1000
0100
0000
0000
0110
0000
0000
0000
1001
0000
0000
0000
0001
0100
0010
0000
,
1000
0000
0001
0000
1000
0000
0120
0000
0000
0000
1030
0000
0001
0010
0100
0000
,
1000
0100
0000
0000
0010
0001
0010
0000
0100
1000
0000
0000
0001
0010
0001
0000
,
1000
0000
0010
0100
0001
0000
0010
0100
1000
0000
0000
0000
MMMM
0000
0000
0000
,
1200
0310
0201
0310
,
0110
0000
0000
0000
1001
0000
0000
0000
0001
0000
0100
0000
0010
1000
0010
0000
,
1020
0130
0021
0130
,
0110
0000
0000
0000
1001
0000
0000
0000
1000
0000
0100
0000
0010
0001
0010
0000
,
0012
0000
0000
0000
0103
0000
0000
0000
0010
0000
1000
0000
0100
1000
0010
0000
,
2010
0000
0000
0000
3100
0000
0000
0000
0010
0000
0001
0000
0100
0001
0010
0000
,
0012
0000
0103
0100
2010
0000
3100
0100
,
0011
1100
1010
0101
0110
0000
1001
0000
,
1000
0100
1000
0000
0001
0100
0001
0000
1000
0010
1000
0000
0001
0010
0001
0000
,
1000
0100
0010
0000
0001
0100
0010
0000
1000
0000
0010
0000
0100
0000
0001
0000
,
0100
0010
0100
0000
0001
1000
0001
0000
0010
0001
0010
0000
0100
1000
0100
0000
,
0010
0001
0100
0010
1000
0010
0110
0000
,
0010
1000
0010
0000
0100
0001
0100
0000
0010
1000
0010
0000
0100
0001
0100
0000
,
0010
1000
0001
0000
0010
0001
1000
0000
0010
0000
0100
0000
0001
0000
0100
0000
,
0010
1000
0100
0000
0010
0001
0100
0000
0010
1000
0001
0000
0010
0001
1000
0000
,
0010
0100
0001
0100
0010
1000
1001
0000
,
1000
0100
1000
0000
1000
0100
1000
0000
0001
0100
0001
0000
0001
0100
0001
0000
,
1000
0010
1000
0000
0001
0010
0001
0000
1000
0010
0100
0000
0001
0010
0100
0000
,
1000
0001
1000
0000
1000
0001
1000
0000
0001
1000
0001
0000
0001
1000
0001
0000
,
0010
0100
1000
0000
0010
0100
0001
0000
1000
0100
0010
0000
0001
0100
0010
0000
,
1000
0100
1000
0000
0010
1000
0010
0000
0100
0001
0100
0000
0001
0010
0001
0000
,
0010
0100
1000
0000
0010
0100
0001
0000
1000
0100
0010
0000
0001
0100
0010
0000
,
1000
0001
1000
0001
0010
0001
0010
0001
1000
0010
1000
0010
0100
0001
0100
0001
,
1000
0100
0010
0001
0100
0010
1000
0100
0010
0001
0100
0010
1000
0100
0010
0001
,
0020
0000
0000
0000
,
0000
0000
0000
0000
,
0030
0000
0000
0000
;
