#TITLE:Rainbow Resort;
#SUBTITLE:Kirby's Adventure;
#ARTIST:Jun Ishikawa;
#TITLETRANSLIT:;
#SUBTITLETRANSLIT:;
#ARTISTTRANSLIT:;
#CREDIT:Pandemonium X;
#BANNER:bn.png;
#BACKGROUND:bg.png;
#LYRICSPATH:;
#CDTITLE:;
#MUSIC:Kirby's Adventure Music Rainbow Resort.ogg;
#OFFSET:0.360;
#SAMPLESTART:9.840;
#SAMPLELENGTH:12.000;
#SELECTABLE:YES;
#BPMS:0.000=163.900;
#STOPS:;
#BGCHANGES:;

//---------------dance-single - For NES simfile Coll----------------
#NOTES:
     dance-single:
     For NES simfile Coll:
     Hard:
     8:
     0.500,0.559,0.138,0.299,0.069:
0000
0000
0000
0000
,
0000
0000
0000
0000
,
0000
0000
0000
0000
,
0000
0000
0000
0000
,
1000
1000
0001
0001
,
0010
0001
1000
0100
,
0001
0100
0010
1000
,
2000
0000
0000
0000
3001
0100
0020
0000
,
0130
0000
1000
0000
1001
0000
0001
0100
,
0020
0200
0000
0330
,
0002
0000
0010
0000
0103
0001
0200
0000
,
0310
0000
1000
0000
1002
0000
0000
1000
,
1003
0002
1000
0013
,
0011
0000
0000
0000
0001
1000
1001
0000
,
0001
0000
0010
0000
0011
0000
0000
1000
,
0100
0011
0000
0000
,
1001
0000
0000
0000
1000
0001
0100
0000
,
0010
0000
1000
0000
1100
0000
0000
0001
,
0010
1200
1000
1300
,
1000
0001
0100
0010
0001
0010
0100
1000
,
0100
0001
1000
0001
0100
0010
0100
0010
,
0001
0010
0001
1000
0100
0010
0100
1000
,
0001
0100
0001
0010
0001
0010
0100
0010
,
1000
0010
1000
0001
0010
0100
1000
0001
,
0100
1000
0001
0100
0001
0010
0001
0100
,
0002
0000
0003
0000
0001
1000
0200
0000
,
0300
1001
0200
0010
,
0001
0020
0330
0002
,
0100
0003
2000
0100
,
0100
3100
0002
0000
,
0003
0000
1000
0100
0010
0001
0100
0010
,
1000
0000
0001
0100
0001
0010
0100
0000
,
1000
0001
0100
0001
1000
0000
1000
0001
,
0100
0001
0200
0000
0010
0000
0310
0000
,
2000
0000
3001
0100
0010
0100
0010
0000
,
1000
0001
0100
0100
0010
0000
0001
1000
,
0100
0000
0000
0000
0100
0000
0000
0000
0020
0000
0000
0000
0000
0000
0000
0000
0001
0000
0000
0000
0000
0000
0000
0000
0031
0000
0000
0000
0000
0000
0000
0001
,
0010
0000
0000
0000
0000
0000
0000
0000
0000
0000
0000
0000
0000
0000
0000
0000
1000
0000
0000
0000
0001
0000
0000
0000
0100
0000
0000
0000
0000
0000
0000
0010
,
0100
0000
0000
0000
0000
0000
0000
1000
0100
0000
0000
0000
0000
0000
0000
0100
0001
0000
0000
0000
0000
0000
0000
0000
0000
0000
0000
0000
0001
0000
0000
0000
,
1000
0000
0000
0000
0000
0000
0000
0100
1000
0000
0000
0000
0000
0000
0000
0000
0000
0000
0000
0000
0000
0000
0000
0000
0000
0000
0000
0000
0000
0000
0000
0001
,
0100
0000
0000
0000
0000
0000
0000
0000
0000
0000
0000
0000
0000
0000
0000
0000
0010
0000
0000
0000
1000
0000
0000
0000
0100
0000
0000
0000
0000
0000
0000
0001
,
0010
0000
0000
0000
0000
0000
0000
0010
0100
0000
0000
0000
0000
0000
0000
0100
1000
0000
0000
0000
0000
0000
0000
0000
0000
0000
0000
0001
0100
0000
0000
0100
,
0001
0000
0000
0000
0000
0000
0000
0001
1000
0000
0000
0000
0000
0000
0000
0000
0000
0000
0000
0000
0000
0000
0000
0000
0000
0000
0000
0000
0000
0000
0000
0000
,
1000
0100
0010
0100
1000
0100
0010
0001
,
0010
0100
0010
0001
0010
0100
0010
1000
,
0001
0100
0001
1000
0001
0010
0001
0100
,
0001
0010
0100
1000
0100
0010
0100
1000
,
0001
1000
0100
1000
0010
0001
0100
0001
,
0010
0100
1000
1000
0001
0001
0100
0010
,
2000
0000
0000
0000
0100
3100
0200
0000
,
0000
1300
1010
0010
,
0110
0002
0000
0010
,
0023
0000
0032
0103
,
0001
0100
0020
0000
,
0000
0000
1030
1000
0010
0100
0001
1000
,
0002
0000
0000
0000
,
0000
0000
0000
0000
,
0000
0003
0000
0000
;

//---------------dance-single - ----------------
#NOTES:
     dance-single:
     :
     Medium:
     5:
     0.358,0.427,0.184,0.471,0.000:
0000
0000
0000
0000
,
0000
0000
0000
0000
,
0000
0000
0000
0000
,
0000
0000
0000
0000
,
0001
1000
0001
0100
,
0001
0010
0001
0010
,
0100
0010
0100
0010
,
2000
0000
0000
0000
3001
0100
0001
0000
,
0100
0000
0010
0000
1000
0000
0000
0001
,
0200
0020
0000
0330
,
1001
0000
0000
0000
0001
0100
0001
0000
,
0100
0000
0010
0000
1000
0000
0000
0100
,
1000
0100
0000
0000
,
1100
0000
0000
0000
0001
0100
0010
0000
,
0100
0000
0010
0000
1000
0000
0000
0001
,
0100
0110
0000
0000
,
1000
0000
0000
0000
0001
1000
0001
0000
,
0100
0000
0010
0000
1000
0000
0000
1000
,
0100
1100
0000
0000
,
2000
0000
0000
0000
3001
0010
0200
0000
,
0300
0010
2000
3100
,
0020
0001
0000
0032
,
0103
0000
0010
1000
,
0010
0100
0002
0000
,
0000
0200
0000
0303
,
1002
0000
0000
0000
1003
0001
0200
0000
,
0000
0310
0020
1030
,
0200
1000
0000
1000
,
2300
0000
3020
0130
,
0010
1000
0002
0000
,
0000
0200
0000
0303
,
0002
0000
0000
0000
1003
0001
0100
0000
,
0010
0000
1000
0000
0020
0000
0000
0130
,
0010
2002
0000
3003
,
0002
0000
0000
0000
1003
0001
0100
0000
,
0010
0000
1000
0000
0010
0000
0000
0100
,
0010
0220
0000
0330
,
1001
0000
0000
0000
1000
1000
0001
0000
,
0100
0000
0010
0000
1000
0000
0000
0100
,
1000
0100
0000
0000
,
0011
0000
0000
0000
0001
0100
0001
0000
,
0010
0000
0100
0000
0010
0000
0000
0010
,
0100
0001
0000
0000
,
2000
0000
0000
0000
3001
0100
0020
0000
,
0000
0130
0110
0110
,
1001
2002
3003
0002
,
0200
0303
0020
1000
,
1000
1000
2030
0000
,
0000
0200
0000
3300
,
1020
0000
0000
0000
1030
0010
0200
0000
,
0000
0310
0110
0010
,
1010
0020
0000
0130
,
0002
0000
1003
0001
,
0100
0010
2000
0000
,
0000
0200
0000
3300
,
0002
0000
0000
0000
,
0000
0000
0000
0000
,
0000
0003
0000
0000
;

//---------------dance-single - ----------------
#NOTES:
     dance-single:
     :
     Easy:
     3:
     0.263,0.284,0.034,0.184,0.000:
0000
0000
0000
0000
,
0000
0000
0000
0000
,
0000
0000
0000
0000
,
0000
0000
0000
0000
,
1000
0001
1000
0001
,
1000
0001
1000
0001
,
1000
0001
1000
0001
,
0200
0000
0001
0301
,
1000
0100
1000
0000
,
0010
1000
0000
0000
,
2000
3000
0001
0100
,
0010
1000
0010
0000
,
0100
0100
0000
0000
,
1001
0000
0001
0100
,
0001
0000
0010
0000
0001
0000
0000
1000
,
0100
1000
0000
0000
,
0010
0000
1000
0001
,
0100
0000
0010
0000
1000
0000
0000
0001
,
0100
0001
0000
0000
,
2000
0000
0000
3002
,
0000
0000
0203
0000
,
0000
0302
0000
0000
,
0023
0000
0000
0031
,
0000
1000
0002
0000
,
0000
0103
0000
0000
,
1000
0000
0000
0000
0001
1000
0001
0000
,
0000
1000
0100
1000
,
0100
1000
0000
0010
,
0100
0000
0001
1000
,
0001
0100
0010
0000
,
0000
2000
0000
3000
,
0001
0000
0000
0000
1000
0001
0100
0000
,
0100
0000
0010
0000
1000
0000
0000
0010
,
1000
0001
0000
0000
,
1000
0000
0000
0000
0001
0100
0001
0000
,
0100
0001
0010
0000
,
0001
0100
0000
0000
,
1010
0000
1000
1000
,
0001
0100
0010
0000
,
1000
0100
0000
0000
,
1000
0000
0001
0100
,
0001
0010
0001
0000
,
1000
0100
0000
0000
,
2000
0000
0000
0000
3001
1000
0002
0000
,
0000
0103
0010
0001
,
0010
0002
0000
0103
,
0100
0000
0010
1000
,
0100
1000
0020
0000
,
0000
2000
0000
3030
,
1010
0000
0000
0000
0001
1000
0001
0000
,
0000
0100
0010
1000
,
0100
0010
0000
0001
,
0001
0000
1000
0001
,
0100
0010
2000
0000
,
0000
0200
0000
0000
,
3300
0000
0000
0000
;

//---------------dance-single - ----------------
#NOTES:
     dance-single:
     :
     Beginner:
     1:
     0.077,0.126,0.023,0.000,0.000:
0000
0000
0000
0000
,
0000
0000
0000
0000
,
0000
0000
0000
0000
,
0000
0000
0000
0000
,
1000
0000
0000
0000
,
0000
0000
0000
0000
,
0000
0000
0000
0000
,
0001
0000
0000
0000
,
0000
0000
0100
0000
,
0000
0100
0000
0000
,
0010
0000
0000
0000
,
0000
0000
1000
0000
,
0000
1000
0000
0000
,
0001
0000
0000
0000
,
0000
0000
0001
0000
,
0001
0001
0000
0000
,
0100
0000
0000
0000
,
0000
0000
0100
0000
,
0000
0100
0000
0000
,
1000
0000
0000
0000
,
0000
0000
0001
0000
,
0000
0000
0000
0000
,
0100
0000
0000
0000
,
0000
0000
0010
0000
,
0000
0010
0000
0000
,
1000
0000
0000
0000
,
0000
0000
0001
0000
,
0000
0000
0000
0000
,
0100
0000
0000
0000
,
0000
0000
0010
0000
,
0000
0010
0000
0000
,
1000
0000
0000
0000
,
0000
0000
0000
0000
,
0000
0000
0000
0000
,
0001
0000
0000
0000
,
0000
0000
0000
0000
,
0000
0000
0000
0000
,
1001
0000
0000
0000
,
0000
0000
0000
0000
,
0000
0000
0000
0000
,
0110
0000
0000
0000
,
0000
0000
1000
0000
,
0001
0001
0000
0000
,
0100
0000
0000
0010
,
0000
0000
0100
0000
,
0000
0100
0000
0000
,
0010
0000
0000
1000
,
0000
0000
0001
0000
,
0000
0001
0000
0000
,
1000
0000
0000
0000
,
0000
0000
0001
0000
,
0000
0000
0000
0000
,
0100
0000
0000
0000
,
0000
0000
0010
0000
,
0000
1000
0000
0000
,
0001
0000
0000
0000
;

//---------------dance-double - ----------------
#NOTES:
     dance-double:
     :
     Challenge:
     7:
     0.443,0.537,0.368,0.356,0.000: // measure 1
00000000
00000000
00000000
00000000
,  // measure 2
00000000
00000000
00000000
00000000
,  // measure 3
00000000
00000000
00000000
00000000
,  // measure 4
00000000
00000000
00000000
00000000
,  // measure 5
10000000
01000000
10000000
00010000
,  // measure 6
00100000
00010000
00001000
00010000
,  // measure 7
00001000
00000100
00001000
00000100
,  // measure 8
00000002
00000000
00000000
00000000
00000013
00000001
00000010
00000000
,  // measure 9
00000100
00000000
00001000
00000000
00000200
00000000
00000300
00010000
,  // measure 10
00001000
00020000
00000000
00030000
,  // measure 11
00200000
00000000
00300000
00000000
00010000
10000000
00010000
00000000
,  // measure 12
01000000
00000000
00010000
00000000
20000000
00000000
30000000
01000000
,  // measure 13
00020000
02000000
03030000
00000000
,  // measure 14
00110000
00000000
00000000
00000000
10000000
00010000
00110000
00000000
,  // measure 15
00001000
00000000
00010000
00000000
00011000
00000000
00000000
00000100
,  // measure 16
00000010
00001100
00000000
00000000
,  // measure 17
00011000
00000000
00000000
00000000
00001000
00000100
00001000
00000000
,  // measure 18
00000100
00000000
00000010
00000000
00000011
00000000
00000000
00000001
,  // measure 19
00000100
00001100
00000000
00000000
,  // measure 20
00001000
00000100
00000010
00000100
00001000
00000000
00010000
00100000
,  // measure 21
01000000
00100000
00010000
00000000
02000000
00000000
00100000
00000000
,  // measure 22
00010000
00020000
03030000
00200000
,  // measure 23
00301000
00000000
00020000
00001000
,  // measure 24
00001000
00031000
00002000
00000000
,  // measure 25
00000000
00200000
00000000
00303000
,  // measure 26
10000000
00000000
00010000
01000000
00010000
00100000
00000000
00000000
,  // measure 27
00010000
00001000
00010000
00001000
00000000
00000000
00000010
00000100
,  // measure 28
00001000
00000100
00000000
00000000
00000100
00010000
00001000
00010000
,  // measure 29
00000000
00000000
10000000
00010000
01000000
00100000
00000000
00000000
,  // measure 30
00100000
00010000
00001000
00010000
00002000
00000000
00000000
00000000
,  // measure 31
00000000
02000000
00000000
03003000
,  // measure 32
00011000
00000000
00000000
00000000
00010000
00100000
00010000
00000000
,  // measure 33
00100000
00000000
01000000
00000000
10000000
00000000
00000000
01000000
,  // measure 34
20000000
00020000
30030000
00000000
,  // measure 35
00022000
00000000
00033000
00000000
00001000
00000100
00001000
00000000
,  // measure 36
00000001
00000000
00000010
00000000
00000001
00000000
00000000
00000100
,  // measure 37
00000020
00002000
00000000
00003030
,  // measure 38
00011000
00000000
00000000
00000000
10000000
00010000
01000000
00000000
,  // measure 39
01000000
00000000
00100000
00000000
00011000
00000000
00000000
00000100
,  // measure 40
00001000
00000110
00000000
00000000
,  // measure 41
00011000
00000000
00000000
00000000
00001000
00000100
00001000
00000000
,  // measure 42
00000010
00000000
00000100
00000000
00000011
00000000
00000000
00000100
,  // measure 43
00001000
00220000
00000000
00330000
,  // measure 44
10000000
00010000
10000000
01000000
00100000
00010000
00100000
10000000
,  // measure 45
01000000
10000000
00010000
00100000
00010000
01000000
00001000
00100000
,  // measure 46
00010000
00000100
00001000
00000100
00000010
00000001
00000100
00000001
,  // measure 47
00000010
00000100
00000001
00001000
00000001
00000100
00000001
00001000
,  // measure 48
00000100
00001000
00010000
00001000
00100000
00000000
00010000
00100000
,  // measure 49
00010000
00000000
21000000
00000000
01000000
01000000
31000000
00000000
,  // measure 50
22000000
33000000
01100000
00220000
,  // measure 51
00330000
00011000
00001100
00000110
,  // measure 52
00000011
00001001
00010100
00101000
,  // measure 53
00022000
00033000
00110000
10100000
,  // measure 54
01100000
00110000
00012000
00000000
,  // measure 55
00000000
00000000
01000000
00000000
00010000
00010000
00010000
00010000
,  // measure 56
00013000
00000000
00000000
00000000
;
