#TITLE:Palamedes Theme;
#SUBTITLE:;
#ARTIST:Hot-B;
#TITLETRANSLIT:;
#SUBTITLETRANSLIT:;
#ARTISTTRANSLIT:;
#CREDIT:348;
#BANNER:;
#BACKGROUND:;
#LYRICSPATH:;
#CDTITLE:;
#MUSIC:Palamedes Theme.mp3;
#OFFSET:-0.085;
#SAMPLESTART:4.048;
#SAMPLELENGTH:15.000;
#SELECTABLE:YES;
#BPMS:0.000=120.200;
#STOPS:;
#BGCHANGES:;

//---------------dance-single - ----------------
#NOTES:
     dance-single:
     :
     Beginner:
     1:
     0.101,0.123,0.000,0.000,0.000:
0000
0000
0000
0000
,
0000
0000
0000
0000
,
1000
0000
0100
0000
,
0010
0000
0000
0000
,
0001
0000
0100
0000
,
0010
0000
0000
0000
,
1000
0000
0001
0000
,
1000
0000
0000
0000
,
0010
0000
0100
0000
,
0010
0000
0000
0000
,
1000
0000
0000
0001
,
0001
0000
0000
0010
,
0010
0000
0000
0100
,
0100
0000
0000
1000
,
1000
0000
0000
0010
,
0010
0000
0000
0100
,
0100
0000
0000
0001
,
0001
0000
1000
0000
,
0001
0000
0000
0000
,
1000
0000
0001
0000
,
0100
0000
0000
0000
,
0010
0000
0000
0000
,
0010
0000
0000
0000
,
0100
0000
0100
0000
,
0100
0000
0100
0000
,
0001
0000
0000
0000
,
1000
0001
0000
0000
,
1000
0000
0000
0000
,
0001
1000
0000
0000
,
0010
0000
0000
0000
,
0100
0010
0000
0000
,
0100
0000
0000
0000
,
0010
0100
0000
0000
,
0001
0000
0000
0000
,
1000
0000
0000
0000
,
0010
0000
0100
0000
,
0010
0000
0000
0000
,
0100
0000
0000
0000
,
0010
0000
0000
0000
,
1000
0000
0001
0000
,
1000
0000
0010
0000
,
0100
0000
0001
0000
,
1000
0000
0000
0000
,
0100
0000
0000
0000
,
0001
0000
0000
0000
,
0010
0000
0000
0000
,
1000
0000
0001
0000
,
1000
0000
0001
0000
,
1000
0000
0000
0000
,
0001
0000
0000
0000
,
0100
0000
0000
0000
,
0010
0000
0010
0000
,
1000
0000
0000
0000
,
0100
0000
0000
0000
,
0010
0000
0000
0000
,
0001
0000
0001
0000
,
0100
0000
0000
0000
,
0010
0000
0000
0000
,
1000
0000
0000
0000
,
0001
0000
0000
0000
,
0100
0000
0000
0000
;

//---------------dance-single - ----------------
#NOTES:
     dance-single:
     :
     Easy:
     3:
     0.246,0.249,0.213,0.156,0.000:
0000
0000
0000
0000
,
0000
0000
0000
0000
,
1000
0001
0000
1000
,
0010
0100
0000
0010
,
1000
0100
0010
0001
,
1000
0000
0110
0000
,
0001
1000
0000
0001
,
0010
0100
0000
0010
,
0001
0010
0100
1000
,
0001
0000
0110
0000
,
1001
0000
0100
0010
,
1000
0000
0100
0010
,
0001
1000
0001
1000
,
0002
0000
0000
0003
,
0110
0000
0001
1000
,
0010
0000
1000
0001
,
0100
0000
0001
1000
,
0020
0000
0230
0000
,
0302
0000
2003
0000
,
3010
0000
1001
0000
,
0100
0010
0100
0000
,
0001
1000
0010
0100
,
1001
0000
1001
0000
,
0100
0000
0110
0000
,
0010
0000
0110
0000
,
0001
0100
0010
0000
,
1000
0010
0100
0000
,
0002
0000
1003
0000
,
2000
0000
3001
0000
,
0100
0001
0010
0000
,
0100
1000
0010
0000
,
0200
0000
0310
0000
,
0020
0000
0130
0000
,
1010
0000
0101
0000
,
1000
0100
0001
0010
,
1100
0000
0011
0000
,
0100
0001
0010
1000
,
0110
0000
1001
0000
,
0010
1000
0001
0100
,
1001
0000
0110
0000
,
0010
0100
0010
0100
,
0001
1000
0001
1000
,
0001
0000
1000
0010
,
1000
0001
0200
0300
,
0001
0001
1000
1000
,
0010
0010
1001
0000
,
0020
0000
2030
0000
,
3002
0000
0203
0000
,
0301
1000
0001
0010
,
1001
0000
1001
0000
,
1000
0010
1000
0001
,
0110
0000
0110
0000
,
1000
0100
0010
0001
,
0010
0100
1000
0001
,
0100
0010
1000
0010
,
0100
0001
1000
0010
,
0200
0300
0002
0003
,
2000
3000
0020
0030
,
1100
0000
0101
0000
,
1010
0000
0011
0000
,
0200
0000
0000
0300
;

//---------------dance-single - ----------------
#NOTES:
     dance-single:
     :
     Medium:
     5:
     0.319,0.324,0.180,0.172,0.000:
0000
0000
0000
0000
,
0000
0000
0000
0000
,
1000
0000
0001
0100
0000
0010
1000
0000
,
0001
0000
1000
0010
0000
0100
0001
0000
,
0100
0000
0010
0100
0000
0100
0010
0000
,
1000
0110
0001
0110
,
1000
0000
0010
0100
0000
0001
0010
0000
,
0001
0000
0100
0010
0000
1000
0100
0000
,
1000
0000
0001
1000
0000
1000
0001
0000
,
0100
1001
0010
1001
,
0200
0000
0000
0010
0000
0010
0300
0000
,
0002
0000
0000
1000
0000
1000
0003
0000
,
2000
0010
0001
3010
,
0202
0000
0303
1001
,
0020
0000
0000
0100
0000
0100
0030
0000
,
2000
0000
0000
0001
0000
0001
3000
0000
,
0002
0100
1000
0103
,
1000
0010
0100
0001
,
0110
0000
1001
0000
,
0100
0000
0010
0000
0000
1000
0001
0000
,
1000
0000
0001
0000
0000
0100
0010
0000
,
1000
0100
0001
0010
,
2000
0000
0000
0000
3001
1000
0001
0000
,
1010
0000
0101
0000
,
2000
3010
0002
0103
,
1000
0000
0001
0100
0000
0100
0000
0000
,
0001
0000
1000
0010
0000
0010
0000
0000
,
1000
0000
1000
0001
0000
0001
0000
0000
,
1000
0000
0001
0000
1000
0001
1000
0000
,
0010
0000
0100
0001
0000
0001
0000
0000
,
0100
0000
0010
1000
0000
1000
0000
0000
,
0010
0000
0010
0100
0000
0100
0000
0000
,
0001
0000
1000
0010
1000
0000
0001
0000
,
2000
0000
0000
0010
0000
0000
3001
0000
,
0002
0000
0000
0100
0000
0000
1003
0000
,
0020
0100
1000
0130
,
1000
0000
0001
0000
0000
0100
0010
0000
,
0200
0000
0000
1000
0000
0000
0301
0000
,
0020
0000
0000
0001
0000
0000
1030
0000
,
0200
0001
0010
0301
,
0010
0000
0000
0001
0100
0000
0000
0010
,
1000
0101
0010
1100
,
0020
0000
0000
1030
0001
1000
0000
0000
,
0002
0000
0000
0103
0010
0100
0000
0000
,
0001
0000
0100
0000
0010
1000
0010
0000
,
0100
0000
1001
0000
0000
0010
0100
0000
,
1001
0000
0110
0000
,
1001
0110
1001
0110
,
1000
0000
0001
0100
0000
0100
0000
0000
,
0010
0000
0100
0001
0000
0001
0100
0000
,
0010
0000
1000
0001
0000
0001
0000
0000
,
0100
0000
0001
1000
0001
0000
1010
0000
,
0001
0000
1000
0010
0000
0010
0000
0000
,
0100
0000
0010
1000
0000
1000
0010
0000
,
0100
0000
0001
1000
0000
1000
0000
0000
,
0010
0000
1000
0001
1000
0000
0011
0000
,
1000
0000
0000
0001
0000
0100
0000
1000
,
0100
0000
0000
0001
0000
0010
0000
1000
,
0010
0001
1000
0001
0010
0000
1001
0000
,
0200
0000
0000
0300
,
0020
0000
0000
0030
;

//---------------dance-single - ----------------
#NOTES:
     dance-single:
     :
     Hard:
     7:
     0.448,0.424,0.279,0.230,0.062: // measure 1
0000
0000
0000
0000
,  // measure 2
0000
0000
0000
0000
,  // measure 3
1000
0100
1000
0100
0000
0010
0001
0010
,  // measure 4
0001
1000
0001
1000
0000
0110
0000
0001
,  // measure 5
0100
0010
0100
0010
0000
1000
0001
1000
,  // measure 6
0010
0000
0000
0100
0000
0000
0010
0000
0100
0000
0001
0000
1000
0000
0000
0000
,  // measure 7
0001
0100
0001
0100
0000
0010
1000
0010
,  // measure 8
1000
0100
1000
0100
0000
1001
0000
0010
,  // measure 9
1000
0001
1000
0001
0000
0100
0010
0100
,  // measure 10
0010
0000
1000
0001
1000
0000
0011
0000
,  // measure 11
1100
0000
0010
0100
0000
1001
0000
0100
,  // measure 12
0001
0000
1000
0010
0000
0101
0000
0010
,  // measure 13
0001
0000
1000
0010
1000
0000
0001
0100
,  // measure 14
0001
0020
0000
1000
0000
0031
1000
0001
,  // measure 15
0100
0000
0001
1000
0000
0110
0000
1000
,  // measure 16
0010
0000
0100
0001
0000
1010
0000
0001
,  // measure 17
1000
0010
1000
0000
0001
0100
0001
0000
,  // measure 18
1000
0000
0000
0001
0000
0000
1000
0000
0010
0000
0000
0100
0000
0000
0020
0000
,  // measure 19
0000
0001
0000
0100
0000
1030
0001
0000
,  // measure 20
1000
0001
1000
0001
0000
0100
0010
0100
,  // measure 21
0001
0010
0100
2000
0000
3001
1000
0000
,  // measure 22
0001
0000
0010
0000
1000
0000
0100
0000
0001
0000
0000
1000
0000
0000
0002
0000
,  // measure 23
0000
1000
0000
0100
0000
1003
0010
0000
,  // measure 24
1000
0000
0000
0100
0000
0000
0010
0000
0001
0000
0000
0010
0000
0000
0100
0000
,  // measure 25
2002
3003
0220
0330
,  // measure 26
1000
0000
0001
0200
0000
0310
1000
0010
,  // measure 27
0002
0000
0013
2000
0000
3001
0010
0001
,  // measure 28
0200
0000
0310
2000
0000
3001
1000
0001
,  // measure 29
0100
0000
0000
0001
0000
0000
1000
0000
0010
0000
1000
0000
0001
0000
0000
0000
,  // measure 30
0110
0000
1000
0020
0000
0130
0001
0100
,  // measure 31
2000
0000
3100
0002
0000
1003
0100
1000
,  // measure 32
0020
0000
0130
0002
0000
1003
0001
1000
,  // measure 33
0010
0000
0000
1000
0000
0000
0001
0000
0100
0000
0000
0000
1001
0000
0000
0000
,  // measure 34
0110
0000
0000
0011
0000
1100
0000
0001
,  // measure 35
1000
0000
0000
0101
0000
1010
0000
0100
,  // measure 36
0010
1000
0010
0000
0100
0001
0100
0000
,  // measure 37
0001
0100
1000
0100
0000
0001
0100
0000
,  // measure 38
1001
0000
0000
1010
0000
1100
0000
0001
,  // measure 39
0010
0000
0000
0101
0000
0011
0000
1000
,  // measure 40
0100
0000
0000
1001
0000
0110
0000
1000
,  // measure 41
0001
0000
0000
0100
0000
0000
0001
0000
1000
0000
0000
0010
0000
0000
1000
0000
,  // measure 42
0002
0010
0100
1003
,  // measure 43
0100
0000
0010
2000
0000
3001
0100
0001
,  // measure 44
0020
0000
0031
0200
0000
0301
0000
0000
,  // measure 45
1000
0000
0100
0000
0001
0000
0010
0000
1000
0000
0000
0001
0000
0000
2000
0000
,  // measure 46
0000
3001
1000
0001
0010
0000
1001
0000
,  // measure 47
0100
0000
0000
0100
0000
0000
0110
0000
0001
0000
0000
0001
0000
0000
1001
0000
,  // measure 48
0100
1001
0010
1001
,  // measure 49
0110
0000
1000
0100
0000
0010
0100
1000
,  // measure 50
0100
0000
0010
0001
0000
0100
0001
0010
,  // measure 51
1000
0001
0100
0000
0001
1000
0100
0000
,  // measure 52
1000
0100
0010
0001
0000
1000
0001
0000
,  // measure 53
0200
0000
0000
0010
0000
0000
0301
0000
0000
0000
0001
0000
0100
0000
0000
0000
,  // measure 54
0020
0000
0000
0100
0000
0000
1030
0000
0000
0000
1000
0000
0010
0000
0000
0000
,  // measure 55
1001
0000
0100
0001
1000
0010
0000
1000
,  // measure 56
0100
1001
0010
1001
,  // measure 57
0100
0001
0010
0001
0000
0001
0100
0000
,  // measure 58
0010
1000
0100
1000
0000
1000
0010
0000
,  // measure 59
1000
0100
0001
0100
1000
0001
1000
0000
,  // measure 60
0020
0000
0001
0000
0000
1000
1030
0000
,  // measure 61
0202
0000
0000
0303
;

//---------------dance-single - ----------------
#NOTES:
     dance-single:
     :
     Challenge:
     9:
     0.601,0.573,0.369,0.189,0.554: // measure 1
0000
0000
0000
0000
,  // measure 2
0000
0000
0000
0000
,  // measure 3
1000
0000
0100
0000
0001
0000
0100
0000
0000
1000
0001
0000
0010
0000
1000
0000
,  // measure 4
0010
0000
0001
0000
1000
0000
0001
0000
0000
0000
0100
0001
0000
1000
0010
0000
,  // measure 5
1000
0000
0100
0000
1000
0000
0001
0000
0000
1000
0001
0000
1000
0000
0001
0000
,  // measure 6
0100
0010
0000
1000
0000
0001
0000
0100
0000
0001
0000
1000
0001
0000
1000
0000
,  // measure 7
0001
0000
0010
0000
1000
0000
0100
0000
0000
0001
0010
0000
0100
0000
1000
0000
,  // measure 8
0010
0000
1000
0000
0001
0000
0100
0000
0000
0000
0001
0010
0000
0100
1000
0000
,  // measure 9
0001
0000
0100
0000
0010
0000
0100
0000
0000
0010
1000
0000
0100
0000
1000
0000
,  // measure 10
0001
0100
0000
0010
0000
1000
0000
0001
1000
0000
0000
0000
0110
0000
0000
0000
,  // measure 11
1000
0100
0010
0200
0000
1300
0001
1000
,  // measure 12
0010
0100
0001
2000
0000
3010
0100
0001
,  // measure 13
0100
0010
1000
0010
0100
0001
0100
0010
,  // measure 14
1000
0000
0001
0000
2000
0001
0000
0001
0000
0001
0000
3001
0100
0000
0000
0000
,  // measure 15
0001
0010
1000
0020
0000
0100
1030
0001
,  // measure 16
1000
0100
1000
0002
0000
0103
0010
1000
,  // measure 17
0001
0100
0010
0100
0001
1000
0100
1000
,  // measure 18
0011
0000
0000
1100
0000
0000
0011
0000
1010
0000
0000
0101
0000
0000
2010
0000
,  // measure 19
0000
0000
3001
0010
0000
0010
0001
0000
1000
0100
0000
0100
1000
0000
0000
0000
,  // measure 20
0001
0000
1000
0000
0010
0000
0200
0000
0000
0310
0100
0000
0001
0000
1000
0000
,  // measure 21
0010
0000
1000
0000
0001
0000
0100
0000
0000
0001
0000
1000
0001
0000
0000
0000
,  // measure 22
1000
0000
0100
0000
0010
0000
0001
0000
1100
0000
0000
0101
0000
0000
1001
0000
,  // measure 23
0000
0000
0100
0000
0010
0000
0100
0000
0010
1000
0000
0001
0100
0000
0000
0000
,  // measure 24
1010
0000
0000
1001
0000
0000
0101
0000
0011
0000
0000
0110
0000
0000
1100
0000
,  // measure 25
2001
3010
0102
1003
,  // measure 26
0110
0000
0000
1000
0001
0000
1000
0000
0000
0000
0010
0100
0010
0000
1000
0000
,  // measure 27
0011
0000
0000
0100
0010
0000
1000
0000
0000
0000
0001
1000
0000
0010
0100
0000
,  // measure 28
1010
0000
0000
0001
0100
0000
0010
0000
0000
0000
1000
0001
1000
0000
0010
0000
,  // measure 29
1000
0002
0000
0010
0000
0100
0000
1000
0000
0010
0000
0103
0001
0000
0000
0000
,  // measure 30
1100
0000
0000
0010
0100
0000
0001
0000
0000
0000
1000
0001
1000
0000
0100
0000
,  // measure 31
1001
0000
0000
0100
0001
0000
1000
0000
0000
0000
0010
0100
0000
0001
1000
0000
,  // measure 32
0101
0000
0000
1000
0010
0000
0100
0000
0000
0000
0010
0100
0010
0000
1000
0000
,  // measure 33
0001
0010
0000
1000
0000
0010
0000
0001
0100
0000
0000
0000
1001
0000
0000
0000
,  // measure 34
0100
0000
0001
0010
0001
0000
0100
0000
0000
0000
0010
1000
0010
0000
0100
0000
,  // measure 35
0001
0000
1000
0100
1000
0000
0001
0000
0000
0000
0100
0001
0100
0000
0010
0000
,  // measure 36
1000
0000
0001
0100
0001
0000
0010
0000
0001
0000
1000
0010
1000
0000
0100
0000
,  // measure 37
1000
0000
0001
0000
0200
0010
0000
0010
0000
0010
0000
0310
1000
0000
0000
0000
,  // measure 38
0001
0000
1000
0100
0000
0010
0002
0000
0000
0000
1003
0000
0200
0000
0000
0000
,  // measure 39
1300
0000
0001
0010
0000
0100
2000
0000
0000
0000
3001
0000
0020
0000
0000
0000
,  // measure 40
0031
0000
0100
0001
0100
0000
0000
0000
0001
0000
0010
1000
0010
0000
0000
0000
,  // measure 41
0001
0100
0000
0101
0000
0000
1010
0000
1000
0100
0000
1100
0000
0000
0011
0000
,  // measure 42
1001
0000
0100
0001
0000
0001
0010
0000
0010
0100
0000
0100
1000
0000
0000
0000
,  // measure 43
0001
0000
1000
0001
1000
0000
0002
0000
0000
0000
0103
0010
0000
1000
0001
0000
,  // measure 44
0100
0000
0010
0100
0010
0000
0200
0000
0000
0000
0301
0100
0000
0010
1000
0000
,  // measure 45
0001
0100
0001
0000
1000
0010
1000
0000
0110
0000
0000
1001
0000
0000
0110
0000
,  // measure 46
0000
0000
1000
0000
0001
0000
1000
0000
0010
0100
0000
0100
0010
0000
0000
0000
,  // measure 47
1000
0100
0000
0011
0000
0000
0110
0000
0001
0100
0000
1010
0000
0000
1001
0000
,  // measure 48
0110
0000
0000
0000
0000
0000
0000
1000
0001
0000
0000
0000
0000
0000
0000
0000
0110
0000
0000
0000
0000
0000
0000
0001
1000
0000
0000
0000
0000
0000
0000
0000
,  // measure 49
0010
0000
1000
0100
0000
1000
0100
0000
0000
0000
1000
0001
1000
0000
0001
0000
,  // measure 50
0100
0000
0001
0010
0000
0001
0010
0000
0000
0000
0001
1000
0000
0001
1000
0000
,  // measure 51
0010
0000
1000
0001
0000
1000
0001
0000
0000
0000
0100
0010
0100
0000
0010
0000
,  // measure 52
2000
0001
0000
0010
0000
0100
0000
0010
0000
0001
0000
3010
1000
0000
0000
0000
,  // measure 53
0002
0000
0000
0010
0000
0000
1003
0000
0000
0100
0001
0000
1000
0000
0010
0000
,  // measure 54
2000
0000
0000
0010
0000
0000
3001
0000
0000
0000
0100
0001
0000
0001
1000
0000
,  // measure 55
0010
0000
0000
1001
0000
0000
0110
0000
0000
1001
0000
0000
0100
0000
0000
0000
,  // measure 56
0001
0020
0000
1000
0000
0001
0000
0130
0010
0000
0000
0000
0110
0000
0000
0000
,  // measure 57
1000
0000
0000
0110
0000
0000
0001
0000
0000
1000
0010
0000
1000
0000
0100
0000
,  // measure 58
0010
0000
0000
1001
0000
0000
0100
0000
0000
0001
1000
0000
0010
0000
0100
0000
,  // measure 59
0001
0000
0010
0000
0100
0000
1000
0100
1000
0000
0100
0000
0010
0000
0001
0000
,  // measure 60
2000
0000
0000
0010
0000
0000
0001
0000
0000
0010
0000
0000
0100
0000
0000
0000
,  // measure 61
0002
0000
0000
3003
;
