#TITLE:Nightmare Wizard;
#SUBTITLE:Final Boss Theme;
#ARTIST:Kirby's Adventure;
#TITLETRANSLIT:;
#SUBTITLETRANSLIT:;
#ARTISTTRANSLIT:;
#CREDIT:Telperion;
#BANNER:;
#BACKGROUND:;
#LYRICSPATH:;
#CDTITLE:;
#MUSIC:Nightmare Wizard.ogg;
#OFFSET:-1.094;
#SAMPLESTART:13.971;
#SAMPLELENGTH:12.000;
#SELECTABLE:YES;
#BPMS:0.000=180.000,35.000=173.944,39.000=180.233;
#STOPS:;
#BGCHANGES:;

//---------------dance-single - ----------------
#NOTES:
     dance-single:
     :
     Challenge:
     9:
     0.775,0.892,0.195,0.230,0.274:
0000
0000
0000
0000
,
0000
0000
0000
0000
,
1000
0001
1000
0001
,
1000
0001
1000
0001
,
1000
0100
0001
0100
,
1000
0100
0001
0100
,
1000
0000
0100
0010
0100
0000
1000
0100
,
1000
0000
0001
0100
0001
0000
0100
0010
,
0100
0000
1000
0010
1000
0000
0100
1001
,
0000
0000
0000
0000
0000
0000
1000
0001
,
0010
0000
0000
1000
0000
0000
0001
0000
0000
0100
0000
0000
0010
0000
1000
0000
,
0011
0000
0000
0000
0000
0000
1000
0001
1000
0000
0000
0000
0110
0000
0000
0000
,
1000
0100
0010
0100
1000
0100
0010
0001
,
0100
0001
0010
0001
0100
0001
0100
1000
,
0001
0100
0010
0001
0010
0100
0010
0001
,
0010
0000
0100
0000
1000
0000
0100
0000
0001
0000
0100
0000
1000
0000
0100
1000
,
0100
1000
0001
1000
0100
1000
0001
1000
,
0010
0000
0100
0000
1000
0000
0001
0000
0010
0000
0100
0000
1000
0000
0001
0100
,
0001
0010
0100
0010
1000
0010
0001
0010
,
0100
0000
1000
0000
0010
0000
1000
0000
0001
0000
1000
0000
0100
0000
0010
0100
,
0010
1000
0010
0001
0010
1000
0010
0001
,
2002
0000
3003
0000
0220
0000
0330
0000
0000
0000
1000
0001
1000
0000
0001
1000
,
0001
0010
0100
0010
0001
1000
0010
0100
,
1000
0100
0010
1000
0001
0100
1000
0100
,
0001
0010
0001
0100
1000
0100
0010
1000
,
0010
0001
0010
0100
0001
0010
1000
0010
,
0001
0100
0001
0010
1000
0010
0100
1000
,
0001
0010
0001
1000
0100
0010
0001
0010
,
0001
0100
0001
0010
0100
1000
0100
0010
,
1000
0000
0010
0000
0001
0000
0100
0000
1000
0000
0100
0010
1000
0010
1000
0010
,
2000
0000
0000
0000
,
3002
0000
0000
0000
1003
0100
0010
0001
,
1000
0000
0001
0010
0001
0000
1000
0010
1000
0000
0001
0010
0001
0000
1000
0000
,
0002
0000
0003
0010
0001
0100
0001
0010
,
0100
0000
1000
0100
1000
0000
0001
0100
0001
0000
1000
0100
1000
0000
0001
0000
,
2000
0000
3000
0000
1000
0010
1000
0100
,
1000
0000
0010
1000
0010
0000
0100
0010
0100
0000
0001
0010
0001
0000
1000
0000
,
2000
0000
3000
0000
0001
0100
1000
0100
,
0001
0000
0010
0100
0010
0000
0100
1000
0100
0000
1000
0001
1000
0000
0001
0000
,
0020
0030
2002
3003
0000
0000
0000
0000
,
1000
0100
0000
0010
0001
0100
0000
1000
,
0010
0100
0000
0001
1000
0100
0001
1000
,
0010
0001
0000
0100
0010
0100
0000
0001
,
0010
0100
0000
0100
1000
0010
0001
1000
,
0100
0001
0000
0001
0010
0001
0000
1000
,
0010
0001
0000
0010
1000
0100
0001
1000
,
0010
0001
0000
1000
1000
0100
0000
0001
,
0001
0100
0000
0010
0001
0100
1000
0001
,
0020
0000
2030
0000
,
3200
0000
0000
0000
0000
0000
0000
0000
0301
0100
0010
0100
0000
0010
0100
0010
,
0001
1100
0001
0110
,
0001
1010
0110
0011
,
1000
0101
1000
0110
,
1000
0011
0110
1100
,
0010
0101
0010
1100
,
0010
0001
0100
1000
,
0100
0011
0100
1010
,
0200
0000
0300
0000
2002
0000
3003
0000
0000
1000
0010
1000
0001
0100
0001
0100
,
0001
1000
0100
1000
0010
0100
0001
0100
,
0010
0001
1000
0100
0001
1000
0100
0001
,
0100
1000
0100
1000
0010
0100
0001
0100
,
0010
0001
1000
0100
0001
1000
0100
0001
,
0100
0100
0010
0001
0100
0001
0010
0100
,
1000
0100
0001
0100
1000
0001
0100
1000
,
0100
0010
1000
0010
0100
0001
0010
0001
,
0100
1000
0001
0010
1000
0001
0010
1000
,
0020
0000
0000
0000
0001
0000
0000
1000
0000
0000
0100
0000
0001
0000
0000
0000
,
0032
0000
0000
0000
1000
0000
0000
0010
0003
0000
1000
0000
0100
0000
0010
0100
,
0010
0000
0001
0100
0001
0000
0010
0100
0010
0000
0001
0100
0001
0100
0010
1000
,
0020
0000
0130
0001
,
0010
0000
1000
0100
1000
0000
0100
0010
0100
0000
0001
0010
0001
0010
0100
1000
,
0100
0000
0010
0001
0200
0000
0000
0000
1000
0000
0000
0000
0301
0000
0000
0000
,
1000
0000
0100
0010
0100
0000
0001
0010
0001
0000
0100
0010
0100
0000
1000
0100
,
1000
0200
0001
1300
,
0010
0001
0010
0001
0010
0001
0010
0000
0100
0010
0100
0010
0100
0010
0100
0010
,
0100
0000
1000
0001
0200
0000
0000
0000
1000
0000
1000
0000
1300
0000
0000
0000
,
0001
0000
0100
0000
0010
0000
0001
0000
0010
0000
1000
0000
0100
0000
0010
0100
,
0010
0000
0001
0000
0100
0000
1000
0000
0100
0000
0001
0000
0010
0000
0001
0100
,
0001
0000
0010
0000
0100
0000
0001
0000
0100
0000
0010
0000
1000
0000
0010
0100
,
0010
0000
0001
0000
1000
0000
0100
0000
1000
0000
0001
0000
0100
0000
1000
0100
,
1000
0000
0001
0000
0010
0000
1000
0000
0001
0000
0010
0000
1000
0000
0010
1000
,
0010
0100
0001
0000
1000
0001
1000
0010
,
2002
0000
0000
0000
,
0000
0000
0000
0000
,
3003
0000
0000
0000
;

//---------------dance-single - ----------------
#NOTES:
     dance-single:
     :
     Edit:
     12:
     0.955,0.927,0.354,0.301,0.996:
0000
0000
0000
0000
,
0000
0000
0000
0000
,
1000
0001
1000
0001
,
1000
0001
1000
0001
,
1000
0000
0010
0001
1000
0000
0100
1000
0001
0000
0010
0001
1000
0000
0100
1000
,
0001
0000
0100
0001
1000
0000
0010
1000
0100
0000
0010
0001
1000
0000
0100
1000
,
0010
0000
1000
0001
0100
0000
0011
0000
0100
0000
0001
1000
0100
0000
1010
0000
,
0100
0000
0001
0010
0100
0000
0011
0000
0100
0000
1000
0010
0100
0000
1010
0000
,
0100
0000
0001
1000
0001
0000
0010
0000
1001
0000
1000
0001
1000
0000
0110
0000
,
0000
0000
0000
0000
0000
0000
0220
0330
,
0010
1000
0100
0010
0001
0100
0010
1000
0010
0100
0001
0100
1000
0100
0001
0010
,
0200
0000
0000
0000
0311
0000
0000
0000
0000
0000
0000
0000
0001
0010
0100
1000
,
0001
0000
1000
0100
1000
0000
0001
0100
0001
0000
1000
0000
0100
0000
0010
0000
,
1000
0000
0010
0001
0010
0000
0100
1000
0100
0000
0010
0001
0100
0001
0010
0001
,
0100
0010
0100
0010
0000
0100
0010
0100
0000
0010
0100
0010
0100
0001
0010
0001
,
2000
0000
3011
0000
,
0001
1000
0100
1000
0000
0100
1000
0100
0000
1000
0100
1000
0001
0010
0001
1000
,
0200
1310
M0M0
0000
,
1000
0001
0010
0001
0000
0010
0001
0010
0000
0001
0100
0001
1000
0010
1000
0100
,
0020
0000
1130
0000
,
1000
0010
0100
0010
0000
1000
0100
1000
0000
0010
0100
0010
1000
0100
0010
0100
,
0002
0000
0000
0000
1013
0000
0000
0000
M0M0
0000
0000
0000
0000
0000
1000
0100
,
1000
0000
0010
0000
0001
0000
0010
0000
0100
0000
0001
0000
0100
0000
0010
0001
,
0010
0000
1000
0000
0100
0000
0001
0000
1000
0000
0010
0000
0001
0000
1000
0100
,
1000
0000
0100
0000
0010
0000
0100
0000
1000
0000
0001
0000
0100
0000
1000
0100
,
1000
0000
0001
0000
0010
0000
0001
0000
0100
0000
1000
0000
0001
0000
0010
1000
,
0010
0000
0100
0000
0001
0000
0010
0000
1000
0000
0010
0000
0001
0000
0100
1000
,
0100
0000
0001
0000
0010
0000
1000
0000
0010
0000
0001
0000
0100
0000
1000
0100
,
1000
0000
0100
0000
0010
0000
1000
0000
0100
0000
0010
0000
1000
0000
0010
0001
,
0010
0000
0100
0000
1000
0000
0001
0000
0010
0001
0010
0001
1000
0100
1000
0010
,
0200
0000
0000
0000
0010
0000
0000
0002
0000
0000
1000
0000
0313
0000
0000
0000
,
0200
0000
0000
0000
0010
0000
0000
2000
0000
0000
0001
0000
3310
0000
0000
0000
,
1000
0001
0010
0001
0000
1000
0100
1000
0000
0001
0010
0001
0000
1000
0100
1000
,
0020
0001
1000
0001
,
1030
0010
1000
0010
0000
0100
0001
0100
0000
0010
1000
0010
0000
0100
0001
0100
,
0020
1031
M00M
0000
,
0010
0100
1000
0100
0000
0010
0001
0010
0000
0100
1000
0100
0000
0010
0001
0010
,
0200
1000
0001
1000
,
0301
0100
0010
0100
0000
1000
0010
0100
0000
0001
0010
0100
0000
1000
0010
0100
,
0002
1113
MMM0
0000
,
2200
0000
0000
0000
0001
0000
0000
0010
0000
0001
0010
0000
3301
0000
0000
0000
,
0101
0000
0000
0000
1100
0000
0000
0010
0000
0100
0000
0001
1100
0000
0010
0002
,
0200
0000
0000
0000
1000
0000
0000
0010
0000
1000
0010
0000
1303
0000
0000
0000
,
1100
0000
0000
0000
0101
0000
0000
0010
0000
0100
0000
1000
0101
0000
0010
1000
,
0010
0000
0100
0000
1000
0000
0100
0001
0000
0010
0100
0000
1000
0000
0001
0000
,
1010
0000
0000
0000
0011
0000
1000
0100
0000
0010
0000
0100
1000
0000
0001
0010
,
0001
0000
1000
0000
0100
0000
1000
0001
0000
0010
0001
0000
0100
0000
1000
0000
,
1100
0000
0000
0000
0101
0000
1000
0010
0000
0100
0000
0010
1000
0000
0100
0000
,
0010
0000
0000
0000
0001
0000
0000
0100
0000
0000
1000
0000
0010
0000
0000
0000
,
0100
0000
0000
0000
0001
0000
0000
0010
0000
0000
1000
0000
0100
0000
1000
0100
,
1000
0001
0010
0001
0000
0100
0001
0100
0000
0010
0100
0010
0000
1000
0010
1000
,
0002
1000
1000
1000
,
1003
0100
1000
0100
0000
0010
0100
0010
0000
0001
0010
0001
0000
0100
0001
0100
,
0020
1031
M00M
0000
,
1000
0001
0010
0001
0000
1000
0010
1000
0000
1000
0100
1000
0000
0001
0100
0001
,
2000
0001
0001
3001
,
0001
0010
0100
1000
0000
0001
0010
0100
0000
1000
0010
0100
0000
0001
0010
0100
,
0002
1103
MM00
0000
,
1000
0100
1001
0100
0010
1000
0110
1000
,
0100
0001
0110
0001
1000
0010
0001
0010
,
1000
0100
0011
0100
1000
0010
1100
0010
,
1000
0001
0110
0001
0100
0001
1000
0001
,
0100
0010
1100
0001
1000
0100
0011
1000
,
0010
0001
1100
0010
0100
1000
0100
0001
,
0100
0010
1000
0100
0001
1000
0010
0100
,
1000
0001
0100
1000
0001
0010
0100
0010
,
2002
0000
0000
0000
3010
0000
0000
0200
0000
0000
0010
0000
1303
0000
0000
0000
,
0220
0000
0000
0000
0031
0000
0000
2000
0000
0000
0010
0000
3301
0000
0000
0000
,
1000
0001
0010
0001
0010
0001
0010
0001
1000
0100
1000
0100
1000
0100
0010
0001
,
0020
0000
0030
0000
,
0001
1000
0010
1000
0010
1000
0010
1000
0001
0010
0001
0010
0001
0010
0100
1000
,
0020
0002
0033
0000
,
1000
0010
0100
0010
0100
0010
0100
0010
1000
0100
0010
0001
0100
0010
1000
0100
,
0020
0000
1031
0000
,
0001
0010
0100
0010
0001
0010
0100
1000
0100
0010
0100
1000
0100
0010
0001
1000
,
0200
1311
M0MM
0000
,
1000
0100
0010
0001
0100
0000
0010
0001
0000
0010
0100
0000
1000
0000
0100
0000
,
0010
1000
0010
0100
0001
0000
0100
1000
0000
0100
0010
0000
1000
0000
0010
0000
,
0100
0001
0010
0001
0100
0000
0010
1000
0000
0100
0010
0000
0001
0000
0100
0000
,
0001
1000
0001
1000
0001
0000
0100
0001
0000
1000
0100
0000
1000
0000
0001
0000
,
1000
0100
0010
0100
1000
0000
0100
1000
0000
0001
0100
0000
0010
0000
1000
0000
,
0100
0010
0100
0010
0100
0000
0010
0100
0000
0010
0100
0000
0010
0000
0100
0000
,
1000
0010
0100
0001
,
0010
0M00
1000
00M0
;

//---------------dance-double - ----------------
#NOTES:
     dance-double:
     :
     Challenge:
     9:
     0.757,0.855,0.195,0.195,0.261: // measure 1
00000000
00000000
00000000
00000000
,  // measure 2
00000000
00000000
00000000
00000000
,  // measure 3
10000000
00010000
10000000
00010000
,  // measure 4
10000000
00010000
10000000
00010000
,  // measure 5
10000000
01000000
00010000
01000000
,  // measure 6
10000000
01000000
00001000
01000000
,  // measure 7
10000000
00000000
01000000
00010000
01000000
00000000
00010000
00001000
,  // measure 8
00010000
00000000
00001000
00000010
00001000
00000000
00000010
00000001
,  // measure 9
00000010
00000000
00000010
00001000
00000010
00000000
00000100
00001001
,  // measure 10
00000000
00000000
00000000
00000000
00000000
00000000
00001000
00000001
,  // measure 11
00000010
00000000
00000000
00001000
00000000
00000000
00010000
00000000
00000000
01000000
00000000
00000000
10000000
00000000
00100000
00000000
,  // measure 12
01010000
00000000
00000000
00000000
00000000
00000000
01000000
00010000
01000000
00000000
00000000
00000000
00100000
00000000
00000000
00000000
,  // measure 13
10000000
01000000
00100000
01000000
10000000
01000000
00100000
00010000
,  // measure 14
01000000
00010000
00100000
00010000
01000000
00010000
00100000
00001000
,  // measure 15
10000000
00100000
01000000
00001000
00100000
01000000
00010000
01000000
,  // measure 16
10000000
01000000
00010000
00001000
00000100
00001000
00010000
00001000
,  // measure 17
00000010
00000001
00001000
00000100
00000001
00000100
00001000
00000010
,  // measure 18
00010000
00000000
00001000
00000000
10000000
00000000
00010000
00000000
10000000
00000000
00001000
00000000
00010000
00001000
00010000
00001000
,  // measure 19
00010000
00100000
01000000
00100000
10000000
01000000
00010000
00001000
,  // measure 20
01000000
00100000
01000000
10000000
01000000
00100000
00010000
00001000
,  // measure 21
00000100
00000010
00001000
00000100
00000001
00000100
00001000
00000001
,  // measure 22
00020002
00000000
00030003
00000000
20002000
00000000
30003000
00000000
00000000
00000000
10000000
00001000
10000000
00000000
01000000
10000000
,  // measure 23
01000000
00100000
01000000
00100000
00010000
00100000
00010000
00001000
,  // measure 24
00010000
00001000
00000010
00001000
00000010
00000100
00000010
00000100
,  // measure 25
00000001
00001000
00000001
00001000
00000010
00010000
00000010
00010000
,  // measure 26
00001000
00100000
00001000
00100000
00010000
10000000
00100000
00010000
,  // measure 27
00001000
00000100
00001000
00000100
00000010
00000100
00000010
00001000
,  // measure 28
00000010
00001000
00000100
00001000
00000100
00010000
00000100
00010000
,  // measure 29
00000001
00000010
00000001
00000010
00000100
00001000
00000100
00001000
,  // measure 30
00000100
00000000
00010000
00000000
01000000
00000000
10000000
00000000
00100000
00000000
01000000
00010000
01000000
00010000
01000000
00010000
,  // measure 31
02000000
00000000
00000000
00000000
,  // measure 32
03020000
00000000
00000000
00000000
10030000
00001000
00100000
00010000
,  // measure 33
10000000
00000000
00010000
00100000
00010000
00000000
10000000
00100000
10000000
00000000
00010000
00100000
00010000
00000000
10000000
00000000
,  // measure 34
00020000
00000000
00030000
00100000
01000000
00010000
00001000
00000100
,  // measure 35
00000010
00000000
00001000
00000100
00001000
00000000
00000001
00000100
00000001
00000000
00001000
00000100
00001000
00000000
00000001
00000000
,  // measure 36
00002000
00000000
00003000
00000000
00000100
00010000
00001000
01000000
,  // measure 37
00010000
00000000
10000000
00100000
10000000
00000000
00100000
01000000
00100000
00000000
01000000
00010000
01000000
00000000
00100000
00000000
,  // measure 38
00020000
00000000
00030000
00000000
00001000
01000000
10000000
01000000
,  // measure 39
00010000
00000000
10000000
00010000
10000000
00000000
00001000
00100000
00001000
00000000
00010000
00000010
00010000
00000000
00000001
00000000
,  // measure 40
00000200
00000300
00002002
00000000
00003003
00000000
00000000
00000000
,  // measure 41
10000000
01000000
00000000
00001000
00010000
01000000
00000000
00100000
,  // measure 42
00001000
00010000
00000000
00010000
00000010
00001000
00000001
00000100
,  // measure 43
00001000
00000100
00000000
00000010
00000001
00000100
00000000
00000100
,  // measure 44
00000010
00000100
00000000
00000100
00001000
00010000
01000000
10000000
,  // measure 45
01000000
00100000
00000000
00010000
01000000
00100000
00000000
10000000
,  // measure 46
00100000
00010000
00000000
00100000
10000000
01000000
00010000
00001000
,  // measure 47
00000100
00000001
00000000
00010000
00010000
00000010
00000000
00100000
,  // measure 48
00100000
00001000
00000000
00100000
00010000
01000000
10000000
00010000
,  // measure 49
00200000
00000000
00302000
00000000
,  // measure 50
00023000
00000000
00000000
00000000
00030000
00000000
00000000
00000000
00000100
00000010
00000100
00000010
00000000
00000100
00000001
00000100
,  // measure 51
00000001
00001100
00000010
00000101
,  // measure 52
00000010
00001100
01001000
00010010
,  // measure 53
00001000
01010000
00100000
11000000
,  // measure 54
00100000
01010000
00001100
00110000
,  // measure 55
00001000
01100000
00010000
00101000
,  // measure 56
00000100
00000010
00000100
00001000
,  // measure 57
00000001
00001010
00000001
00001100
,  // measure 58
00100010
00000000
00000000
00000000
01000100
00000000
00000000
00000000
00000000
01000000
00000100
01000000
00000100
00010000
00001000
00010000
,  // measure 59
00001000
10000000
01000000
10000000
00010000
01000000
10000000
01000000
,  // measure 60
00100000
10000000
01000000
00010000
00001000
01000000
00100000
00010000
,  // measure 61
00001000
00010000
01000000
00100000
10000000
00010000
01000000
00001000
,  // measure 62
00010000
00000010
00001000
00010000
00001000
00010000
00100000
00010000
,  // measure 63
00001000
00000100
00000010
00001000
00010000
00001000
00000010
00000100
,  // measure 64
00010000
00001000
00000001
00001000
00000100
00000010
00001000
00000010
,  // measure 65
00000001
00001000
00000010
00010000
00000100
00010000
01000000
00010000
,  // measure 66
00001000
00100000
01000000
00010000
00001000
00000000
01000000
00001000
,  // measure 67
00020000
00000000
00000000
00000000
01000000
00000000
00000000
00001000
00000000
00000000
00000100
00000000
00031000
00000000
00000000
00000000
,  // measure 68
00012000
00000000
00000000
00000000
00000100
00000000
00000000
01003000
00000000
00000000
00010000
00000000
10000000
00000000
01000000
10000000
,  // measure 69
01000000
00000000
10000000
00010000
10000000
00000000
01000000
10000000
01000000
00000000
10000000
00010000
10000000
00000000
01000000
10000000
,  // measure 70
02000000
00000000
03100000
00001000
,  // measure 71
00010000
00000000
00001000
00100000
00001000
00000000
00010000
00000010
00010000
00000000
00001000
00100000
00001000
00000000
01000000
00001000
,  // measure 72
01000000
00000000
00001000
00010000
00002000
00000000
00000000
00000000
10003000
00000000
00000000
00000000
00010000
00000000
00000000
00000000
,  // measure 73
00001000
00000000
00000100
00000010
00000100
00000000
00001000
00000010
00001000
00000000
00000100
00000010
00000100
00000000
00001000
00000010
,  // measure 74
00001000
00000200
00000001
00001300
,  // measure 75
00010000
00100000
00010000
00100000
00010000
00100000
00010000
00000000
01000000
00100000
01000000
00100000
01000000
00100000
01000000
00100000
,  // measure 76
01000000
00000000
00001000
00010000
00000200
00000000
00000000
00000000
01000000
00000000
00000000
00000000
01000300
00000000
00000000
00000000
,  // measure 77
01000000
00000000
10000000
00000000
01000000
00000000
00010000
00000000
00100000
00000000
00001000
00000000
00010000
00000000
00001000
01000000
,  // measure 78
00001000
00000000
00010000
00000000
00000100
00000000
00001000
00000000
00000010
00000000
00000100
00000000
00001000
00000000
00000100
00000010
,  // measure 79
00000100
00000000
00000001
00000000
00000010
00000000
00001000
00000000
00010000
00000000
01000000
00000000
10000000
00000000
00100000
01000000
,  // measure 80
00100000
00000000
00010000
00000000
00001000
00000000
01000000
00000000
00100000
00000000
10000000
00000000
01000000
00000000
00010000
01000000
,  // measure 81
00010000
00000000
00001000
00000000
00000000
00000000
00000100
00000000
00000000
00000000
00000001
00000000
00000000
00000000
00000010
00001000
,  // measure 82
00000010
00001000
00000000
00010000
00000000
00100000
00000000
00010000
,  // measure 83
00002000
00000000
00000000
00000000
,  // measure 84
00000000
00000000
00000000
00000000
,  // measure 85
00003000
00000000
00000000
00000000
;

//---------------dance-single - ----------------
#NOTES:
     dance-single:
     :
     Hard:
     7:
     0.539,0.653,0.150,0.301,0.004:
0000
0000
0000
0000
,
0000
0000
0000
0000
,
1000
0001
1000
0001
,
1000
0001
1000
0001
,
1000
0100
0001
0100
,
1000
0100
0001
0100
,
1000
0000
0010
1000
0010
0000
0100
0001
,
0100
0000
0010
1000
0010
0000
0100
0010
,
0100
0000
0001
0010
0001
0000
1000
0100
,
0000
0000
0000
2000
,
3001
0000
0010
0000
0100
0000
0000
1000
0000
0000
0010
0000
0100
0000
0001
0000
,
0020
0000
0130
0010
0001
0100
0001
0010
,
0100
1000
0100
1000
0010
1000
0010
1000
,
0100
0010
0100
0010
0001
0010
0001
0010
,
0001
1000
0100
1000
0001
1000
0100
0010
,
0002
0000
0003
0000
,
1000
0100
1000
0100
0010
0001
0010
0100
,
2000
0000
0001
3001
,
0001
0010
0100
0010
0001
0100
0010
1000
,
0200
0000
0300
0000
,
1000
0100
0010
0100
1000
0010
0100
0001
,
0020
0031
0000
0000
,
1000
0100
0001
0100
,
1000
0010
1000
0100
,
0001
0010
0001
0100
,
1000
0100
0001
0010
,
1000
0100
0010
0100
,
1000
0001
0010
1000
,
0001
0100
1000
0100
,
0001
0010
1000
0100
,
0020
0000
0000
0000
,
0032
0000
2000
3003
,
0110
0001
0100
0001
0010
0100
1000
0100
,
0020
0000
0030
0000
,
1000
0100
1000
0010
0100
1000
0100
0010
,
2000
0002
3003
0000
,
0001
0100
0010
1000
0001
0100
0010
1000
,
0200
0000
0300
0000
,
0100
0010
0100
0001
0100
0010
0001
0100
,
2000
3000
1000
0000
0000
0000
0000
0000
,
1000
0000
0100
0000
0001
0000
0010
0100
,
0010
0000
0001
0000
0100
0000
0010
0001
,
0010
0000
0100
0000
1000
0000
0100
0010
,
0100
0000
0001
0000
0010
0100
1000
0100
,
0010
0001
0100
1000
,
0010
0001
1000
0100
,
0010
1000
0100
0001
,
0010
0000
0001
1000
0100
0010
0001
0010
,
2000
0000
0000
0000
,
3020
0000
0002
0033
,
1000
0001
0000
1100
0000
0001
1000
0010
,
2000
0000
3000
0000
,
0001
0010
0000
1100
0000
0010
0001
0100
,
0002
0103
0000
0000
,
1000
0001
0000
0110
0000
1000
0000
0100
,
2000
0000
3000
0000
,
0001
0100
0000
1010
0000
0011
0000
1001
,
0220
0330
2002
0000
0000
0000
3003
0000
,
1000
0100
0010
0001
1000
0100
0010
0001
,
1000
0010
0100
0001
1000
0001
0100
1000
,
0100
0001
0010
0001
1000
0100
1000
0100
,
0010
0100
0010
0100
1000
0010
0001
0100
,
0010
0001
0010
0100
0010
0001
0010
0100
,
1000
0010
1000
0100
1000
0010
0001
0010
,
1000
0100
0010
0001
0100
0010
1000
0100
,
0010
0001
0001
1000
0001
1000
1000
1000
,
2002
0000
0000
3003
,
0220
0330
2002
3003
,
1000
0100
0010
0100
1000
0100
0001
0100
,
2000
0000
3000
0000
,
0001
0100
0010
0100
0001
0100
1000
0100
,
0002
0013
0000
0000
,
1000
0001
0010
0001
1000
0100
1000
0001
,
0200
0000
0300
0000
,
1000
0100
0001
0100
1000
0010
0100
1000
,
0200
0301
0000
0000
,
0000
1000
0000
0001
0000
1000
0000
0001
,
0000
1000
0000
0001
0000
1000
0000
0001
,
0000
1000
0000
0100
0000
0001
0000
0100
,
0000
1000
0000
0100
0000
0001
0000
0100
,
1000
0101
0000
0011
,
0000
1010
0000
1100
,
1001
0000
0000
0000
;

//---------------dance-single - ----------------
#NOTES:
     dance-single:
     :
     Medium:
     6:
     0.467,0.595,0.089,0.327,0.000:
0000
0000
0000
0000
,
0000
0000
0000
0000
,
1000
0001
1000
0001
,
1000
0001
1000
0001
,
0100
0010
0100
0010
,
0100
0010
0100
0010
,
1000
0000
0001
0010
0001
0000
1000
0010
,
1000
0000
0001
0100
0001
0000
1000
0100
,
1000
0000
0001
1000
0001
0000
1000
0001
,
0000
0000
0000
0001
,
2000
0000
0000
3000
,
0220
0000
0330
0000
0001
1000
0001
1000
,
0001
1000
0100
0010
,
0001
0000
1000
0000
0001
0000
1000
0001
,
1000
0010
0100
0001
,
2000
0000
3001
0000
,
1000
0100
0010
0001
,
2000
3100
0000
0001
,
0010
0100
1000
0001
,
0020
0000
1030
0000
,
0100
0010
1000
0001
,
0200
1300
0000
0000
,
1000
0100
1000
0100
,
0010
0100
0010
0001
,
0100
0010
0100
0010
,
1000
0010
1000
0100
,
0010
0001
0010
0001
,
0100
0001
0100
0010
,
1000
0100
1000
0100
,
0010
1000
0010
0001
,
0200
0000
0000
0000
,
0320
0000
0000
0000
,
1030
0100
0010
1000
,
0020
0000
0031
0000
,
1000
0001
0100
1000
,
0200
0301
0000
1000
,
0001
0010
0100
0001
,
0200
0000
0310
0000
,
0001
1000
0100
0001
,
0200
1300
0000
0000
,
1000
0100
0000
0010
0000
0001
0000
0100
,
0000
0010
0000
1000
0000
0100
0000
0010
,
0100
0010
0000
0001
0000
0100
0000
0010
,
0000
1000
0000
0100
0000
0010
0000
0100
,
0010
0100
0000
1000
0000
0010
0000
0100
,
0000
0001
0000
0010
0000
0100
0000
0010
,
0100
0010
0000
0001
0000
0010
0000
0100
,
0000
1000
0000
0100
0000
0001
0000
0100
,
2000
0000
0000
0000
,
3002
0000
2003
0000
,
3001
0020
0130
2000
,
3200
0000
0301
0000
,
0100
2000
3010
0002
,
0023
1030
0000
0000
,
1000
0002
0103
0002
,
0023
0000
1030
0000
,
0001
0200
1300
0020
,
1030
0110
0000
0000
,
1000
0001
0000
1000
0001
1000
0000
0001
,
1000
0001
0000
1000
0001
1000
0001
1000
,
0100
0010
0000
0100
0010
0100
0000
0010
,
0100
0010
0000
0100
0010
0001
1000
0100
,
0010
0001
0000
0010
0001
0010
0000
0001
,
0010
0001
0000
0010
0001
0100
0010
1000
,
0100
1000
0000
0100
1000
0100
0000
1000
,
0100
0010
0001
0100
0010
1000
0100
0010
,
0002
0000
0000
0000
,
2003
3002
2003
3002
,
1003
1100
0001
0101
,
2000
0000
3010
0000
,
0001
0011
1000
1010
,
0002
1003
0000
0000
,
0100
1100
0010
0011
,
0200
0000
1300
0000
,
0010
1010
0100
0101
,
0020
0031
0000
0000
,
1000
0001
0001
1000
0001
1000
1000
0000
,
0100
0010
0010
0100
0010
0100
0100
0000
,
1000
0010
0010
1000
0010
1000
1000
0000
,
0001
0100
0100
0001
0001
0100
0100
0001
,
0010
0001
0001
0010
0001
0010
0010
0000
,
0100
1000
1000
0100
1000
0100
0200
0000
,
0000
0000
0000
0000
,
0000
0000
0000
0000
,
0300
0000
0000
0000
;

//---------------dance-single - ----------------
#NOTES:
     dance-single:
     :
     Easy:
     3:
     0.243,0.327,0.274,0.000,0.000:
0000
0000
0000
0000
,
0000
0000
0000
0000
,
1001
0000
0000
0000
,
0000
0000
0000
0000
,
1001
0000
0001
0000
,
1001
0000
1000
0000
,
1001
0000
0001
0000
,
1001
0000
1000
0000
,
0110
0000
0110
0000
,
0000
0000
0000
0000
,
1000
0000
0000
0001
,
0010
0000
0000
0000
,
0001
0000
0001
0000
,
0001
0000
0001
0000
,
1000
0000
0100
0000
,
1000
0000
0100
0000
,
0010
0000
0001
0000
,
0010
0000
0001
0000
,
1000
0000
0010
0000
,
1000
0000
0010
0000
,
0100
0000
0001
0000
,
0100
0000
0001
0000
,
1001
0000
0000
0000
,
0001
0000
0000
0000
,
0110
0000
0000
0000
,
0010
0000
0000
0000
,
1001
0000
0000
0000
,
1000
0000
0000
0000
,
0110
0000
0000
0000
,
0100
0000
0000
0000
,
0001
0000
0000
0000
,
1000
0000
0001
0000
,
1001
0000
1000
0000
,
0001
0000
0000
0000
,
0110
0000
0010
0000
,
0001
0000
0000
0000
,
1001
0000
1000
0000
,
0010
0000
0000
0000
,
0110
0000
0100
0000
,
0010
0000
0000
0000
,
1001
0000
0000
0000
,
1100
0000
0000
0000
,
1001
0000
0000
0000
,
0101
0000
0000
0000
,
1001
0000
0000
0000
,
1010
0000
0000
0000
,
1001
0000
0000
0000
,
0011
0000
0000
0000
,
1000
0000
0000
0000
,
0001
0000
1000
0000
,
1001
1000
1000
0000
,
0001
0000
0001
0000
,
0110
0010
0010
0000
,
0100
0000
0100
0000
,
1001
0001
0001
0000
,
1000
0000
1000
0000
,
0110
0100
0100
0000
,
0010
0010
0000
0000
,
1000
0100
0010
0000
,
0001
0010
0100
0000
,
1000
0010
0100
0000
,
0001
0100
0010
0000
,
1000
0001
0010
0000
,
0001
1000
0010
0000
,
1000
0001
0100
0000
,
0001
1000
0100
1000
,
0001
0000
0000
0000
,
1000
0000
0001
0000
,
1001
0000
1000
0100
,
0010
0000
0001
0000
,
1001
0000
0001
0100
,
0010
0000
1000
0000
,
1001
0000
1000
0010
,
0100
0000
0001
0000
,
1001
1000
0001
0010
,
0010
0001
0000
0000
,
1000
0100
1000
0100
,
1000
0010
1000
0010
,
0100
0010
0100
0010
,
0100
0001
0010
0000
,
0001
0100
0010
0100
,
0001
0100
0010
1000
,
0100
0000
0000
0000
;
