#TITLE:Metal gear -;
#SUBTITLE:You Can Run But You Can't Hide;
#ARTIST:Kazuki Muraoka;
#TITLETRANSLIT:;
#SUBTITLETRANSLIT:;
#ARTISTTRANSLIT:;
#GENRE:;
#CREDIT:;
#BANNER:;
#BACKGROUND:;
#LYRICSPATH:;
#CDTITLE:;
#MUSIC:Metal gear - You Can Run But You Can't Hide.ogg;
#OFFSET:-0.050;
#SAMPLESTART:12.100;
#SAMPLELENGTH:12.000;
#SELECTABLE:YES;
#BPMS:0.000=180.300;
#STOPS:;
#BGCHANGES:;
#KEYSOUNDS:;

//---------------dance-single - PanStyle----------------
#NOTES:
     dance-single:
     PanStyle:
     Challenge:
     11:
     0.946,0.972,0.493,0.381,0.829,513.000,44.000,34.000,135.000,0.000,0.000,0.946,0.972,0.493,0.381,0.829,513.000,44.000,34.000,135.000,0.000,0.000: // measure 1
0000
0000
0MM0
0MM0
0MM0
0MM0
0MM0
0MM0
0MM0
0000
0MM0
0MM0
0000
0000
0000
0000
,  // measure 2
0001
1001
00M0
0M00
00M0
000M
M000
00M0
,  // measure 3
0M00
000M
00M0
0M00
000M
M000
0M00
0M00
,  // measure 4
M001
0M11
M000
000M
0M00
00M0
M000
00M0
,  // measure 5
000M
000M
0M00
M000
00M0
M000
0M00
M000
,  // measure 6
010M
011M
M000
000M
00M0
000M
M000
00M0
,  // measure 7
0M00
000M
00M0
M000
00M0
0M00
000M
00M0
,  // measure 8
010M
11M0
000M
00M0
000M
000M
000M
0000
,  // measure 9
1000
0001
1000
0000
0001
0000
1000
0100
1000
0000
0100
0000
0010
0100
0010
0000
,  // measure 10
0100
1000
0100
0000
1000
0100
0010
0100
1000
0000
0100
1000
0100
0000
1000
0001
,  // measure 11
1000
0001
1000
0000
0001
0010
0100
1000
0001
0000
1000
0001
1000
0000
0001
0100
,  // measure 12
0010
1000
0001
0000
1000
0100
0010
0100
1000
0000
0001
1000
0001
0000
0000
0000
,  // measure 13
1000
0010
1000
0000
0010
1000
0001
0100
0001
0000
1000
0001
1000
0000
0001
0010
,  // measure 14
0100
1000
0001
0000
1000
0100
0010
0001
1000
0000
0001
1000
0001
0000
1000
0100
,  // measure 15
1000
0100
1000
0000
0001
1000
0001
1000
0001
0000
0100
0001
0100
0000
0001
0100
,  // measure 16
0010
1000
0001
0000
1000
0100
0010
0001
1000
0000
0001
1000
0001
0000
0000
0000
,  // measure 17
1000
0100
1000
0000
0100
0000
0010
0100
0010
0000
0100
0000
1000
0100
1000
0000
,  // measure 18
0100
0000
1100
0000
0000
0000
1000
0100
1000
0000
0001
0000
0100
0000
0010
0000
,  // measure 19
1000
0000
1010
0000
0000
0000
1000
0010
1000
0000
0010
0000
0100
0000
0001
0000
,  // measure 20
0100
0000
0101
0000
0000
0000
0001
1000
0001
0000
1000
0000
0001
0000
1000
0000
,  // measure 21
0001
0100
0001
1000
0100
1000
0001
0100
0020
0000
0000
0000
0130
0000
0000
0000
,  // measure 22
0101
0000
0101
0000
0000
0000
1000
0010
1000
0000
0100
0000
0010
0000
0001
0000
,  // measure 23
1000
0000
1001
0000
0000
0000
0001
0010
0001
0000
1000
0000
0001
0000
0010
0000
,  // measure 24
0001
0000
0011
0000
0000
0000
0001
0100
0001
0000
1000
0000
0010
0000
0100
0000
,  // measure 25
0101
0000
0000
1010
0000
0000
1001
0000
0101
0000
0000
0000
1001
0000
0000
0000
,  // measure 26
0001
0000
1000
0100
1000
0000
0100
0010
0100
0000
0010
0001
0010
0000
0001
0100
,  // measure 27
0001
0000
0100
0010
0100
0000
0220
0330
0000
0000
2020
3030
0000
0000
0000
0000
,  // measure 28
1000
0000
0001
1000
0001
0000
1000
0100
1000
0000
0100
0010
0100
0000
0022
0033
,  // measure 29
0000
0000
0202
0303
0000
0000
2020
3030
0000
0000
2002
3003
0000
0000
0000
0000
,  // measure 30
1000
0000
0001
0010
0001
0000
0010
0100
0010
0000
0100
1000
0100
0000
1000
0100
,  // measure 31
1000
0000
0100
0010
0100
0000
0010
0001
0010
0000
2002
3003
0000
0000
0000
0000
,  // measure 32
0001
0000
0100
0000
0002
0003
1000
0000
0100
0000
2000
3000
0000
0000
0001
0000
,  // measure 33
1000
0100
1000
0001
0100
0001
1000
0001
0100
0010
1000
0100
0010
0001
0010
0100
,  // measure 34
1000
100M
00M0
000M
0M00
000M
M000
00M0
,  // measure 35
0M00
M000
000M
0M00
000M
M000
00M0
0M00
,  // measure 36
0M01
10M1
0M00
00M0
M000
000M
0M00
00M0
,  // measure 37
M000
000M
00M0
000M
0M00
M000
00M0
000M
,  // measure 38
100M
11M0
00M0
000M
0M00
M000
00M0
0M00
,  // measure 39
000M
00M0
0M00
M000
00M0
0M00
000M
M000
,  // measure 40
001M
M110
000M
M000
0000
M000
0000
0000
,  // measure 41
0001
0100
0001
0000
0100
0000
0010
1000
0010
0000
0100
0000
0001
0100
0001
0000
,  // measure 42
0100
0010
0100
0000
0010
1000
0010
1000
0010
0000
1000
0001
1000
0000
0001
0010
,  // measure 43
0100
1000
0001
0000
1000
0001
0100
0001
1000
0000
0001
1000
0001
0000
1000
0001
,  // measure 44
1000
0010
1000
0000
0010
1000
0001
0100
0001
0000
1000
0001
1000
0000
0000
0000
,  // measure 45
1000
0001
1000
0000
0001
0010
0001
1000
0001
0000
1000
0010
1000
0000
0010
0100
,  // measure 46
0001
0100
0001
0000
1000
0010
0100
0001
1000
0000
0001
1000
0001
0000
1000
0100
,  // measure 47
0010
0001
1000
0000
0001
0010
0100
1000
0001
0000
1000
0001
1000
0000
0001
0010
,  // measure 48
0100
0010
0001
0000
1000
0001
1000
0001
1000
0000
0001
0100
0010
0000
0000
0000
,  // measure 49
0010
1000
0010
0000
1000
0000
0001
1000
0001
0000
1000
0000
0100
0010
0100
0000
,  // measure 50
0010
0000
0010
0000
0000
0000
0001
0010
0001
0000
0010
0000
0100
0000
1000
0000
,  // measure 51
0001
0000
1001
0000
0000
0000
0001
1000
0001
0000
1000
0000
0100
0000
0010
0000
,  // measure 52
0001
0000
0011
0000
0000
0000
0001
1000
0001
0000
1000
0000
0001
0000
1000
0000
,  // measure 53
0001
0100
0001
1000
0001
0010
0100
1000
0200
0000
0000
0000
0310
0000
0000
0000
,  // measure 54
0010
0000
0011
0000
0000
0000
0001
1000
0001
0000
1000
0000
0010
0000
0100
0000
,  // measure 55
0001
0000
1001
0000
0000
0000
1000
0001
1000
0000
0100
0000
0010
0000
0001
0000
,  // measure 56
1000
0000
1001
0000
0000
0000
0001
0100
0001
0000
0100
0000
0010
0000
1000
0000
,  // measure 57
1010
0000
0000
0101
0000
0000
1001
0000
1010
0000
0000
0000
0101
0000
0000
0000
,  // measure 58
1000
0000
0001
0100
0001
0000
0100
0010
0100
0000
0010
1000
0010
0000
1000
0001
,  // measure 59
1000
0000
0001
0100
0001
0000
0202
0303
0000
0000
2002
3003
0000
0000
0000
0000
,  // measure 60
0001
0000
1000
0001
1000
0000
0001
0100
0001
0000
0100
0010
0100
0000
0220
0330
,  // measure 61
0000
0000
2020
3030
0000
0000
2002
3003
0000
0000
0202
0303
0000
0000
0000
0000
,  // measure 62
0001
0000
0100
0001
0100
0000
0001
0010
0001
0000
0010
0100
0010
0000
0100
1000
,  // measure 63
0100
0000
1000
0010
1000
0000
0010
1000
0010
0000
2020
3030
0000
0000
0000
0000
,  // measure 64
0001
0000
0010
0000
0200
0300
0010
0000
0001
0000
2000
3000
0000
0000
0001
0000
,  // measure 65
1000
0100
1000
0001
1000
0100
1000
0001
0100
0001
0010
0001
0100
0010
1000
0001
,  // measure 66
1000
0001
1001
0M00
00M0
0M00
M000
0M00
,  // measure 67
000M
0M00
M000
00M0
0M00
000M
M000
0000
;
