#TITLE:Knightman Stage [Megaman 6];
#SUBTITLE:;
#ARTIST:Yoko Shimomura;
#TITLETRANSLIT:;
#SUBTITLETRANSLIT:;
#ARTISTTRANSLIT:;
#GENRE:;
#CREDIT:;
#MENUCOLOR:;
#METERTYPE:DDR;
#BANNER:Knightman Stage-bn.png;
#BACKGROUND:Knightman Stage-bg.png;
#LYRICSPATH:;
#CDTITLE:!tsm-cdtitle.png;
#MUSIC:Knightman Stage [Megaman 6].mp3;
#OFFSET:1.752;
#SAMPLESTART:52.500;
#SAMPLELENGTH:15.000;
#SELECTABLE:YES;
#LISTSORT:;
#DISPLAYBPM:93:150;
#BPMS:0.000=132.000,8.000=120.000,10.000=93.000,13.000=150.000;
#STOPS:;
#BGCHANGES:;
#ATTACKS:;

//---------------dance-single - TimeSpaceMage----------------
#NOTES:
     dance-single:
     TimeSpaceMage:
     Hard:
     9:
     0.646,0.615,0.320,0.160,0.196: // measure 1
0000
0000
0000
0000
,  // measure 2
1000
0000
0100
0000
0010
0000
0001
0000
0010
0000
0100
0000
,  // measure 3
1000
0000
0000
0000
0010
0000
0000
0000
0100
0000
0000
0000
0001
0000
0000
0000
0020
0000
0000
0000
0000
0200
0000
0000
,  // measure 4
0000
0000
0000
0330
,  // measure 5
0010
0000
0001
0011
0000
0100
1100
0000
,  // measure 6
1000
1010
0000
0000
0100
0001
0010
0000
,  // measure 7
0100
0000
1000
1100
0000
0010
0011
0000
,  // measure 8
0001
1001
0000
0000
0100
0001
1000
0000
,  // measure 9
0010
1000
0010
1000
0010
0100
0010
0100
,  // measure 10
0001
0010
0100
0010
0001
0010
0100
0010
,  // measure 11
0001
0100
0010
0100
0001
0010
0100
0010
,  // measure 12
0002
0010
1000
0003
0200
0010
0001
0300
,  // measure 13
1000
0000
0001
1001
0000
0100
0110
0000
,  // measure 14
0010
0011
0000
0000
0001
1000
0010
0000
,  // measure 15
0100
0000
0001
0101
0000
1000
1010
0000
,  // measure 16
0001
0011
0000
0000
0010
0001
0010
0000
,  // measure 17
0100
1000
0100
1000
0100
0010
0100
0010
,  // measure 18
0001
0010
0100
0010
0001
0100
0010
1000
,  // measure 19
0010
0100
0010
0100
0001
0010
0100
1000
,  // measure 20
0020
0000
0000
0000
0000
0000
0030
0000
0200
0000
0001
0300
0200
0000
0000
0300
,  // measure 21
0010
1000
0000
1000
0010
0000
1000
0000
0000
0000
0100
0000
0110
0000
0000
0000
,  // measure 22
0010
0001
0000
0001
0010
0000
0001
0000
0000
0000
0001
0000
0110
0000
0000
0000
,  // measure 23
0000
1000
0100
1000
0100
0010
0100
0010
,  // measure 24
0000
0001
0010
0001
0010
0100
1000
0010
,  // measure 25
1000
0001
0000
1000
0001
0000
1000
0000
0000
0000
0001
0000
1001
0000
0000
0000
,  // measure 26
0001
1000
0000
0001
1000
0000
0001
0000
0000
0000
1000
0000
1001
0000
0000
0000
,  // measure 27
0000
0001
0010
0001
0100
0010
0100
0010
,  // measure 28
0000
0010
1000
0010
1000
0100
0010
0001
,  // measure 29
1000
0100
0000
0100
0010
0000
0001
0000
0000
0000
0010
0000
0110
0000
0000
0000
,  // measure 30
0001
0010
0000
0010
0100
0000
1000
0000
0000
0000
1000
0000
1100
0000
0000
0000
,  // measure 31
1000
0010
0000
0100
0010
0000
0100
0000
0000
0000
0010
0000
1010
0000
1000
0000
,  // measure 32
0001
0100
0000
0010
0100
0000
0010
0000
0000
0000
1000
0000
1100
0000
0010
0000
,  // measure 33
0001
0100
0000
0010
0000
1000
0010
0000
0100
0001
0100
0000
0010
1000
0002
0000
,  // measure 34
0003
0100
0010
1000
0010
0100
0010
0100
,  // measure 35
0001
0010
0010
0100
1000
1000
0100
0010
,  // measure 36
0001
0010
0001
0010
0100
1000
1000
0010
,  // measure 37
0100
0100
0001
0010
0100
1000
0100
0010
,  // measure 38
0001
0010
0010
0100
1000
1000
0010
0100
,  // measure 39
0010
0100
0010
0100
0020
1000
0100
1000
,  // measure 40
0000
0200
0030
0001
0000
0010
0001
0020
,  // measure 41
0000
0000
0000
0330
0100
0000
1000
1100
,  // measure 42
0000
0010
0011
0000
0001
0101
0000
0000
,  // measure 43
0010
1000
0100
0000
0010
0000
0001
0011
,  // measure 44
0000
0100
1100
0000
1000
1001
0000
0000
,  // measure 45
0010
1000
0001
0000
0100
0001
0100
0001
,  // measure 46
0100
0010
0100
0010
1000
0100
0010
0100
,  // measure 47
1000
0100
0010
0100
1000
0010
0100
0010
,  // measure 48
1000
0100
0010
0100
2000
0100
0001
3000
,  // measure 49
0020
0100
1000
0030
0001
0000
1000
1001
,  // measure 50
0000
0010
0110
0000
0100
1100
0000
0000
,  // measure 51
1000
0001
0100
0000
0010
0000
1000
1010
,  // measure 52
0000
0001
0101
0000
1000
1100
0000
0000
,  // measure 53
0100
1000
0100
0000
0010
0001
0010
0001
,  // measure 54
0010
0100
0010
0100
1000
0100
0010
0100
,  // measure 55
1000
0010
0100
0001
0100
0010
0100
0010
,  // measure 56
1000
0100
0010
0001
0200
0000
0000
0300
,  // measure 57
0020
0000
1000
0030
0020
0000
0000
0030
0100
0001
0000
0001
0100
0000
0001
0000
,  // measure 58
0000
0000
0010
0000
0110
0000
0000
0000
0100
1000
0000
1000
0100
0000
1000
0000
,  // measure 59
0000
1000
0110
0000
0000
0001
0010
0001
,  // measure 60
0010
0100
0010
0100
0000
1000
0100
1000
,  // measure 61
0100
0000
0010
0000
0001
0000
0100
0000
0001
1000
0000
0001
1000
0000
0001
0000
,  // measure 62
0000
0000
1000
0000
1001
0000
0000
0000
1000
0001
0000
1000
0001
0000
1000
0000
,  // measure 63
0000
0001
1001
0000
0000
1000
0100
1000
,  // measure 64
0010
0100
0010
0100
0000
0100
0001
0100
,  // measure 65
0001
0000
0010
0000
0100
0000
1000
0000
0001
0010
0000
0010
0100
0000
1000
0000
,  // measure 66
0000
0000
0100
0000
0110
0000
0000
0000
1000
0100
0000
0100
0010
0000
0001
0000
,  // measure 67
0000
0000
0001
0000
0011
0000
0000
0000
0001
0100
0000
0010
0100
0000
0010
0000
,  // measure 68
0000
0000
0100
0000
0101
0000
0001
0000
1000
0010
0000
0100
0010
0000
0100
0000
,  // measure 69
0000
0000
0001
0000
0011
0000
0100
0000
1000
0010
0000
0100
0000
0001
0100
0000
,  // measure 70
0010
1000
0010
0000
0100
0001
2000
0000
3000
0000
0010
0000
0100
0000
0001
0000
,  // measure 71
0100
0010
0100
0010
1000
0100
0100
0010
,  // measure 72
0001
0001
0010
0100
1000
0100
1000
0100
,  // measure 73
0010
0001
0001
0100
0010
0010
1000
0100
,  // measure 74
0010
0001
0010
0100
1000
0100
0100
0010
,  // measure 75
0001
0001
0100
0010
0100
0010
0100
0010
,  // measure 76
0200
0001
0010
0001
0000
0020
0300
1000
,  // measure 77
0000
0100
1000
0200
0000
0000
0000
0330
;
