#TITLE:Flash Man;
#SUBTITLE:;
#ARTIST:Manami Matsumae;
#TITLETRANSLIT:;
#SUBTITLETRANSLIT:;
#ARTISTTRANSLIT:;
#CREDIT:;
#BANNER:Flash Man-bn.png;
#BACKGROUND:Flash Man-bg.png;
#LYRICSPATH:;
#CDTITLE:;
#MUSIC:Flash Man.mp3;
#OFFSET:-0.400;
#SAMPLESTART:26.300;
#SAMPLELENGTH:15.000;
#SELECTABLE:YES;
#BPMS:0.000=150.050;
#STOPS:;
#BGCHANGES:;

//---------------dance-single - ----------------
#NOTES:
     dance-single:
     :
     Hard:
     8:
     0.723,0.744,0.000,0.736,0.284: // measure 1
0000
0000
0000
0000
,  // measure 2
0000
0000
0000
0000
,  // measure 3
0000
0000
1000
0100
1000
0100
0000
0000
0010
0100
0010
0100
0000
0000
0000
0000
,  // measure 4
0000
0000
0001
0010
0001
0010
0000
0001
0000
0100
0010
0000
0100
0000
0010
0000
,  // measure 5
2000
0000
0000
0000
3001
0000
0100
0000
0020
0000
0000
2030
0000
0000
3002
0000
,  // measure 6
0023
0000
0000
0032
0000
0000
0203
0000
0301
0000
1000
0000
0100
0010
0000
0001
,  // measure 7
0000
0000
0100
0010
0100
0010
0000
0000
0001
0010
0001
0010
0000
0000
0000
0000
,  // measure 8
0000
0000
0100
0010
0100
0010
0000
0100
0000
0010
1000
0000
0100
0000
0010
0000
,  // measure 9
0002
0000
0000
0000
1003
0000
0010
0000
0200
0000
0000
0320
0000
0000
2030
0000
,  // measure 10
3200
0000
0000
0320
0000
0000
0032
0000
0103
0000
0001
0000
0010
0100
0000
0010
,  // measure 11
0000
0000
0001
0010
0001
0010
0000
0000
1000
0010
1000
0010
0000
0000
0000
0000
,  // measure 12
0000
0000
0001
0010
0001
0010
0000
0001
0000
0010
0001
0000
1000
0000
0001
0000
,  // measure 13
0020
0000
0000
0000
0130
0000
1000
0000
0020
0000
0000
0230
0000
0000
0302
0000
,  // measure 14
0023
0000
0000
0230
0000
0000
2300
0000
3100
0000
0010
0000
0001
0010
0000
0100
,  // measure 15
0000
0000
0100
0010
0100
0010
0000
0000
0001
1000
0001
1000
0000
0000
0000
0000
,  // measure 16
1000
0100
0000
0010
0000
0100
0000
1000
0200
0000
0000
0000
0000
0000
0000
0000
,  // measure 17
0300
1000
0100
0010
0200
0000
1300
0001
,  // measure 18
0100
0020
0000
2000
0030
0000
3000
0001
,  // measure 19
0100
0000
0100
0000
0001
1000
0100
0020
,  // measure 20
0000
0000
0001
0000
0000
0130
0010
0100
,  // measure 21
0000
1000
0100
0010
0200
0000
0310
0001
,  // measure 22
1000
0200
0000
0020
0300
0000
0030
0001
,  // measure 23
1000
0000
0001
0000
0100
0010
1000
0200
,  // measure 24
0000
0000
0010
0000
0300
0001
1000
0010
,  // measure 25
2000
0100
0100
0100
0100
0100
0100
0000
,  // measure 26
3020
0100
0100
0030
0002
0010
0010
0003
,  // measure 27
0100
0010
1000
0100
0000
1000
0001
0010
,  // measure 28
0001
0001
0100
0100
0010
0010
1000
1000
,  // measure 29
0200
0010
0010
0010
0010
0010
0010
0300
,  // measure 30
2000
0100
0100
3000
0020
0001
0001
0030
,  // measure 31
1000
0100
0010
0001
0000
0100
0010
1000
,  // measure 32
0001
0001
0010
0010
0100
0100
1000
1000
,  // measure 33
0000
0001
0100
0010
2000
0000
3001
0010
,  // measure 34
0001
0200
0000
0002
0300
0000
0003
1000
,  // measure 35
0010
0000
0010
0000
0001
0100
0010
2000
,  // measure 36
0000
0000
0100
0000
0000
3001
0100
0010
,  // measure 37
0000
1000
0100
0010
0002
0000
0103
0001
,  // measure 38
1000
0002
0000
2000
0003
0000
0000
3010
,  // measure 39
0100
0000
0100
0000
0001
0010
0001
2000
,  // measure 40
0000
0000
0010
0000
0000
3001
0100
0010
,  // measure 41
2000
0100
0100
0100
0100
0100
0100
3000
,  // measure 42
0002
0100
0100
0003
0020
0100
0100
0030
,  // measure 43
1000
0100
1000
0001
0000
0100
0001
1000
,  // measure 44
0100
0100
1000
1000
0001
0001
0010
0010
,  // measure 45
0002
0100
0100
0100
0100
0100
0100
0003
,  // measure 46
2000
0100
0100
3000
0002
0010
0010
0003
,  // measure 47
0001
0100
0010
1000
0000
1000
0100
0010
,  // measure 48
0001
0001
0100
0100
0001
0001
1000
1000
,  // measure 49
0000
1000
0100
0010
0002
0000
0103
0001
,  // measure 50
1000
0200
0000
2000
0300
0000
3000
0001
,  // measure 51
0100
0000
0100
0000
0010
0100
0001
2000
,  // measure 52
0000
0000
0100
0000
3000
0001
0100
0010
,  // measure 53
0000
0100
0001
0100
0020
0000
1030
0001
,  // measure 54
0010
0002
0000
0200
0003
0000
0300
0010
,  // measure 55
1000
0000
1000
0000
0100
0010
0001
0100
;

//---------------dance-single - ----------------
#NOTES:
     dance-single:
     :
     Medium:
     6:
     0.528,0.496,0.000,0.814,0.090:
0000
0000
0000
0000
,
0000
0000
0000
0000
,
0000
1000
0100
0000
0010
0001
0000
0000
,
0000
0000
0001
0000
0010
0000
0000
0001
0000
0000
0010
0000
0100
0000
0010
0000
,
0200
0000
0000
0000
1300
0000
0001
0000
0100
0000
0000
0100
0000
0000
0100
0000
,
0001
0000
0000
0001
0000
0000
0001
0000
0010
0000
0001
0000
1000
0000
0000
0010
,
0000
1000
0100
0000
1000
0001
0000
0000
,
0000
0000
0001
0000
0010
0000
0000
0001
0000
0000
0100
0000
0001
0000
0100
0000
,
0002
0000
0000
0000
1003
0000
0100
0000
0010
0000
0000
0010
0000
0000
0010
0000
,
0100
0000
0000
0100
0000
0000
0100
0000
1000
0000
0001
0000
1000
0000
0000
0100
,
0000
1000
0001
0000
0100
0001
0000
0000
,
0000
0000
1000
0000
0100
0000
0000
0010
0000
0000
0001
0000
0010
0000
0001
0000
,
0020
0000
0000
0000
0031
0000
0010
0000
0100
0000
0000
0100
0000
0000
0100
0000
,
0010
0000
0000
0010
0000
0000
0010
0000
0001
0000
0100
0000
0001
0000
0000
0010
,
0000
1000
0100
0000
0001
0010
0000
0000
,
0010
0000
0000
0100
0000
0010
0000
0000
0200
0000
0000
0000
0000
0000
0000
0000
,
0300
0001
0000
0010
0200
0000
0310
0000
,
0100
2000
0000
0200
3000
0000
0000
1300
,
0010
0000
0010
0000
0100
0000
0010
2000
,
0000
0000
0000
0000
0000
3100
0000
0010
,
0000
1000
0000
0100
0020
0000
0130
0000
,
1000
0002
0000
0020
0003
0000
0000
0031
,
0100
0000
0100
0000
0001
0000
1000
0020
,
0000
0000
0000
0000
0030
0100
0000
0001
,
0020
0000
0100
0000
0100
0000
0100
0030
,
0002
0000
1000
0003
0200
0000
0010
0300
,
0002
0000
0103
0000
0000
2000
0000
0000
,
3002
0023
0230
2300
,
3002
0000
0010
0000
0010
0000
0010
0003
,
2000
0000
0001
3000
0200
0000
0010
0300
,
0002
0000
0103
0000
0000
2000
0000
0000
,
3200
0320
0032
2003
,
3000
0001
0000
1000
0200
0000
0310
0000
,
0100
2000
0000
0002
3000
0000
0000
1003
,
0100
0000
0100
0000
0001
0000
0100
0020
,
0000
0000
0000
0000
0000
1030
0000
0100
,
0000
0100
0000
0010
2000
0000
3001
0000
,
0010
0200
0000
2000
0300
0000
0000
3010
,
0100
0000
0100
0000
0001
0000
0010
0200
,
0000
0000
0000
0000
0000
1300
0000
0000
,
0020
0000
0100
0000
0100
0000
0100
0030
,
2000
0000
0001
3000
0200
0000
0010
0300
,
0002
0000
0103
0000
0000
0020
0000
0000
,
0230
0320
2030
3002
,
2003
0000
0010
0000
0010
0000
0010
3000
,
0002
0000
1000
0003
0200
0000
0010
0300
,
0020
0000
1030
0000
0000
0002
0000
0000
,
0203
0320
2030
3020
,
0030
1000
0000
0100
0020
0000
0130
0000
,
0010
0002
0000
0200
0003
0000
0000
0301
,
0100
0000
0100
0000
0010
0000
0100
0002
,
0000
0000
0000
0000
0000
0103
0000
0010
,
0000
0100
0000
0010
2000
0000
3010
0000
,
0100
0002
0000
0200
0003
0000
0000
0301
,
0100
0000
0100
0000
0010
0000
0000
1000
;

//---------------dance-single - ----------------
#NOTES:
     dance-single:
     :
     Easy:
     3:
     0.382,0.496,0.000,0.917,0.000:
0000
0000
0000
0000
,
0000
0000
0000
0000
,
0000
0001
0000
0000
0100
0000
0000
0000
,
0000
0001
0000
0100
0000
0010
0000
0000
,
2000
0000
3100
0000
0200
0000
0000
0300
,
0020
0000
0031
0100
,
0000
1000
0000
0000
0100
0000
0000
0000
,
0000
0001
0000
0010
0000
0010
0000
0000
,
0002
1003
0200
0000
,
0320
0000
0130
1000
,
0000
1000
0000
0000
0100
0000
0000
0000
,
0000
0001
0000
0010
0000
0100
0000
0000
,
0002
0000
0013
0000
0002
0000
0000
0003
,
2000
0000
3100
0010
,
0000
1000
0000
0000
0100
0000
0000
0000
,
0020
0000
0000
0000
0200
0000
0000
0330
,
0000
0001
0000
0000
2000
0000
3010
0000
,
2000
0000
0000
0200
3000
0000
0000
0000
,
0310
0000
0010
0000
0100
0000
0000
2000
,
0000
0000
0000
0000
0000
3100
0000
0000
,
0000
0001
0000
0000
2000
0000
3100
0000
,
0020
0000
0000
0200
0030
0000
0000
0000
,
0301
0000
0001
0000
0100
0000
0000
0020
,
0000
0000
0000
0000
0000
0130
0000
0000
,
0002
0000
0000
0000
0000
0000
0000
0003
,
2000
0000
0000
3000
0002
0000
0000
0003
,
0200
0000
0310
0000
0000
2000
0000
0000
,
3020
0230
0302
2003
,
3002
0000
0000
0000
0000
0000
0000
0003
,
2000
0000
0000
3000
0200
0000
0000
0300
,
2000
0000
3010
0000
0000
0200
0000
0000
,
0320
2030
3020
0230
,
0300
0001
0000
0000
0020
0000
0130
0000
,
0020
0000
0000
0002
0030
0000
0000
0000
,
0103
0000
0100
0000
1000
0000
0000
0020
,
0000
0000
0000
0000
0000
1030
0000
0000
,
0000
0001
0000
0000
2000
0000
3001
0000
,
0002
0000
0000
0020
0003
0000
0000
0000
,
0031
0000
0001
0000
1000
0000
0000
0020
,
0000
0000
0000
0000
0000
1030
0000
0000
,
0002
0000
0000
0000
0000
0000
0000
0003
,
0020
0000
0000
0030
0002
0000
0000
0003
,
2000
0000
3100
0000
0000
0020
0000
0000
,
0230
0320
2030
3200
,
2300
0000
0000
0000
,
3200
0000
0320
0000
,
0032
0000
0103
0000
0000
2000
0000
0000
,
3200
0320
0230
2300
,
3000
0001
0000
0000
0020
0000
0130
0000
,
0020
0000
0000
0002
0030
0000
0000
0000
,
0103
0000
0100
0000
0020
0000
0030
2000
,
0000
0000
0000
0000
0000
3100
0000
0000
,
0000
0100
0000
0000
0200
0000
0310
0000
,
2000
0000
0000
0200
3000
0000
0000
0000
,
0310
0000
0010
0000
1000
0000
0000
0100
;
