#TITLE:Chill;
#SUBTITLE:Dr. Mario;
#ARTIST:Nintendo;
#TITLETRANSLIT:;
#SUBTITLETRANSLIT:;
#ARTISTTRANSLIT:;
#CREDIT:;
#BANNER:bn.png;
#BACKGROUND:bg.png;
#LYRICSPATH:;
#CDTITLE:;
#MUSIC:Best VGM 431 Dr. Mario Chill.ogg;
#OFFSET:-0.160;
#SAMPLESTART:22.500;
#SAMPLELENGTH:12.000;
#SELECTABLE:YES;
#BPMS:0.000=128.580,80.000=257.160,111.000=128.580,169.000=257.160,265.000=128.580;
#STOPS:110.000=0.233
,117.000=0.467
,124.000=0.467
,131.000=0.467
,138.000=0.467
,168.500=0.933
,286.000=0.233
,287.500=0.233
,292.000=0.467
,293.000=0.467
,299.000=0.233
,300.500=0.233
,305.000=0.467
,305.500=0.117
,305.750=0.583
;
#BGCHANGES:;

//---------------dance-single - for NES collab----------------
#NOTES:
     dance-single:
     for NES collab:
     Hard:
     9:
     0.612,0.835,0.353,0.050,0.252:
0000
0000
0000
0000
,
0000
0000
0000
0000
,
0000
0000
0000
0000
,
0000
0000
0000
0000
,
1000
0000
0100
0000
1000
0000
0001
0000
0100
0001
0100
0000
0010
0000
0001
0000
,
0100
0010
1000
0001
0100
0000
1001
0000
,
1000
0000
0001
0000
0010
0000
0001
0000
1000
0100
1000
0000
0001
0000
1000
0000
,
0001
0010
0100
0000
0010
0000
1000
0000
0001
0000
0000
0000
1100
0000
0000
0000
,
1000
0000
0001
0000
0100
0000
0010
0000
0100
0010
1000
0000
0001
0000
0100
0000
,
0010
0100
0001
1000
0100
0000
1100
0000
,
1000
0000
0001
0000
1000
0000
0100
0000
0001
0010
0001
0000
1000
0000
0001
0000
,
0100
0000
0001
0000
0100
0000
0001
0000
0100
0000
0001
0000
0100
0000
0001
0000
0100
0000
0001
0000
0000
0100
0000
0000
0001
0000
0000
0010
0000
0000
0100
0000
0000
1000
0000
0000
0001
0000
0000
0000
0000
0000
0000
0000
0000
0000
0000
0000
,
1000
0001
0100
0001
0010
0000
0000
0000
,
1000
1000
0001
0100
0001
0000
0000
0000
,
0000
0001
0010
0001
0010
0000
1000
0001
,
0200
0000
0300
0000
,
0000
0000
1000
0001
1000
0000
0001
0000
0100
0000
0000
0000
0000
0000
0000
0000
,
0010
1000
0001
0100
0001
0000
0000
0000
,
0000
0001
0010
0001
0100
0000
0010
0100
,
0001
1000
0001
0000
0001
0000
0100
0000
0001
0010
0000
0000
1001
0000
0000
0000
,
1000
0100
0000
0001
0010
0000
0001
0010
,
0000
0100
1000
0000
0001
0000
1000
0001
,
0100
0001
0000
0010
0100
0000
1000
0100
,
0000
0001
0100
0000
0010
0000
1000
0001
,
0100
0010
0110
1000
,
1100
0001
0011
0001
,
0101
0000
0110
0000
1100
0000
0001
1000
,
0001
0010
0001
0100
0010
0000
1100
0100
,
0010
0100
1000
0000
0101
0100
0101
0001
,
0010
0100
1100
0000
1001
1000
0001
0100
,
0010
0000
0010
1000
1100
0001
0100
0010
,
1100
0000
1001
1000
0001
0100
0010
0000
,
0100
0010
1000
0001
0100
0001
0011
0000
,
1000
0001
0100
0001
0010
0000
1000
0001
,
0100
1000
0100
0010
1001
0000
1000
0000
,
1100
0000
0010
0001
0100
0000
0110
0000
,
0010
0000
1000
0000
0001
0000
0000
0000
0100
0010
0000
0000
1000
0000
0000
0000
,
0001
0100
0010
0000
1000
0000
1001
0000
,
0100
0000
0000
0000
0000
0000
1000
0000
0000
0000
0000
0000
0100
0000
0000
0000
0000
0000
1000
0000
0000
0000
0000
0000
0100
0000
0000
0000
0000
0000
0000
0000
0000
0000
0000
0000
0000
0000
0000
0000
0000
0000
0000
0000
0000
0000
0000
0000
0000
0000
0000
0000
0000
0000
0000
0000
0000
0000
0000
0000
0000
0000
0000
0000
1000
0000
0000
0000
0000
0000
0000
0000
0000
0000
0000
0000
0000
0000
0000
0000
0001
0000
0000
0000
0000
0000
0000
0000
0000
0000
0000
0000
0000
0000
0000
0000
0010
0000
0000
0000
0000
0000
0000
0000
0000
0000
0000
0000
0000
0000
0000
0000
0100
0000
0000
0000
0000
0000
0000
0000
0000
0000
0000
0000
0000
0000
0000
0000
1000
0000
0000
0000
0000
0000
0000
0000
0000
0000
0000
0000
0000
0000
0000
0000
0001
0000
0000
0000
0000
0000
0000
0000
0000
0000
0000
0000
0100
0000
0000
0000
0000
0000
0000
0000
0000
0000
0000
0000
0001
0000
0000
0000
0000
0000
0000
0000
0000
0000
0000
0000
0000
0000
0000
0000
0000
0000
0000
0000
0000
0000
0000
0000
,
1000
0000
0001
0000
0100
0000
0001
0000
0010
0000
0001
0000
1000
0100
1000
0000
,
0010
0000
1000
0000
0100
0000
0010
0000
1000
0000
0001
0000
1000
0001
0100
0000
,
0010
0000
1000
0000
0100
0000
0001
0000
0010
0000
0001
0000
1000
0001
0100
0000
,
0010
1000
1000
0001
1000
0001
0100
0001
,
0010
0100
1000
0001
0100
0010
0100
1000
,
0001
0010
0001
1000
0100
1000
0001
0100
,
0010
0100
0000
0001
0100
0001
0010
0001
,
1000
0000
0000
0001
0000
0000
0100
0000
0000
0000
0000
0000
1000
0000
0001
0000
0100
0000
0001
0000
0000
0000
0000
0000
,
0000
0000
0000
0001
0100
0001
0010
0001
,
0010
0100
1000
0100
0010
0001
1000
0001
,
0100
0001
0000
1000
0001
0100
0010
1000
,
0001
0100
0010
1000
0000
1000
0000
0001
,
0000
0001
1000
0001
0100
0000
0010
0000
,
0000
0000
0010
0100
0000
1000
0000
0001
,
0000
0100
0001
0100
0010
0000
1000
0000
,
0000
0000
0000
1000
0000
0001
0000
0010
0000
0100
0000
0010
,
0000
0001
0000
1000
0000
0001
0000
0100
0000
0001
0000
0010
,
0000
0100
0000
1000
0000
0001
0000
0100
0000
0010
0000
1000
,
0000
0100
0000
1000
0000
0001
0100
0001
0100
0001
0100
0001
,
0100
0000
0001
0000
0100
0000
0001
0000
0000
0000
0000
0000
0000
0000
0000
0100
0000
0000
0010
0000
0000
0000
0000
0000
,
1000
0001
0010
0001
,
0010
0100
1000
0001
,
0200
0000
0000
0000
0310
0100
0000
0100
,
0000
0100
0010
0000
0000
1000
0100
0000
,
0001
0010
0100
1000
,
0000
1001
0000
0011
,
0000
2200
0000
0000
,
3300
0000
1001
0000
0000
0001
0101
0000
,
0000
0000
0110
0000
0000
1000
1100
0000
,
0000
0000
1001
0000
0000
0010
1001
0000
,
0000
0000
0000
0000
0100
0000
0000
0000
0000
0000
0010
0000
1000
0001
0000
0100
,
0001
0000
0010
0000
1000
0100
1000
0000
0001
0000
0100
0000
0001
0010
0001
0000
,
1000
0001
1000
1000
1100
0001
0001
0101
,
1000
0001
0100
0000
0010
0000
1000
0000
0001
0100
0001
0000
0010
0000
0100
0000
,
1100
0000
1000
0000
1000
0000
0000
0000
1000
0001
0100
0000
0010
0000
1000
0000
,
0001
0100
0001
0000
0100
0000
0001
0000
1001
0000
1001
0000
1001
0000
0110
0000
,
0110
0000
0110
0000
1000
0001
0100
0000
0010
0000
1000
0000
0001
1000
0100
0000
,
1000
0000
0001
0000
2002
0000
3000
0003
0000
0000
0000
0000
0000
0000
0000
0000
;

//---------------dance-single - ----------------
#NOTES:
     dance-single:
     :
     Medium:
     6:
     0.369,0.482,0.160,0.118,0.000:
0000
0000
0000
0000
,
0000
0000
0000
0000
,
0000
0000
0000
0000
,
0000
0000
0000
0000
,
1000
0001
0000
0100
0010
0000
0000
0000
,
0110
0000
0010
1000
0000
0000
0000
0000
,
1000
0100
0000
0010
0001
0000
0100
0000
,
0010
1000
0001
0100
0000
0000
0000
0000
,
0010
1000
0000
0100
0010
0000
0000
0000
,
1001
0000
0001
0100
0000
0000
0000
0000
,
0001
0010
0000
0100
1000
0000
0010
0000
,
2000
0000
0000
0000
3001
0100
0010
0000
,
0000
1000
0001
0100
0001
0000
0000
0000
,
0001
0010
0001
0100
1000
0000
0000
0000
,
0000
0010
1000
0010
0100
0000
0001
1000
,
0010
0000
0000
0000
,
0000
0001
0001
1000
0001
0000
0000
0000
,
0100
0010
1000
0100
0010
0000
0000
0000
,
0000
0001
0010
0001
0010
0000
0100
1000
,
0010
0100
1001
0101
,
1000
0000
1100
0000
,
0010
0000
0011
0000
,
0001
0000
0101
0000
,
0010
0000
0110
0000
,
0001
0000
0001
0000
,
1000
0000
1000
0000
,
0001
0100
0001
0010
,
1000
0000
0100
0000
1000
0000
0000
0001
,
0100
0010
1000
0000
1000
0100
0010
0001
,
0100
0010
1000
0000
0010
0100
0010
0100
,
0010
0000
1000
0001
0010
1000
0001
0100
,
0001
0000
0001
1000
0010
1000
0001
0000
,
0100
1000
0010
0100
0010
1000
0010
0000
,
1000
0100
0010
0100
1000
0000
0001
0100
,
0001
0100
0010
0001
1000
0000
0001
0100
,
0000
0010
0000
1000
,
0000
1000
0000
0000
1000
0000
0000
0001
,
0000
0100
0000
0010
,
0000
0100
0000
0020
0000
0000
1030
0001
,
1000
0000
1000
0000
1000
0000
0010
1000
,
0100
0000
0100
0000
0100
0000
0010
0001
,
0010
0100
0010
1000
,
0001
0100
0001
0000
1000
0000
0001
0000
,
0100
0001
0010
0001
,
0010
0001
0010
0100
,
1000
0000
0010
0100
,
0010
2000
0000
3100
,
0000
0000
0010
0001
,
0100
0001
0100
0010
,
1000
0000
0010
0100
,
0010
1000
0000
0001
,
0000
0100
0100
0100
,
0000
0010
0000
0100
,
0000
0010
0010
0010
,
0000
2000
0000
3002
,
0000
0203
0000
0320
,
0000
2030
0000
3200
,
0000
2000
0000
0300
,
3000
0000
0010
0000
0000
1000
0001
0000
,
0010
0001
0100
1000
,
0100
0010
0001
0010
,
0100
0000
0000
0000
,
0000
0000
1001
0000
0000
0100
0001
0000
,
0100
0010
1000
0010
,
0000
1100
0000
0011
,
0000
2002
0000
0000
,
3003
0000
1001
0000
0000
0001
0101
0000
,
0000
0000
0110
0000
0000
0010
0110
0000
,
0000
0000
1000
0000
0000
0001
0101
0000
,
0000
0000
0011
0000
0000
0001
0011
0000
,
0001
0100
0010
1000
,
0001
0000
1000
0001
1000
0001
1000
0001
,
0100
0010
1000
0100
,
1000
0001
0001
0000
0100
0000
0010
0000
,
1000
0000
0001
0000
0100
0001
0100
0010
,
1000
0010
1000
0000
0001
0000
0100
0000
,
0010
0000
0000
0000
0000
0000
0000
0000
0000
0000
0000
0000
0000
0000
0000
0000
0000
0000
0000
0000
0000
0000
0000
0000
2000
0000
0000
0000
0000
0000
0000
0000
0000
0000
0000
0000
0000
0000
0000
0000
0000
0000
0000
0000
0000
0000
0000
0000
0002
0000
0000
0000
0000
0000
0000
0000
0000
0000
0000
0000
0000
0000
0000
0000
0000
0000
0000
0000
0000
0000
0000
0000
3000
0000
0000
0000
0000
0000
0000
0000
0000
0000
0000
0000
0000
0003
0000
0000
0000
0000
0000
0000
0000
0000
0000
0000
0000
0000
0000
0000
0000
0000
0000
0000
0000
0000
0000
0000
0000
0000
0000
0000
0000
0000
0000
0000
0000
0000
0000
0000
0000
0000
0000
0000
0000
0000
0000
0000
0000
0000
0000
0000
0000
0000
0000
0000
0000
0000
0000
0000
0000
0000
0000
0000
0000
0000
0000
0000
0000
0000
0000
0000
0000
0000
0000
0000
0000
0000
0000
0000
0000
0000
0000
0000
0000
0000
0000
0000
0000
0000
0000
0000
0000
0000
0000
0000
0000
0000
0000
0000
0000
0000
0000
0000
0000
0000
0000
0000
0000
0000
0000
0000
;

//---------------dance-single - ----------------
#NOTES:
     dance-single:
     :
     Easy:
     3:
     0.238,0.320,0.034,0.076,0.000:
0000
0000
0000
0000
,
0000
0000
0000
0000
,
0000
0000
0000
0000
,
0000
0000
0000
0000
,
0001
1000
0001
1000
,
0001
0100
0001
0000
,
0010
1000
0010
1000
,
0001
0100
0001
0000
,
0001
0010
0001
0010
,
0001
0100
0010
0000
,
0010
1000
0100
1000
,
0200
0000
2300
3000
,
0000
1000
0001
0000
,
0001
0001
0001
0000
,
0000
0100
0100
0010
,
0010
0000
0000
0000
,
0000
1000
0001
0000
,
0100
0001
0100
0000
,
0000
0010
1000
0100
,
1000
0000
0000
0000
,
0000
0000
0001
0000
,
0000
0000
0001
0000
,
0000
0000
1000
0000
,
0000
0000
1000
0000
,
0001
0000
1000
0000
,
0001
0000
1000
0000
,
0001
1000
0001
1000
,
0001
1000
0001
1000
,
0100
0010
0000
0001
,
0010
0100
0001
1000
,
0001
0000
0001
0100
,
0010
0010
1000
0010
,
0000
1000
0001
0100
,
0001
1000
0100
0000
,
1000
0000
0100
0000
1000
0000
0000
0001
,
0000
0001
0000
0100
,
0000
0100
0000
0000
0010
0000
0000
1000
,
0000
0010
0000
0100
,
0000
0010
0000
0000
0000
0000
1000
0000
,
1000
1000
1000
0001
,
0001
0001
0001
0100
,
0100
0100
0100
0010
,
0000
0010
1000
0000
0000
0000
0001
0000
,
0000
0100
0000
0001
,
0000
0100
0001
0100
,
0000
0010
0000
0100
,
0000
0020
0000
1030
,
0000
0000
0000
0001
,
0000
0100
0000
0010
,
0000
0100
0000
0010
,
0000
1000
0000
0001
,
0000
0100
0010
0100
,
0000
0001
0000
1000
,
0000
0100
1000
0100
,
0000
2000
0000
0000
,
0000
3002
0000
0000
,
0000
0203
0000
0000
,
0000
0020
0000
0330
,
0000
0010
0000
0100
,
0000
0010
0000
1000
,
0000
0001
0100
0001
,
0100
0000
0000
0000
,
0000
1000
0000
0001
,
0000
1000
0001
0010
,
0000
0110
0000
0110
,
0000
0220
0000
0330
,
0000
1000
0000
1000
,
0000
0001
0000
0001
,
0000
0100
0000
0010
,
0000
0100
0000
0010
,
0110
0100
0010
1000
,
0001
0000
1000
0000
0000
0001
0000
0000
,
0001
0000
1000
0100
,
1000
0000
0001
0100
,
0010
0000
1000
0000
0001
0000
0001
1000
,
0000
1000
0001
0000
1000
0000
0001
0000
,
0100
0010
0000
0000
;

//---------------dance-single - ----------------
#NOTES:
     dance-single:
     :
     Beginner:
     2:
     0.108,0.160,0.050,0.000,0.000: // measure 1
0000
0000
0000
0000
,  // measure 2
0000
0000
0000
0000
,  // measure 3
0000
0000
0000
0000
,  // measure 4
0000
0000
0000
0000
,  // measure 5
1000
0000
0000
0000
,  // measure 6
1000
0000
0000
0000
,  // measure 7
0001
0000
0000
0000
,  // measure 8
0001
0000
0000
0000
,  // measure 9
0010
0000
0000
0000
,  // measure 10
0010
0000
0000
0000
,  // measure 11
0100
0000
0000
0000
,  // measure 12
0100
0000
0010
0000
,  // measure 13
1000
0000
0000
0000
,  // measure 14
0001
0000
0000
0000
,  // measure 15
0000
0100
0000
0010
,  // measure 16
0010
0000
0000
0000
,  // measure 17
0000
1000
1000
0000
,  // measure 18
0001
0000
0000
0000
,  // measure 19
0100
0000
0000
0000
,  // measure 20
0010
0000
0000
0000
,  // measure 21
1000
0000
0000
0000
,  // measure 22
0000
0000
0000
0000
,  // measure 23
0001
0000
0000
0000
,  // measure 24
0000
0000
0000
0000
,  // measure 25
0100
0000
0000
0000
,  // measure 26
0000
0000
0000
0000
,  // measure 27
0010
0000
0000
0000
,  // measure 28
0000
0000
0000
1000
,  // measure 29
0000
0000
0000
1000
,  // measure 30
0000
0000
0001
0000
,  // measure 31
0000
0000
0001
0000
,  // measure 32
0000
0010
0000
0000
,  // measure 33
0000
0000
0010
0000
,  // measure 34
0100
0000
0000
0000
,  // measure 35
0000
0100
0000
1000
,  // measure 36
0000
1000
0000
0001
,  // measure 37
0000
0000
0001
0000
,  // measure 38
0000
0001
0000
0100
,  // measure 39
0000
0000
0000
0010
,  // measure 40
0000
0000
0000
0010
,  // measure 41
0000
0000
0000
1000
,  // measure 42
0000
0000
0000
0001
,  // measure 43
0000
1000
0000
1000
,  // measure 44
0000
0001
0000
0001
,  // measure 45
0000
0100
0000
0000
,  // measure 46
0000
0000
0000
0010
,  // measure 47
0000
0010
0000
0010
,  // measure 48
0000
0000
0000
1000
,  // measure 49
0000
0000
0000
0001
,  // measure 50
0000
0000
0000
0100
,  // measure 51
0000
0010
0000
0000
,  // measure 52
0000
0000
0000
0000
,  // measure 53
0000
0110
0000
0000
,  // measure 54
0000
0000
0000
0000
,  // measure 55
0000
1000
0000
0000
,  // measure 56
0000
1000
0000
0000
,  // measure 57
0000
0001
0000
0000
,  // measure 58
0000
0001
0000
0000
,  // measure 59
0000
1000
0000
0000
,  // measure 60
0000
0001
0000
0000
,  // measure 61
0000
0100
0000
0100
,  // measure 62
0000
0000
0000
0000
,  // measure 63
0000
0010
0000
0000
,  // measure 64
0000
0010
0000
0000
,  // measure 65
0000
1000
0000
1000
,  // measure 66
0000
1000
0000
0000
,  // measure 67
0000
1001
0000
0000
,  // measure 68
0000
1001
0000
0000
,  // measure 69
0000
1001
0000
0000
,  // measure 70
0000
1001
0000
0000
,  // measure 71
0000
0010
0000
0000
,  // measure 72
0000
0000
0010
0000
0000
0010
0000
0000
,  // measure 73
0010
0000
0100
0000
,  // measure 74
1000
0000
0001
0000
,  // measure 75
0001
0000
0000
0000
1000
0000
0000
1000
,  // measure 76
0000
1000
0000
0001
,  // measure 77
0000
1001
0000
0000
;
