#TITLE:Bazlisk Mine Field;
#SUBTITLE:From Ninja Gaiden;
#ARTIST:TECMO;
#TITLETRANSLIT:;
#SUBTITLETRANSLIT:;
#ARTISTTRANSLIT:;
#CREDIT:;
#BANNER:bazliskmf-bn.PNG;
#BACKGROUND:bazliskmf-bg.PNG;
#LYRICSPATH:;
#CDTITLE:;
#MUSIC:Bazlisk Mine Field.mp3;
#OFFSET:-0.392;
#SAMPLESTART:43.447;
#SAMPLELENGTH:15.500;
#SELECTABLE:YES;
#BPMS:0.000=150.230;
#STOPS:;
#BGCHANGES:;

//---------------dance-single - ----------------
#NOTES:
     dance-single:
     :
     Hard:
     8:
     0.571,0.524,0.011,0.068,0.143:
0000
0000
0000
0000
,
0000
0000
0000
0000
,
0000
0000
0000
0000
,
0001
0010
0100
1000
0001
0001
1000
1000
,
0001
0000
0100
0010
0100
0000
0001
0000
0010
0000
0100
0000
1000
0000
0000
0000
,
0001
1000
0010
1000
0100
0100
0010
0010
,
0001
0000
1000
0010
1000
0000
0001
0000
0100
0000
0010
0000
0100
0000
0000
0000
,
0001
1000
0100
0010
0001
0001
1000
1000
,
0010
0000
0100
0001
0100
0000
0001
0000
1000
0000
0100
0000
0010
0000
0000
0000
,
0001
0000
0000
0001
0100
0000
0000
0100
0010
0000
0000
0010
1000
0000
0000
0000
,
0000
1000
1000
1000
1000
1000
0100
0010
,
0001
0100
0010
1000
0000
1000
0100
0010
,
0001
0100
0010
1000
0000
1000
0010
0100
,
0001
0010
0100
1000
0000
1000
0001
1000
,
0200
0000
0000
0300
,
1000
0100
0010
0001
0000
0001
0100
0010
,
1000
0100
0010
0001
0000
0001
0010
0100
,
1000
0010
0100
0001
0000
0001
0010
0100
,
2000
0000
0000
0000
0000
0000
0000
3000
,
0001
0000
0000
0001
0000
0000
0001
0000
0010
0000
0100
0000
0010
0000
0001
0000
,
1000
0000
0000
1000
0000
0000
1000
0000
0100
0000
0010
0000
0100
0000
1000
0000
,
0001
0000
0000
0001
0000
0000
0001
0000
0010
0000
0100
0000
0010
0000
0001
0000
,
1000
0100
0010
0001
0010
0100
1000
0001
,
0100
0000
0000
0100
0000
0000
0100
0000
0010
0000
1000
0000
0001
0000
1000
0000
,
0010
0000
0000
0010
0000
0000
0010
0000
1000
0000
0001
0000
0100
0000
0001
0000
,
1000
0000
0000
1000
0000
0000
1000
0000
0001
0000
0010
0000
0100
0000
1000
0000
,
0001
0100
0010
1000
0001
0010
0100
0000
,
1000
0010
1000
0001
0100
0100
0010
0010
,
1000
0000
0100
0010
0100
0000
1000
0000
0001
0000
0010
0000
0100
0000
0000
0000
,
1000
0001
0100
0010
1000
1000
0100
0100
,
1000
0000
0001
0100
0001
0000
1000
0000
0100
0000
1000
0000
0001
0000
0000
0000
,
0100
0001
0010
0100
1000
1000
0010
0010
,
0001
0000
0010
0100
0010
0000
1000
0000
0001
0000
0010
0000
0100
0000
0000
0000
,
1000
0001
0010
0100
0001
0001
0100
0100
,
1000
0000
0010
0100
0010
0000
0001
0000
0010
0000
1000
0000
0100
0000
0000
0000
,
1000
0000
0000
1000
0100
0000
0000
0100
0010
0000
0000
0010
0001
0000
0000
0000
,
0000
0010
0010
0010
0010
0010
0001
0100
,
0010
1000
0100
0010
0000
0010
0001
0100
,
0010
1000
0100
0010
0000
0010
0100
1000
,
0010
0100
0001
0010
0000
0010
0100
1000
,
0020
0000
0000
0030
,
0100
0001
1000
0100
0000
0100
1000
0010
,
0100
0001
1000
0100
0000
0100
1000
0001
,
0100
0010
1000
0100
0000
0100
1000
0010
,
0002
0000
0000
0000
0000
0000
0000
0003
,
0010
0000
0000
0010
0000
0000
0010
0000
0001
0000
0010
0000
0100
0000
0001
0000
,
0010
0000
0000
0010
0000
0000
0010
0000
1000
0000
0010
0000
0100
0000
0001
0000
,
0100
0000
0000
0100
0000
0000
0100
0000
1000
0000
0010
0000
0001
0000
0010
0000
,
1000
0100
0010
0001
0010
0100
1000
0001
,
0100
0000
0000
0100
0000
0000
0100
0000
0001
0000
1000
0000
0100
0000
0001
0000
,
1000
0000
0000
1000
0000
0000
1000
0000
0010
0000
0100
0000
1000
0000
0010
0000
,
0001
0000
0000
0001
0000
0000
0001
0000
1000
0000
0100
0000
0010
0000
1000
0000
,
0001
0010
0100
0001
1000
0010
0001
0000
,
2002
0000
0000
0000
,
3003
0000
0000
0000
;

//---------------dance-single - ----------------
#NOTES:
     dance-single:
     :
     Challenge:
     10:
     0.737,0.709,0.011,0.023,0.588:
0000
0000
0000
0000
,
0000
0000
0000
0000
,
0000
0000
0000
0000
,
0010
0000
0001
0100
0001
0000
0010
0000
0100
1000
0000
0100
1000
0000
0010
0000
,
1000
0001
1000
0001
1000
0000
0100
0000
0010
0000
0010
0000
0010
0000
0000
0000
,
0001
0000
0010
0100
0010
0000
0100
0000
1000
0010
0000
1000
0010
0000
0100
0000
,
0001
0010
0001
0010
0001
0000
1000
0000
0100
0000
0100
0000
0100
0000
0000
0000
,
1000
0000
0001
0100
0001
0000
1000
0000
0100
0010
0000
0100
0010
0000
0001
0000
,
0100
0010
0100
0010
0100
0000
0010
0000
1000
0000
1000
0000
1000
0000
0000
0000
,
0001
0000
0010
0001
0010
0000
0100
0010
0100
0000
1000
0100
1000
0000
0001
0100
,
0001
1000
1000
1000
1000
1000
0100
0010
,
0001
1000
0010
0100
0000
0100
0001
1000
,
0001
0010
0100
1000
0000
1000
0001
0100
,
0010
1000
0001
0010
0000
0010
0100
1000
,
0001
0000
1000
0100
0000
1000
0100
0000
0001
0100
0000
0001
0100
0000
0001
0000
,
0100
1000
0010
0100
0000
0100
0001
0010
,
0100
1000
0010
0001
0000
0001
0010
0100
,
0001
0010
0100
1000
0000
1000
0001
0100
,
0001
0001
0100
0100
0010
0010
1000
1000
,
1000
0000
0100
1000
0000
0100
1000
0000
0100
1000
0000
0100
1000
0000
0001
0000
,
0010
0000
0001
0100
0000
0001
0100
0000
0001
0100
0000
0001
0100
0000
0010
0000
,
1000
0000
0100
0010
0000
0100
0010
0000
0100
0010
0000
0100
0010
0000
0001
0000
,
1000
0010
0100
0001
1000
0010
1000
0100
,
0010
0000
0001
0100
0000
0001
0100
0000
0001
0100
0000
0001
0100
0000
0010
0000
,
1000
0000
0001
0010
0000
0001
0010
0000
0001
0010
0000
0001
0010
0000
0001
0000
,
0100
0000
0010
1000
0000
0010
1000
0000
0010
1000
0000
0010
1000
0000
0100
0000
,
0010
0100
0010
0100
0010
0000
0001
0000
0100
0010
0100
0010
0100
0000
0010
0000
,
1000
0000
0001
0010
0001
0000
1000
0000
0010
0100
0000
0010
0100
0000
0001
0000
,
0010
0001
1000
0001
0010
0000
0001
0000
0100
0000
0100
0000
0100
0000
0000
0000
,
0001
0000
1000
0100
1000
0000
0010
0000
0100
0001
0000
0100
0001
0000
0010
0000
,
0100
1000
0001
1000
0100
0000
1000
0000
0001
0000
0001
0000
0001
0000
0000
0000
,
0010
0000
0100
1000
0100
0000
1000
0000
0001
0010
0000
0001
0010
0000
0001
0000
,
0100
0010
1000
0010
0100
0000
0001
0000
0010
0000
0010
0000
0010
0000
0000
0000
,
0001
0000
0100
0010
0100
0000
0001
0000
0010
0100
0000
0010
0100
0000
1000
0000
,
0001
0010
0100
0010
0001
0000
1000
0000
0010
0000
0010
0000
0010
0000
0000
0000
,
1000
0000
0010
1000
0010
0000
0100
0010
0100
0000
0001
0100
0001
0000
1000
0100
,
1000
0001
0001
0001
0001
0001
0100
0010
,
1000
0100
0010
0001
0000
0001
1000
0010
,
0001
0010
0100
1000
0000
1000
0100
0010
,
1000
0001
0010
0100
0000
0100
1000
0001
,
0010
0000
0001
0100
0000
0001
0100
0000
1000
0100
0000
1000
0100
0000
1000
0000
,
0100
0001
0010
0100
0000
0100
1000
0001
,
0010
1000
0001
0100
0000
0100
0010
0001
,
1000
0001
0100
0010
0000
0010
1000
0100
,
0001
0001
0100
0100
1000
1000
0010
0010
,
0100
0000
0010
1000
0000
0100
1000
0000
0010
1000
0000
0100
1000
0000
0010
0000
,
0100
0000
0001
1000
0000
0001
0100
0000
0001
1000
0000
0001
0100
0000
0010
0000
,
1000
0000
0100
0010
0000
0001
0010
0000
0100
0010
0000
0001
0010
0000
0100
0000
,
1000
0001
0100
0010
0001
0010
1000
0100
,
0010
0000
0001
0100
0000
0010
1000
0000
0001
0010
0000
0100
0010
0000
0001
0000
,
0100
0000
0010
1000
0000
0100
0010
0000
0001
1000
0000
0010
0100
0000
0001
0000
,
0010
0000
0001
0100
0000
1000
0100
0000
0001
0010
0000
1000
0010
0000
0100
0000
,
0001
1000
0010
0001
0100
0010
0010
0000
,
2002
0000
0000
0000
,
3003
0000
0000
0000
;

//---------------dance-single - ----------------
#NOTES:
     dance-single:
     :
     Medium:
     5:
     0.385,0.370,0.046,0.148,0.000:
0000
0000
0000
0000
,
0000
0000
0000
0000
,
0000
0000
0000
0000
,
0001
1000
0001
0010
,
0200
0000
0000
0000
1300
0001
1000
0000
,
0100
1000
0010
0100
,
0002
0000
0000
0000
1003
0100
1000
0000
,
0100
1000
0001
0010
,
0002
0000
0000
0000
0103
0010
0100
0000
,
1000
1100
0001
0101
,
0001
1000
0001
1000
0001
0000
1000
0000
,
0100
0000
1000
0100
0000
0000
0001
0000
,
0100
0000
0001
0100
0000
0000
0010
0000
,
0100
0000
0010
0100
0000
1000
0000
0001
,
0200
0000
0000
0301
,
0100
0000
0001
0100
0000
0000
0001
0000
,
1000
0000
0001
1000
0000
0000
0100
0000
,
1000
0000
0100
1000
0000
0001
0000
0100
,
0020
0000
0000
0030
,
0001
0000
0001
0000
0001
1000
0001
0000
,
1000
0000
1000
0000
1000
0001
1000
0000
,
0001
0000
0001
0000
0001
1000
0001
0000
,
1000
0001
1000
0000
0001
1000
0001
0000
,
0010
0000
0010
0000
0010
0001
0010
0000
,
0100
0000
0100
0000
0100
1000
0100
0000
,
0001
0000
0001
0000
0001
0100
0001
0000
,
1000
0100
1000
0000
0010
0100
0010
0000
,
1000
0001
0100
0010
,
0200
0000
0000
0000
0301
1000
0100
0000
,
1000
0001
0100
0010
,
2000
0000
0000
0000
3001
0010
0100
0000
,
1000
0010
0100
0001
,
2000
0000
0000
0000
3001
0100
0010
0000
,
1000
0001
0100
0010
,
0200
0000
0000
0000
0310
1000
0100
0000
,
1000
1010
0001
0011
,
0100
0010
0100
0010
0100
0000
0001
0000
,
1000
0000
0100
1000
0000
0000
0001
0000
,
0100
0000
0010
1000
0000
0000
0001
0000
,
1000
0000
0100
0010
0000
0001
0000
1000
,
0200
0000
0000
1300
,
0001
0000
0100
0010
0000
0000
1000
0000
,
0001
0000
1000
0100
0000
0000
0010
0000
,
0001
0000
1000
0010
0000
0100
0000
0001
,
2000
0000
0000
3000
,
0001
0000
1000
0000
0100
0010
0001
0000
,
1000
0000
0001
0000
0100
0010
1000
0000
,
0001
0000
1000
0000
0100
0010
0001
0000
,
1000
0010
0100
0000
0001
0010
0100
0000
,
0010
0000
0001
0000
1000
0001
0010
0000
,
0100
0000
1000
0000
0010
1000
0100
0000
,
1000
0000
0001
0000
1000
0001
0010
0000
,
0001
1000
0100
0000
0010
0001
0200
0000
,
0020
0000
0000
0000
,
0330
0000
0000
0000
;

//---------------dance-single - ----------------
#NOTES:
     dance-single:
     :
     Easy:
     4:
     0.308,0.333,0.034,0.171,0.000: // measure 1
0000
0000
0000
0000
,  // measure 2
0000
0000
0000
0000
,  // measure 3
0000
0000
0000
0000
,  // measure 4
1000
0000
1000
0000
,  // measure 5
0001
0000
0001
1000
,  // measure 6
0100
0000
0100
0000
,  // measure 7
0010
0000
0010
0001
,  // measure 8
1000
0000
1000
0000
,  // measure 9
0010
0000
0010
1000
,  // measure 10
0001
0001
0001
0001
,  // measure 11
1000
1000
1000
1000
,  // measure 12
0001
0100
1000
0100
,  // measure 13
0001
0100
1000
0100
,  // measure 14
0001
0010
1000
0010
,  // measure 15
0001
0001
0001
0001
,  // measure 16
0010
0001
0100
0001
,  // measure 17
0010
0001
0100
0001
,  // measure 18
1000
0010
1000
0100
,  // measure 19
2000
0000
0000
3000
,  // measure 20
0002
0010
1000
0103
,  // measure 21
2000
0010
0001
3100
,  // measure 22
0002
0010
1000
0103
,  // measure 23
1000
1000
0001
0001
,  // measure 24
0020
0001
0100
0031
,  // measure 25
0200
1000
0010
1300
,  // measure 26
0020
1000
0100
1030
,  // measure 27
1000
1000
0001
0001
,  // measure 28
1000
0000
0100
0000
,  // measure 29
1000
0000
0001
0010
,  // measure 30
0100
0000
0010
0000
,  // measure 31
0001
0000
0100
0010
,  // measure 32
1000
0000
0100
0000
,  // measure 33
1000
0000
0010
0100
,  // measure 34
0001
0000
0010
0000
,  // measure 35
0001
0000
1000
0010
,  // measure 36
0100
1001
0100
1001
,  // measure 37
0100
0100
0100
0100
,  // measure 38
1000
0100
0010
0100
,  // measure 39
1000
0001
0100
0010
,  // measure 40
1000
0001
0100
0010
,  // measure 41
0200
0000
0000
0300
,  // measure 42
0001
0010
0001
1000
,  // measure 43
0100
0010
0001
1000
,  // measure 44
0001
0100
0010
1000
,  // measure 45
0200
0000
0000
0300
,  // measure 46
0002
0010
1000
0103
,  // measure 47
2000
0010
0001
3100
,  // measure 48
0002
0010
1000
0103
,  // measure 49
1000
1000
0001
0001
,  // measure 50
0020
0001
0100
0031
,  // measure 51
0200
1000
0010
1300
,  // measure 52
0020
1000
0100
1030
,  // measure 53
0001
0001
1000
1000
,  // measure 54
1001
0000
0000
0000
;
