#TITLE:Battle Scene;
#SUBTITLE:;
#ARTIST:植松伸夫;
#TITLETRANSLIT:;
#SUBTITLETRANSLIT:;
#ARTISTTRANSLIT:Nobuo Uematsu;
#CREDIT:Gorilla v1.1.4 (Dancing Monkeys v1.06);
#BANNER:BattleScenebanner.png;
#BACKGROUND:BattleScene-bg.png;
#LYRICSPATH:;
#CDTITLE:;
#MUSIC:17 Battle Scene(ff1).mp3;
#OFFSET:-0.560;
#SAMPLESTART:40.495;
#SAMPLELENGTH:12.000;
#SELECTABLE:YES;
#BPMS:0.000=150.247;
#STOPS:;
#BGCHANGES:;

//---------------dance-single - Basic----------------
#NOTES:
     dance-single:
     Basic:
     Easy:
     3:
     0.238,0.317,0.073,0.125,0.000:
0000
0000
0000
0000
0001
0000
0000
0000
,
0000
0000
0000
0000
0001
0000
0000
0000
,
0000
0000
1000
0000
1001
0000
0001
0000
,
1000
0000
0001
0000
0100
0000
0010
0000
,
0011
0000
1000
0000
0100
0000
1000
0000
,
1000
0000
0001
0000
0100
0000
0010
0000
,
0011
0000
1000
0000
0100
0000
1000
0000
,
1000
0000
0001
0000
0100
0000
0010
0000
,
0011
0000
1000
0000
0100
0000
1000
0000
,
1000
0000
0001
0000
0100
0000
0010
0000
,
0001
0000
1000
0000
0000
0000
0010
0000
,
0000
0000
0001
0000
0100
0000
0020
0000
,
0000
0000
0001
0000
0000
0000
0010
0000
,
0000
0000
0001
0000
0100
0000
0020
0000
,
2000
0000
0000
0000
0000
0000
3000
0000
,
0000
0000
1000
0000
0100
0000
0000
0000
,
0001
0000
0010
0000
0000
0000
0100
0000
,
0000
0000
1000
0000
0100
0000
0000
0000
,
0001
0000
0010
0000
0000
0000
0100
0000
,
0000
0000
1000
0000
0100
0000
0000
0000
,
0001
0000
0010
0000
0000
0000
0100
0000
,
0000
0000
1000
0000
0100
0000
0000
0000
,
0000
0000
1000
0000
0001
0000
0001
0000
,
1000
0000
0001
0000
0100
0000
0000
0000
,
0011
0000
0001
0000
1000
0000
0000
0000
,
0000
0000
0000
0000
0000
0000
2000
0000
,
2000
0000
0000
0000
0000
0000
3000
0000
,
0000
0000
0000
0000
0000
0000
2000
0000
,
0002
0000
0000
0000
0000
0000
0003
0000
,
1000
0000
0001
0000
0100
0000
0010
0000
,
0011
0000
1000
0000
0100
0000
1000
0000
,
1000
0000
0001
0000
0100
0000
0010
0000
,
1000
0000
0001
0000
0100
0000
0010
0000
,
1000
0000
0001
0000
0100
0000
0010
0000
,
0011
0000
1000
0000
0100
0000
1000
0000
,
1000
0000
0001
0000
0100
0000
0010
0000
,
0001
0000
0010
0000
0000
0000
0100
0000
,
0000
0000
0001
0000
0100
0000
0020
0000
,
0000
0000
0001
0000
0000
0000
0010
0000
,
0000
0000
0001
0000
0100
0000
0020
0000
,
0002
0000
0000
0000
0000
0000
0003
0000
,
0000
0000
1000
0000
0100
0000
0000
0000
,
0001
0000
0010
0000
0000
0000
0100
0000
,
0000
0000
1000
0000
0100
0000
0000
0000
,
0001
0000
0010
0000
0000
0000
0100
0000
,
0000
0000
1000
0000
0100
0000
0000
0000
,
0001
0000
0010
0000
0000
0000
0100
0000
,
0000
0000
1000
0000
0100
0000
0000
0000
,
0000
0000
1000
0000
0001
0000
0001
0000
,
1000
0000
0001
0000
0100
0000
0000
0000
,
2000
0000
0000
0000
0000
0000
3000
0000
,
0000
0000
0000
0000
0000
0000
2000
0000
,
2000
0000
0000
0000
0000
0000
3000
0000
,
0000
0000
0000
0000
0000
0000
2000
0000
,
1000
0000
0000
0000
0001
0000
1000
0000
,
1000
0000
0001
0000
0000
0000
0000
0000
,
0000
0000
0000
0000
0000
0000
0000
0000
,
0000
0000
0000
0000
0000
0000
0000
0000
,;

//---------------dance-single - Standard----------------
#NOTES:
     dance-single:
     Standard:
     Medium:
     7:
     0.390,0.403,0.479,0.104,0.000:
0000
0000
0000
0000
1000
0000
0010
0000
,
0000
0000
0000
0000
1000
0000
0010
0000
,
0000
0000
0001
0000
0011
0000
0001
0000
,
0110
0000
0010
0000
0001
0000
0100
0000
,
0011
0000
0001
0100
0001
0000
1000
0000
,
0110
0000
0010
0000
0001
0000
0100
0000
,
0011
0000
0001
0100
0001
0000
1000
0000
,
0110
0000
0010
0000
0001
0000
0100
0000
,
0011
0000
0001
0100
0001
0000
1000
0000
,
0110
0000
0010
0000
0001
0000
0100
0000
,
1000
0000
0001
0000
0000
0000
0010
0001
,
0001
0100
0001
0000
0011
0000
2000
0000
,
0000
0000
0001
0000
0001
0000
0010
0000
,
0001
0100
0001
0000
0011
0000
2000
0000
,
2000
0000
0100
0000
0000
0000
3000
0000
,
0000
0001
0100
0000
0110
0000
0000
0001
,
1000
0000
0101
0000
1000
0000
0110
0000
,
0000
0001
0100
0000
0110
0000
0000
0001
,
1000
0000
0101
0000
1000
0000
0110
0000
,
0000
0001
0100
0000
0110
0000
0000
0001
,
1000
0000
0101
0000
1000
0000
0110
0000
,
0000
0001
0100
0000
0110
0000
0000
0001
,
0001
0000
1100
0000
0001
1000
1000
0000
,
1001
0000
1000
0000
0100
0010
0001
0000
,
1001
0000
1000
0000
0001
0000
0100
0000
,
0000
0000
0000
0000
1000
0000
0200
0000
,
2000
0000
0001
0000
0000
0000
3000
0000
,
0000
0000
0000
0000
1000
0000
0200
0000
,
0002
0000
1000
0000
0000
0000
0003
0000
,
0110
0000
0010
0000
0001
0000
0100
0000
,
0011
0000
0001
0100
0001
0000
1000
0000
,
0110
0000
0010
0000
0001
0000
0100
0000
,
0110
0000
0010
0000
0001
0000
0100
0000
,
0110
0000
0100
0000
0001
0000
0010
0000
,
0011
0000
0001
0100
0001
0000
1000
0000
,
0110
0000
0010
0000
0001
0000
0100
0000
,
1000
0000
0101
0000
1000
0000
0110
0000
,
0001
0100
0001
0000
0011
0000
2000
0000
,
0000
0000
0001
0000
0001
0000
0010
0000
,
0001
0100
0001
0000
0011
0000
2000
0000
,
0002
0000
1000
0000
0000
0000
0003
0000
,
0000
0001
0100
0000
0110
0000
0000
0001
,
1000
0000
0101
0000
1000
0000
0110
0000
,
0000
0001
0100
0000
0110
0000
0000
0001
,
1000
0000
0101
0000
1000
0000
0110
0000
,
0000
0001
0100
0000
0110
0000
0000
0001
,
1000
0000
0101
0000
1000
0000
0110
0000
,
0000
0001
0100
0000
0110
0000
0000
0001
,
0001
0000
1100
0000
0001
1000
1000
0000
,
1001
0000
1000
0000
0100
0010
0001
0010
,
2000
0000
0001
0000
0000
0000
3000
0000
,
0000
0000
0000
0000
1000
0000
0200
0000
,
2000
0000
0001
0000
0000
0000
3000
0000
,
0000
0000
0000
0000
1000
0000
0200
0000
,
1000
1000
0010
0000
1000
0000
0001
0000
,
0001
0000
1000
0000
0000
0000
0000
0000
,
0000
0000
0000
0000
0000
0000
0000
0000
,
0000
0000
0000
0000
0000
0000
0000
0000
,;

//---------------dance-single - Heavy----------------
#NOTES:
     dance-single:
     Heavy:
     Hard:
     8:
     0.506,0.463,0.511,0.135,0.000:
0000
0000
0000
0000
0001
0100
0001
0001
,
0000
0000
0000
0000
1000
0100
1000
1000
,
0001
0100
0010
0000
0110
0000
0100
0000
,
0101
0000
0100
0010
0001
0100
0010
0000
,
0110
0000
0010
1000
0001
0100
0001
0000
,
0101
0000
0100
0010
0001
0100
0010
0000
,
0110
0000
0010
1000
0001
0100
0001
0000
,
0101
0000
0100
0010
0001
0100
0010
0000
,
0110
0000
0010
1000
0001
0100
0001
0000
,
0101
0000
0100
0010
0001
0100
0010
0000
,
0110
0000
0100
0010
0010
0000
1001
0000
,
0001
1000
0001
0000
0101
0000
0002
0000
,
0000
0000
1000
0000
1000
0000
0011
0000
,
0001
1000
0001
0000
0101
0000
0002
0000
,
2000
0000
0100
0000
0010
0000
3000
0100
,
0001
0010
0001
0000
0011
0000
0010
0100
,
0001
0000
1100
0000
1000
0000
1010
0000
,
0001
0010
0001
0000
0011
0000
0010
0100
,
0001
0000
1100
0000
1000
0000
1010
0000
,
0001
0010
0001
0000
0011
0000
0010
0100
,
0001
0000
1100
0000
1000
0000
1010
0000
,
0001
0010
0001
0000
0011
0000
0010
0100
,
0001
0000
1100
0000
0100
0010
0010
0000
,
0011
0000
0001
0000
0100
0001
0010
0000
,
0011
0000
0100
0010
0001
0100
0010
1000
,
0000
0001
0000
1000
1000
0000
0200
0000
,
2000
0000
0100
0000
1000
0000
3000
1000
,
0000
0001
0000
1000
1000
0000
0200
0000
,
0002
0000
0100
0000
0001
0000
0003
0000
,
0101
0000
0100
0010
0001
0100
0010
0000
,
0110
0000
0010
1000
0001
0100
0001
0000
,
0101
0000
0100
0010
0001
0100
0010
0000
,
0101
0000
0100
0010
0001
0100
0010
0000
,
1100
0000
0100
0010
1000
0100
0010
0000
,
0110
0000
0010
1000
0001
0100
0001
0000
,
0101
0000
0100
0010
0001
0100
0010
0100
,
0001
0000
1100
0000
1000
0000
1010
0000
,
0001
1000
0001
0000
0101
0000
0002
0000
,
0000
0000
1000
0000
1000
0000
0011
0000
,
0001
1000
0001
0000
0101
0000
0002
0000
,
0002
0000
0100
0000
0001
0000
0003
0100
,
0001
0010
0001
0000
0011
0000
0010
0100
,
0001
0000
1100
0000
1000
0000
1010
0000
,
0001
0010
0001
0000
0011
0000
0010
0100
,
0001
0000
1100
0000
1000
0000
1010
0000
,
0001
0010
0001
0000
0011
0000
0010
0100
,
0001
0000
1100
0000
1000
0000
1010
0000
,
0001
0010
0001
0000
0011
0000
0010
0100
,
0001
0000
1100
0000
0100
0010
0010
0000
,
0011
0000
0001
0000
0100
0001
0010
0100
,
2000
0000
0100
0000
1000
0000
3000
1000
,
0000
0001
0000
1000
1000
0000
0200
0000
,
2000
0000
0100
0000
1000
0000
3000
1000
,
0000
0001
0000
1000
1000
0000
0200
0000
,
0011
0000
0010
0001
0100
0001
1000
0100
,
1000
0010
0001
0000
0100
0000
0000
0000
,
0000
0000
0000
0000
0000
0000
0000
0000
,
0000
0000
0000
0000
0000
0000
0000
0000
,
;
