#TITLE:Battle 1;
#ARTIST:Nobuo Uematsu;
#BANNER:banner.png;
#BACKGROUND:background.png;
#OFFSET:-1.308186;
#BPMS:0=150.204360;
#MUSIC:23 Battle 1(ff2).mp3;
#CREDIT:Gorilla v1.1.4 (Dancing Monkeys v1.06);
#STOPS:43.000000=1.597823,47.000000=1.597823,131.000000=1.597823,135.000000=1.597823; // --- Arrows ---
#NOTES:
     dance-single:
     Basic:
     easy:
     1:
     :
0001
0000
0000
0000
0000
0000
0000
0000
,
0001
0000
0000
0000
0000
0000
0000
0000
,
1010
0000
0000
0000
1000
0000
0001
0000
,
0011
0000
1000
0000
0000
0000
0100
0000
,
1000
0000
0001
0000
0000
0000
0000
0000
,
1000
0000
0001
0000
0000
0000
0000
0000
,
1010
0000
0000
0000
1000
0000
0001
0000
,
0011
0000
1000
0000
0000
0000
0100
0000
,
0000
0000
0001
0000
1000
0000
0000
0000
,
1000
0000
0001
0000
0000
0000
0000
0000
,
0001
0000
1000
0000
0100
0000
0000
0000
,
0001
0000
1000
0000
0100
0000
0000
0000
,
0020
0000
0000
0000
0000
0000
0000
0000
,
0000
0000
0000
0000
0000
0000
0000
0000
,
0000
0000
0000
0000
0000
0000
0000
0000
,
0000
0000
0000
0000
0000
0000
0000
0000
,
0030
0000
0000
0000
0010
0000
0000
0000
,
1000
0000
0000
0000
0010
0000
0000
0000
,
1000
0000
0100
0000
0200
0000
0000
0000
,
0000
0000
0000
0000
0000
0000
0000
0000
,
0300
0000
0000
0000
0010
0000
0000
0000
,
1000
0000
0000
0000
0100
0000
0020
0000
,
0000
0000
0000
0000
0000
0000
0000
0000
,
0000
0000
0000
0000
0000
0000
0000
0000
,
0030
0000
0000
0000
1000
0000
0001
0000
,
0011
0000
1000
0000
0000
0000
0100
0000
,
1000
0000
0001
0000
0000
0000
0000
0000
,
0001
0000
1000
0000
0000
0000
0000
0000
,
1010
0000
0000
0000
1000
0000
0001
0000
,
0011
0000
1000
0000
0000
0000
0100
0000
,
1000
0000
0001
0000
0000
0000
0000
0000
,
0000
0000
0001
0000
0000
0000
0010
0000
,
0001
0000
1000
0000
0100
0000
0000
0000
,
0001
0000
1000
0000
0100
0000
0000
0000
,
0020
0000
0000
0000
0000
0000
0000
0000
,
0000
0000
0000
0000
0000
0000
0000
0000
,
0000
0000
0000
0000
0032
0000
0000
0000
,
0000
0000
0000
0000
0000
0000
0000
0000
,
0003
0000
0000
0000
0010
0000
0000
0000
,
1000
0000
0000
0000
0010
0000
0000
0000
,
0002
0000
0000
0000
0000
0000
0000
0000
,
0000
0000
0000
0000
0000
0000
0000
0000
,
0003
0000
0000
0000
0010
0000
0000
0000
,
0001
0000
0000
0000
0010
0000
0000
0000
,
0002
0000
0000
0000
0000
0000
0000
0000
,
0000
0000
0000
0000
0000
0000
0000
0000
,
0003
0000
0001
0000
0000
0000
0000
0000
,
0000
0000
0000
0000
0000
0000
0000
0000
,
0000
0000
0000
0000
0000
0000
0000
0000
,
0000
0000
0000
0000
0000
0000
0000
0000
,
#NOTES:
     dance-single:
     Standard:
     medium:
     5:
     :
1000
0000
1000
0000
0000
0000
0000
0000
,
1000
0000
1000
0000
0000
0000
0000
0000
,
0101
0000
0001
0000
0010
0100
1000
0000
,
0110
0000
0001
0010
0001
0000
0100
0000
,
1000
0000
0001
0000
0001
0000
0100
0000
,
1000
0000
0001
0000
0001
0000
0010
0000
,
0101
0000
0001
0000
0010
0100
1000
0000
,
0110
0000
0001
0010
0001
0000
0100
0000
,
0001
0000
0100
0000
0001
0000
0100
0000
,
1000
0000
0001
0000
0001
0000
0100
0000
,
0001
0000
0010
0000
0001
0000
0100
0000
,
0001
0000
0010
0000
0001
0000
0100
0000
,
0002
0000
0001
0000
0000
0000
0100
0000
,
0000
0000
1000
0000
0000
0000
0010
0000
,
0000
0000
0010
0000
0000
0000
0010
0000
,
0000
0000
0010
0000
0000
0000
0010
0000
,
0003
0000
0100
0000
0010
0000
0100
0000
,
0001
0000
0010
0000
0100
0000
0010
0000
,
1100
0000
0010
0000
0002
0000
0010
0000
,
0000
0000
0010
0000
0000
0000
0010
0000
,
0003
0000
0100
0000
0010
0000
0100
0000
,
0001
0000
0010
0000
0100
0000
0200
0000
,
0000
0000
0001
0000
0000
0000
0010
0000
,
0000
0000
0001
0000
0000
0000
0100
0000
,
0300
0000
0001
0000
0010
0100
1000
0000
,
0110
0000
0001
0010
0001
0000
0100
0000
,
1000
0000
0001
0000
0001
0000
0100
0000
,
0001
0000
1000
0000
1000
0000
0100
0000
,
0101
0000
0001
0000
0010
0100
1000
0000
,
0110
0000
0001
0010
0001
0000
0100
0000
,
1000
0000
0001
0000
0001
0000
0100
0000
,
0001
0000
1000
0000
0100
0000
1000
0000
,
0001
0000
0010
0000
0001
0000
0100
0000
,
0001
0000
0010
0000
0001
0000
0100
0000
,
0200
0000
0001
0000
0000
0000
0100
0000
,
0000
0000
0001
0000
0000
0000
0100
0000
,
0000
0000
0010
0000
0320
0000
0010
0000
,
0000
0000
0100
0000
0000
0000
0100
0000
,
0030
0000
0100
0000
0010
0000
0100
0000
,
0001
0000
0100
0000
0010
0000
0100
0000
,
0020
0000
0010
0000
0000
0000
0010
0000
,
0000
0000
0100
0000
0000
0000
0100
0000
,
0030
0000
0100
0000
0010
0000
0100
0000
,
0001
0000
0010
0000
0100
0000
0010
0000
,
0020
0000
0001
0000
0000
0000
0010
0000
,
0000
0000
1000
0000
0000
0000
0001
0000
,
0030
0000
1000
0000
0100
0000
0000
0000
,
0000
0000
0000
0000
0000
0000
0000
0000
,
0000
0000
0000
0000
0000
0000
0000
0000
,
0000
0000
0000
0000
0000
0000
0000
0000
,
#NOTES:
     dance-single:
     Heavy:
     hard:
     7:
     :
1000
0000
1000
0000
1000
0000
1000
0000
,
1000
0000
1000
0000
1000
0000
1000
0000
,
0101
0000
1000
0001
0100
0001
1000
0000
,
0110
0000
0100
1000
0001
1000
0010
0000
,
1000
0010
0100
0010
0010
0000
1000
0100
,
1000
0100
0010
0100
0100
0000
1000
0000
,
0101
0000
1000
0001
0100
0001
1000
0000
,
0110
0000
0100
1000
0001
1000
0010
0000
,
1000
0001
0010
0100
1000
0000
0001
0000
,
1000
0010
0100
0010
0010
0000
1000
0100
,
1000
0001
0100
0100
0010
0100
0010
1000
,
1000
0001
0100
0100
0010
0100
0010
1000
,
0200
0000
0100
0000
0010
0000
1000
0000
,
1000
0000
0010
0000
0100
0000
1000
0000
,
0000
0000
0100
0000
1000
0000
1000
0000
,
0000
0000
0100
0000
1000
0000
1000
0000
,
0300
1000
0001
0000
0011
0000
0001
0000
,
1100
0000
0001
0000
0101
0000
0001
0000
,
1100
0000
0100
0010
0200
0000
1000
0000
,
0000
0000
0010
0000
0001
0000
0001
0000
,
0300
1000
0001
0000
0011
0000
0001
0000
,
0101
0000
1000
0000
1100
0000
0200
0000
,
0000
0000
1000
0000
0100
0000
1000
0000
,
0000
0000
1000
0000
0100
0000
1000
0000
,
0300
0001
1000
0001
0100
0001
1000
0000
,
0110
0000
0100
1000
0001
1000
0010
0000
,
1000
0010
0100
0010
0010
0000
1000
0100
,
1000
0100
0010
0100
0100
0000
1000
0000
,
0101
0000
1000
0001
0100
0001
1000
0000
,
0110
0000
0100
1000
0001
1000
0010
0000
,
1000
0010
0100
0010
0010
0000
1000
0100
,
0001
0010
0001
0100
0010
0000
1000
0001
,
1000
0001
0100
0100
0010
0100
0010
1000
,
1000
0001
0100
0100
0010
0100
0010
1000
,
0002
0000
0100
0000
0010
0000
1000
0000
,
1000
0000
0100
0000
0010
0000
1000
0000
,
0000
0000
0100
0000
0002
0000
1000
0000
,
0000
0000
0010
0000
1000
0000
1000
0000
,
0003
1000
0001
0000
0011
0000
0001
0000
,
1010
0000
0001
0000
0011
0000
0001
0001
,
2000
0000
0100
0000
1000
0000
1000
0000
,
0000
0000
0010
0000
1000
0000
1000
0000
,
3000
1000
0001
0000
0011
0000
0001
0000
,
1100
0000
0001
0000
0101
0000
0001
0001
,
2000
0000
1000
0000
0100
0000
1000
0000
,
0000
0000
1000
0000
1000
0000
0001
0000
,
3000
1000
0010
0000
0001
0000
0001
0000
,
0000
0000
0000
0000
0000
0000
0000
0000
,
0000
0000
0000
0000
0000
0000
0000
0000
,
0000
0000
0000
0000
0000
0000
0000
0000
,
