#TITLE:Background Game Music II;
#SUBTITLE:(Sliver Surfer);
#ARTIST:Tim Follin, Geoff Follin;
#TITLETRANSLIT:;
#SUBTITLETRANSLIT:;
#ARTISTTRANSLIT:;
#CREDIT:;
#BANNER:bn.png;
#BACKGROUND:bg.png;
#LYRICSPATH:;
#CDTITLE:;
#MUSIC:Silver Surfer (NES) Background Game Music II.ogg;
#OFFSET:0.000;
#SAMPLESTART:16.000;
#SAMPLELENGTH:12.000;
#SELECTABLE:YES;
#BPMS:0.000=300.240,15.000=150.120,143.500=75.060,147.500=150.120,251.500=300.241,266.500=150.120;
#STOPS:;
#BGCHANGES:;

//---------------dance-single - ----------------
#NOTES:
     dance-single:
     :
     Hard:
     9:
     0.596,0.752,0.210,0.594,0.288:
0000
0000
0000
0000
,
0000
0000
0000
0000
,
0000
0000
0000
0000
,
0000
0000
0000
1001
,
0000
1100
0000
0000
0001
0000
0202
0000
,
0000
0000
0303
1001
,
0000
0101
0000
0000
0110
0000
2200
0000
,
0000
0000
3300
1001
,
0000
0110
0000
0000
1100
0000
2020
0000
,
0000
0000
0000
0000
3030
0000
0001
1000
,
0000
0000
0001
0000
0100
0000
0010
0000
0000
0100
0000
0000
0100
0000
0002
0000
,
0000
0000
1000
0000
1003
0000
1000
0000
0000
0001
0000
0000
1000
0000
0001
0100
,
0001
0000
0010
0100
0000
1000
0000
0001
0100
0000
0010
0000
1000
0000
0001
0100
,
0001
0000
0010
0001
0000
0010
0000
0100
1000
0000
0001
0000
0100
0000
0010
0100
,
0010
0000
1000
0001
0000
1000
0000
0001
0100
0000
0010
0000
1000
0000
0100
1000
,
0100
0000
0001
0100
0000
0010
0000
1000
0001
0000
0100
0000
0010
0000
0110
0000
,
0000
2000
0000
3002
0000
0103
0000
0000
,
0000
0020
0000
2030
0000
3100
0000
1001
,
0000
0000
0000
0000
1000
0001
0100
0000
0010
0100
0000
1000
0001
0000
0100
0000
,
0000
0010
1000
0001
0010
0001
0200
0000
0000
0000
0302
0000
0000
0000
0013
0001
,
0010
0000
0001
0000
1000
0100
1000
0000
0001
1000
0000
1000
0001
0000
0100
0010
,
0100
0000
1000
0100
0010
0001
0200
0000
0000
0000
0320
0000
0000
0000
2030
0000
,
0000
0000
3000
0000
0001
0100
0002
0000
0000
0000
0003
0000
0010
0100
0020
0000
,
0000
0000
0000
0000
1030
0001
0100
0000
0010
0000
1000
0000
0010
0000
2000
0000
,
0000
0000
0000
0000
3100
1000
0020
0000
0000
0000
0000
0000
0130
0010
2000
0000
,
0000
0000
0000
3002
0000
0203
0000
0301
,
1000
0000
0100
0000
1000
0100
1000
0000
0010
0000
0001
0000
1000
0001
0100
0000
,
0010
0000
1000
0000
0001
0010
0001
0000
0010
0000
0100
0000
0001
0000
0100
0000
,
0010
0000
1000
0000
0001
0100
0010
0000
1000
0000
0001
0000
1000
0100
1000
0000
,
0001
0100
0010
2000
0000
3200
0000
2300
,
0000
0000
0000
0000
3001
0100
0020
0000
0000
0000
0000
0000
1030
0001
0200
0000
,
0000
0000
0000
0000
0310
1000
0010
0000
1010
0000
0100
0000
0110
0000
0002
0000
,
0000
0000
0000
0000
0103
0001
0020
0000
0000
0000
0000
0000
0031
0100
0002
0000
,
0000
0000
0000
2003
0000
3100
0000
2002
,
0000
0000
0000
0000
,
0000
0000
0000
0000
0000
0000
3003
1000
,
0001
0100
0001
0010
0100
0010
0002
1003
,
0000
0000
0100
0000
0000
0010
0000
0000
0100
0000
0010
0000
0000
0001
1000
0000
,
0000
0000
0010
0000
0000
0100
0000
0000
0100
0000
0010
0001
0010
0001
0010
0000
,
0001
0100
0001
0010
0001
0100
0001
0020
,
0000
0001
0000
0000
0002
0000
0000
0000
0000
0000
0000
0000
0033
0000
1000
0000
,
0010
0001
0010
1000
0010
0001
0010
2000
,
0000
0010
0000
0000
0020
0000
0000
0000
0000
0000
0000
0000
3030
0000
0001
0000
,
0100
1000
0100
0001
0100
1000
0100
0002
,
0000
0100
0000
0000
0200
0000
0000
0000
0000
0000
0000
0000
0303
0000
0100
0000
,
1000
0010
1000
0100
1000
0010
1000
0200
,
0000
1000
0000
0000
2000
0000
0000
0000
0000
0000
0000
0000
3300
0000
1000
0000
,
0001
0100
0001
0010
0001
0100
0010
1000
,
0200
0000
2300
0000
3100
1000
0001
1000
,
0001
0010
0100
1000
0001
0010
0100
0010
,
0200
0000
0302
0000
0003
1000
0000
0011
,
0000
0000
1100
0000
0000
0110
0000
0000
,
0011
0000
0000
1001
0000
0101
0000
0010
,
1000
0001
0010
0001
0100
1000
0100
1000
,
0001
0100
0001
0010
0001
0010
0100
2000
,
0000
0000
0000
3002
0000
0000
0000
0203
,
0000
0302
0000
0203
0000
0302
0000
0023
,
0000
0032
0000
0203
0000
0320
0000
2030
,
0000
0000
0000
0200
0000
3300
0000
1010
,
0000
0000
0020
0000
0000
0130
0000
2000
,
0000
0000
0000
0001
0000
0010
0000
3200
,
0000
0000
0000
0000
0000
0000
2000
0000
0000
0000
3300
0000
0000
0000
0010
1000
,
0001
0010
0001
0010
0100
1000
0001
0100
0001
0010
0100
1000
0001
0100
0001
0000
,
1000
0001
1000
0001
1000
0001
1000
0001
,
1000
0001
1000
0001
1000
0001
1000
0001
,
1000
0001
1000
0001
1000
0001
1000
0001
,
1000
0001
1000
0001
2000
0002
0000
0000
,
0000
0000
0000
0000
,
0000
0000
0000
0000
0000
3003
0000
0000
;

//---------------dance-single - ----------------
#NOTES:
     dance-single:
     :
     Medium:
     5:
     0.359,0.376,0.146,0.420,0.046:
0000
0000
0000
0000
,
0000
0000
0000
0000
,
0000
0000
0000
0000
,
0000
0000
0000
1001
,
0000
1001
0000
0000
1001
0000
2002
0000
,
0000
0000
3003
0110
,
0000
0110
0000
0000
0110
0000
0220
0000
,
0000
0000
0330
1010
,
0000
0101
0000
0000
1010
0000
0202
0000
,
0000
0000
0000
0000
0000
0000
0303
2000
,
0000
0000
0000
0000
0000
3000
0000
0002
,
0000
0000
0000
0000
0000
0000
0003
0100
,
0000
0010
0000
1000
0000
0001
0100
0001
,
0000
0010
0000
0001
0000
0100
1000
0100
,
0000
0010
0000
1000
0000
0001
1000
0001
,
0000
0100
0000
0001
0000
0010
0001
0010
,
0000
1000
0000
1000
0000
1000
0000
0000
,
0000
0001
0000
0001
0000
0001
0000
0100
,
0000
0000
0000
0010
0000
1000
0000
0001
,
0000
0100
0001
0100
0000
0010
0000
2000
,
0000
0000
0000
3200
0000
1300
0000
0020
,
0000
0130
0010
2000
0000
3001
0000
2000
,
0000
0000
0000
3002
0000
0000
0000
0203
,
0000
0000
0301
0100
0010
1000
0010
0200
,
0000
0000
0000
0320
0000
0000
0000
2030
,
0000
0000
0000
0001
0000
3001
0000
0002
,
0000
0000
0103
0002
0000
0000
0103
0002
,
0000
0000
0103
0001
0100
0010
1000
0020
,
0000
0000
1030
0020
0000
0000
1030
0020
,
0000
0000
0000
2030
0000
3200
0000
2300
,
0000
0000
3100
2000
0000
0000
3100
2000
,
0000
0000
3100
1000
0100
0010
0001
0020
,
0000
0000
0031
0020
0000
0000
0031
0020
,
0000
0000
0000
0031
0000
0010
0000
2002
,
0000
0000
0000
0000
,
0000
0000
0000
0000
0000
3003
0000
1001
,
0000
0001
0000
0001
0000
0001
0000
1001
,
0000
0000
0001
0000
0000
0100
0000
0000
0010
0000
1000
0000
0000
0000
0010
0000
,
0000
0000
0100
0000
0000
0010
0000
0000
1000
0000
0001
0000
0000
0000
1000
0000
,
0000
0001
0000
1000
0000
0001
0000
1000
,
0000
1000
0000
0000
1000
0000
0000
0000
0000
0000
0000
0000
0000
0000
0010
0000
,
0000
1000
0000
0010
0000
0100
0000
0001
,
0000
0100
0000
0000
0010
0000
0000
0000
0000
0000
0000
0000
0000
0000
0010
0000
,
0000
0001
0000
0010
0000
0001
0000
0100
,
0000
1000
0000
0000
0010
0000
0000
0000
0000
0000
0000
0000
0000
0000
0001
0000
,
0000
1000
0000
0001
0000
0100
0000
0010
,
0000
0010
0000
0000
0010
0000
0000
0000
0000
0000
0000
0000
0000
0000
1000
0000
,
0000
0001
0000
0100
0000
0010
0000
1000
,
0000
0100
0000
0000
1000
0000
0000
0100
0000
0000
1000
0000
0100
0000
0010
0000
,
0000
0001
0000
0010
0000
0100
0000
0010
,
0000
1000
0000
0000
0010
0000
0000
1000
0000
0000
0001
0000
0100
0000
0020
0000
,
0000
0000
0130
0000
0000
0200
0000
0000
,
0310
0000
0000
1000
0000
0001
0000
1000
,
0000
0001
0000
0100
0000
0010
0000
0001
,
0000
0010
0000
0100
0000
1000
0000
0002
,
0000
0000
0000
0100
0000
0000
0000
0100
,
0000
0100
0000
0010
0000
0010
0000
1000
,
0000
1000
0000
0100
0000
0100
0000
2000
,
0000
0003
0000
0002
0000
3003
0000
0002
,
0000
0000
0103
0000
0000
0010
0000
2000
,
0000
0000
0000
0100
0000
0010
0000
0200
,
0000
3000
0000
2000
0000
3300
0000
0010
,
0001
0010
0100
1000
0010
0100
0000
0002
,
0000
0000
0000
0000
,
0000
0000
0000
0000
,
0000
0000
0000
0000
,
0003
0001
1000
0001
0000
2002
0000
0000
,
0000
0000
0000
0000
,
0000
0000
0000
0000
0000
3003
0000
0000
;

//---------------dance-single - Soul Surfer----------------
#NOTES:
     dance-single:
     Soul Surfer:
     Challenge:
     12:
     0.987,1.000,0.311,0.731,1.000:
0000
0000
0000
0000
,
0000
0000
0000
0000
,
0000
0000
0000
0000
,
0000
0000
0000
1100
,
0000
0202
0000
0000
0010
0000
1010
0000
,
0000
0000
0000
0303
0000
0000
1001
0000
,
0000
2200
0000
0000
0010
0000
0011
0000
,
0000
3300
0000
0000
0000
0000
0101
0000
,
0000
0220
0000
0000
1000
0000
1000
0000
,
0000
0000
0000
0000
0000
0000
0000
0000
0000
0000
0000
0000
0000
0000
0000
0000
0000
0000
0330
0000
0000
1000
0000
0001
,
0000
0000
0100
0000
0000
0000
0001
0000
0000
0000
0010
0000
0000
0000
0001
0000
0000
0000
0100
0000
0000
0000
0000
0000
0000
0000
0000
0100
0000
0000
0000
0000
0000
0000
0000
0000
0100
0000
0000
0000
0000
0000
1000
0000
0000
0000
0001
0000
,
0000
0000
0010
0000
0000
0000
0001
0000
0000
0000
0010
0000
0000
0000
0100
0000
0000
0000
1100
0000
0000
0000
0000
0000
0000
0000
0011
0000
0000
0000
0000
0000
0000
0000
0000
0000
1001
0000
0000
0000
0000
0000
0001
0000
0000
0100
0000
0000
,
0001
0000
0001
0010
0000
0010
0000
0010
0100
0000
1001
0000
0110
0000
0010
0100
,
0001
0000
1000
0100
0000
0001
0000
0100
0001
0000
0101
0000
1010
0000
0010
0100
,
0010
0000
1000
0001
0000
0010
0000
0001
0010
0000
1100
0000
1100
0000
1000
0100
,
1000
0000
0100
0010
0000
0001
0000
0100
0001
0000
0010
0000
1000
0000
1001
0000
,
0000
0000
1000
0100
0010
0100
1000
0001
0100
0001
0010
0001
0100
0010
0000
0000
,
0000
0000
0010
1000
0001
0010
0100
0010
0001
1000
0100
1000
0100
0010
0002
0000
,
0000
0000
0003
0000
0100
0001
0010
0000
0001
0010
0000
0100
1000
0000
0001
0000
,
0000
1000
0001
0100
0001
0010
0002
0000
0000
0000
0203
0000
0000
0000
0310
1000
,
0010
1000
0010
1000
0010
0100
0001
1000
0001
1000
0001
1000
0010
0001
0010
0100
,
1000
0100
0001
0100
0001
0010
0001
0010
0001
0010
0001
0100
0001
0100
0001
0000
,
1000
0000
1001
0000
0001
0100
0020
0000
0100
0000
0130
0000
0100
0010
2000
0000
,
0001
0000
0001
0000
0001
3100
0010
0000
0110
0000
1000
0000
1100
0000
0002
0000
,
0100
0000
0103
0000
0010
1000
0002
0000
0100
0000
0103
0000
0010
1000
0200
0000
,
1000
0000
1300
0000
0001
0100
0020
0000
0000
0000
1030
0000
0000
0000
1000
0001
,
1000
0000
0100
0001
0100
0000
0010
0100
0010
1000
0001
0000
1000
0000
0001
1000
,
0001
0000
0100
0010
0100
0000
1000
0100
0010
0100
1000
0000
0011
0000
1000
0001
,
0100
0000
0010
0000
1000
0001
0100
0001
0100
0001
0100
0000
0001
0000
1000
0001
,
0100
0000
0010
1000
0010
0000
0001
0100
0010
1000
0100
0000
1100
0000
2000
0000
,
0100
0000
3100
0000
1000
0100
2000
0000
0100
0000
3010
0000
0100
0001
0200
0000
,
0001
0000
0301
0000
1000
0001
0100
0000
0101
0000
0011
0000
0110
0000
1002
0000
,
1000
0000
0103
0000
0010
1000
0002
0000
0010
0000
0103
0000
0010
1000
0002
0000
,
0100
0000
0013
0000
0001
0000
1000
0001
0100
0000
0010
1000
0001
0000
1000
0000
,
0100
0000
0001
0100
0000
0010
1000
0000
0001
0000
1000
0000
0100
0000
0001
0000
,
0010
0000
0000
0000
1000
0000
0100
0000
0000
0000
0001
0000
0010
0000
0000
0000
1000
0000
0000
0000
0001
0000
0000
0000
0100
0000
0000
0000
1001
0000
0001
1000
,
0001
0010
0001
0010
0100
0000
0100
0001
0100
0001
0010
0100
1000
0000
1000
0001
1000
0001
0100
0001
0010
0000
1000
0001
0010
0100
1000
0001
0100
0000
0000
0000
,
1001
0000
0001
0000
0100
0001
0000
0001
0010
0000
0100
0000
1000
0100
1000
0000
,
0001
0000
0101
0000
1000
0100
0000
0001
0010
0000
0001
1000
0001
0100
0001
0000
,
0010
1000
0010
0001
0010
1000
0001
0001
,
1000
0010
0000
0001
0010
0100
1000
0100
0010
0001
1000
0001
0100
0001
0010
0000
,
0001
0100
0001
0010
0001
0100
0001
0100
,
1000
0100
0000
0100
1000
0010
0100
0010
1000
0001
0100
0001
0100
0010
2000
0000
,
3001
0200
0310
2000
3001
0020
0031
1000
,
0001
0100
0000
0010
1000
0001
0010
0100
1000
0100
1000
0001
0100
0001
0200
0000
,
0310
2000
3100
0002
0013
0002
0103
1000
,
0001
0100
0000
0010
1000
0001
0100
0001
0010
0100
1000
0001
0100
0001
1000
0001
,
0100
0001
0010
0001
0010
0100
1000
0001
0100
0010
1000
0100
2000
0000
3001
0000
,
0002
0010
0003
0020
0100
0030
1000
0200
0000
1300
0002
0000
0203
0000
0301
1000
,
0010
1000
0100
1000
0100
0010
0001
1000
0010
0100
0001
0010
0002
0000
1003
0000
,
2000
0100
3000
0200
0010
0300
0001
0020
0000
0031
2000
0000
3020
0000
0230
0000
,
0000
0000
0002
0000
0000
0010
0000
0000
,
1000
0000
0000
0010
0000
1000
0303
0001
,
0100
0001
1000
0001
0010
0001
0010
0100
,
1000
0000
0000
0100
0000
0000
0010
0000
0000
1000
0000
0000
0001
0000
0000
0100
0000
0000
0001
0000
0000
1000
0100
1000
,
0100
1000
0100
1000
0100
1000
0100
1000
0100
1000
0100
1000
0100
1000
0100
1000
0000
0000
0000
0000
0000
0001
0010
0001
,
0010
0001
0010
0001
0010
0001
0010
0001
0010
0001
0010
0001
0010
0001
0010
0001
0000
0000
0000
0000
0000
1000
0001
1000
,
0001
1000
0001
1000
0001
1000
0001
1000
0001
1000
0001
1000
0001
1000
0001
1000
0000
0000
0000
0000
0000
1000
0100
0010
,
0001
0010
0100
1000
0100
0010
0001
0010
0100
1000
0100
0010
0001
0010
0100
1000
0000
0000
0000
0000
0000
1100
0000
0000
,
0001
0100
0001
0000
0110
0000
1000
0001
0100
0000
0110
0000
1000
0001
1000
0000
,
0100
0010
1000
0000
0001
0100
0001
0000
1000
0000
0001
0000
0100
0000
0002
0000
,
0000
0000
0000
0000
0000
0000
0020
0000
0000
0000
0000
0000
0033
0000
0010
0100
,
1000
0001
0100
0001
0010
0100
0001
0010
0100
1000
0001
0100
0001
0010
0002
0000
,
0023
0032
0203
0320
2030
3002
0203
0320
,
2030
3200
0320
0230
2300
3002
0023
0032
,
0203
0320
2030
3002
0023
0032
0203
0320
,
2030
3002
0203
0302
0023
0032
0000
0000
,
2003
0000
0000
3020
0030
2002
0000
0000
,
0000
0000
3003
0000
;

//---------------dance-single - ----------------
#NOTES:
     dance-single:
     :
     Easy:
     3:
     0.232,0.304,0.037,0.356,0.000: // measure 1
0000
0000
0000
0000
,  // measure 2
0000
0000
0000
0000
,  // measure 3
0000
0000
0000
0000
,  // measure 4
0000
0000
0000
0001
,  // measure 5
0000
1000
0000
0000
0001
0000
0202
0000
,  // measure 6
0000
0000
0303
0010
,  // measure 7
0000
0100
0000
0000
0010
0000
0220
0000
,  // measure 8
0000
0000
0330
1000
,  // measure 9
0000
0001
0000
0000
0100
0000
0202
0000
,  // measure 10
0000
0000
0000
0000
0000
0000
0303
0001
,  // measure 11
0000
0000
0000
0000
0000
0000
0000
1000
,  // measure 12
0000
0000
0000
0000
0000
0000
0000
0010
,  // measure 13
0000
1000
0000
0010
0000
0100
0000
0010
,  // measure 14
0000
1000
0000
0001
0000
0100
0000
0001
,  // measure 15
0000
0010
0000
0001
0000
0100
0000
0001
,  // measure 16
0000
0010
0000
0100
0000
0010
0000
0000
,  // measure 17
0000
1000
0000
1000
0000
1000
0000
0000
,  // measure 18
0000
0001
0000
0001
0000
0001
0000
0100
,  // measure 19
0000
0000
0000
0010
0000
1000
0000
0001
,  // measure 20
0000
0100
0000
0010
0000
0100
0000
0020
,  // measure 21
0000
0000
0000
1030
0000
0001
0000
0200
,  // measure 22
0000
0001
0000
0302
0000
0203
0000
0301
,  // measure 23
0000
0000
0000
1000
0000
0000
0000
0010
,  // measure 24
0000
0000
0000
0100
0000
0100
0000
0010
,  // measure 25
0000
0000
0000
1000
0000
0000
0000
0001
,  // measure 26
0000
0000
0000
0100
0000
0001
0000
2000
,  // measure 27
0000
3000
0000
0002
0000
0003
0000
0200
,  // measure 28
0000
0300
0000
0010
0000
0010
0000
2000
,  // measure 29
0000
3000
0000
0020
0000
0030
0000
0200
,  // measure 30
0000
0300
0000
0002
0000
0003
0000
2000
,  // measure 31
0000
3000
0000
0002
0000
0003
0000
0200
,  // measure 32
0000
0300
0000
0001
0000
1000
0000
0200
,  // measure 33
0000
0300
0000
2000
0000
3000
0000
0020
,  // measure 34
0000
0030
0000
0100
0000
0001
0000
0202
,  // measure 35
0000
0000
0000
0000
,  // measure 36
0000
0000
0000
0000
0000
0000
0000
0303
,  // measure 37
0000
0000
0000
0000
0000
0000
0000
1000
,  // measure 38
0000
0000
0000
0000
0000
0000
0000
0001
,  // measure 39
0000
0000
0000
0000
0000
0000
0000
0100
,  // measure 40
0000
0000
0000
0100
0000
0000
0000
0200
,  // measure 41
0000
0000
0000
0000
0000
0300
0000
0010
,  // measure 42
0000
0000
0000
0010
0000
0000
0000
0020
,  // measure 43
0000
0000
0000
0000
0000
0030
0000
1000
,  // measure 44
0000
0000
0000
1000
0000
0000
0000
2000
,  // measure 45
0000
0000
0000
0000
0000
3000
0000
0001
,  // measure 46
0000
0000
0000
0001
0000
0000
0000
0002
,  // measure 47
0000
0000
0000
0000
0000
0003
0000
1000
,  // measure 48
0000
0001
0000
0100
0000
0001
0000
0200
,  // measure 49
0000
0000
0000
0000
0000
0300
0000
0010
,  // measure 50
0000
1000
0000
0010
0000
0100
0000
0002
,  // measure 51
0000
0000
0000
0000
0000
0003
0000
1000
,  // measure 52
0000
0000
1000
0000
0000
1000
0000
0000
,  // measure 53
1000
0000
0000
1000
0000
1000
0000
0001
,  // measure 54
0000
0100
0000
0001
0000
0100
0000
0010
,  // measure 55
0000
0001
0000
0001
0000
0100
0000
0020
,  // measure 56
0000
0000
0000
0030
0000
0000
0000
0200
,  // measure 57
0000
0000
0000
0300
0000
0000
0000
2000
,  // measure 58
0000
0000
0000
3000
0000
0000
0000
0002
,  // measure 59
0000
0000
0000
0003
0000
0000
0000
1000
,  // measure 60
0000
0000
0001
0000
0000
0100
0000
0020
,  // measure 61
0000
0000
0000
0130
0000
0010
0000
2000
,  // measure 62
0000
0000
0000
3001
0000
0000
0000
1000
,  // measure 63
0000
0001
0000
0100
0000
0020
0000
2000
,  // measure 64
0000
0000
0000
0000
,  // measure 65
0000
0000
0000
0000
,  // measure 66
0000
0000
0000
0000
,  // measure 67
0000
0000
0000
0000
0000
3030
0000
0000
;

//---------------dance-single - ----------------
#NOTES:
     dance-single:
     :
     Beginner:
     1:
     0.085,0.113,0.018,0.000,0.000:
0000
0000
0000
0000
,
0000
0000
0000
0000
,
0000
0000
0000
0000
,
0000
0000
0000
0010
,
0000
0010
0000
0000
0010
0000
0010
0000
,
0000
0000
0000
0100
,
0000
0100
0000
0000
0100
0000
0100
0000
,
0000
0000
0000
1000
,
0000
1000
0000
0000
1000
0000
1000
0000
,
0000
0000
0000
0000
0000
0000
0000
0001
,
0000
0000
0000
0000
0000
0000
0000
1000
,
0000
0000
0000
0000
0000
0000
0000
0010
,
0000
0000
0000
0000
0000
0000
0000
0100
,
0000
0000
0000
0000
0000
0000
0000
0010
,
0000
0000
0000
0000
0000
0000
0000
1000
,
0000
0000
0000
0000
,
0000
0001
0000
0000
0000
0000
0000
0000
,
0000
1000
0000
0000
0000
0000
0000
0010
,
0000
0000
0000
0000
,
0000
0000
0000
0000
0000
0000
0000
0100
,
0000
0000
0000
0000
,
0000
0000
0000
0000
0000
0000
0000
1000
,
0000
0000
0000
0001
0000
0000
0000
1000
,
0000
0000
0000
0000
0000
0000
0000
0001
,
0000
0000
0000
0001
0000
0000
0000
0001
,
0000
0000
0000
0000
0000
0000
0000
0100
,
0000
0000
0000
0100
0000
0000
0000
0100
,
0000
0000
0000
0000
0000
0000
0000
0010
,
0000
0000
0000
0010
0000
0000
0000
0010
,
0000
0000
0000
0000
0000
0000
0000
1000
,
0000
0000
0000
1000
0000
0000
0000
1000
,
0000
0000
0000
0000
0000
0000
0000
0001
,
0000
0000
0000
0001
0000
0000
0000
0001
,
0000
0000
0000
0000
0000
0000
0000
1001
,
0000
0000
0000
0000
,
0000
0000
0000
0000
0000
0000
0000
0110
,
0000
0000
0000
0000
0000
0000
0000
1000
,
0000
0000
0000
0000
0000
0000
0000
1000
,
0000
0000
0000
0000
0000
0000
0000
0001
,
0000
0000
0000
0000
,
0000
0000
0000
0000
0000
0000
0000
0010
,
0000
0000
0000
0000
,
0000
0000
0000
0000
0000
0000
0000
1000
,
0000
0000
0000
0000
,
0000
0000
0000
0000
0000
0000
0000
0100
,
0000
0000
0000
0000
,
0000
0000
0000
0000
0000
0000
0000
1000
,
0000
0000
0000
0000
0000
0000
0000
0001
,
0000
0000
0000
0000
0000
0000
0000
0100
,
0000
0000
0000
0000
0000
0000
0000
0010
,
0000
0000
0000
0000
0000
0000
0000
1000
,
0000
0000
0000
0000
0000
0000
0000
0001
,
0000
0000
0000
0000
0000
0000
0000
0100
,
0000
0000
0000
0000
,
0000
0000
0000
0000
0000
0000
0000
0010
,
0000
0000
0000
0000
0000
0000
0000
1000
,
0000
0000
0000
0000
0000
0000
0000
0001
,
0000
0000
0000
0000
0000
0000
0000
0100
,
0000
0000
0000
0000
0000
0000
0000
0010
,
0000
0000
0000
0000
0000
0000
0000
1000
,
0000
0000
0000
0000
0000
0000
0000
0001
,
0000
0000
0000
0000
0000
0000
0000
1000
;
