#TITLE:Water & Wind;
#SUBTITLE:(Elemental Skylands Future);
#ARTIST:Rainbowdragoneyes;
#TITLETRANSLIT:;
#SUBTITLETRANSLIT:;
#ARTISTTRANSLIT:;
#GENRE:The Messenger;
#CREDIT:[Ness];
#BANNER:The Messenger - Water & Wind (Elemental Skylands Future).png;
#BACKGROUND:The Messenger - Water & Wind (Elemental Skylands Future)-bg.png;
#LYRICSPATH:;
#CDTITLE:;
#MUSIC:The Messenger - Water & Wind (Elemental Skylands Future).mp3;
#OFFSET:-0.015000;
#SAMPLESTART:12.725331;
#SAMPLELENGTH:20.317459;
#LASTBEATHINT:319.000000;
#SELECTABLE:YES;
#DISPLAYBPM:95.000000:189.000000;
#BPMS:0.000000=94.500000
,16.000000=45.689999
,17.250000=60.000000
,17.375000=70.000000
,17.500000=90.000000
,17.625000=100.000000
,17.750000=130.000000
,17.875000=150.000000
,19.000000=189.000000
;
#STOPS:
;
#BGCHANGES:;
#KEYSOUNDS:;
#ATTACKS:;

//---------------dance-single - ----------------
#NOTES:
     dance-single:
     :
     Challenge:
     10:
     0.844001,1.160679,0.669514,0.226187,0.411660,653.000000,579.000000,74.000000,25.000000,63.000000,0.000000,0.844001,1.160679,0.669514,0.226187,0.411660,653.000000,579.000000,74.000000,25.000000,63.000000,0.000000:
0000
0000
0000
0000
,
0000
0000
0000
0000
,
1001
0000
0001
0010
0000
0001
1000
0000
1000
0010
0000
1000
0001
0000
1000
0000
,
0001
0000
1000
0010
0000
1000
0001
0000
0001
0010
0000
0001
1000
0000
0001
0000
,
1000
0000
0000
0000
0000
0000
1001
0MM0
,
1000
1100
0000
0001
0220
0000
0330
0000
,
1M00
0000
0010
0001
1000
0010
0000
0110
,
0M00
0001
0101
000M
1000
1001
0000
0000
,
0000
1000
0010
1000
0100
0010
0011
0000
,
1010
0000
0001
1000
2000
0002
0000
0000
,
3003
0100
0001
0010
0100
1000
0000
1100
,
0M00
0010
0110
000M
0100
0101
0000
2001
,
0000
0000
0000
0000
3100
0000
0020
0000
0000
0000
0000
0000
0031
0100
0001
0000
,
1000
0000
0010
0000
0100
0010
1000
0000
0100
0000
1000
0000
0001
0010
0100
0000
,
0010
0000
0001
0000
0010
0100
1000
0000
0001
0000
1000
0000
0001
0100
0010
0000
,
1000
0000
0001
0000
0010
0100
0010
0000
0001
0000
1000
0000
0010
0100
0001
0000
,
1000
0000
0100
0000
0010
0001
1000
0000
0001
0000
0100
0000
0010
1000
0010
0000
,
0100
0001
1000
0000
0001
0010
0001
0000
1000
0100
0010
0000
0001
0100
0001
0000
,
1000
0010
0100
0000
0010
1000
0010
0000
0100
0001
1000
0000
0100
1000
0100
0000
,
0010
0001
1000
0000
0001
0100
0001
0000
1000
0010
0100
0000
0010
1000
0010
0000
,
0100
0001
0010
0000
0001
1000
0001
0000
0100
0010
1000
0000
0001
0000
0000
0000
,
0010
0011
MMMM
0010
1010
MMMM
0100
1100
,
MMMM
0100
0101
0000
1001
0000
1100
0000
,
0100
0101
MMMM
0010
0011
MMMM
0010
1010
,
MMMM
0100
1100
0000
0101
0000
1001
0000
,
1000
0011
MMMM
0001
1100
MMMM
0100
1010
,
MMMM
0010
0101
0000
0110
0000
1001
0100
,
0001
MMMM
1001
0100
1000
MMMM
0101
0000
,
1010
0000
0100
1100
0000
0011
M000
000M
,
00M0
0M00
M000
00M0
000M
0M00
0001
0100
,
0010
0000
0000
1000
0000
0000
0001
0000
0000
1000
0100
1000
0001
0000
0000
0202
0000
0000
0000
0000
0000
0303
0000
0000
,
0110
0000
1100
0000
1001
1000
0010
0100
,
0001
0000
0010
0000
0001
0100
0001
0100
0001
0000
0020
0000
0000
0000
0000
0000
,
1000
0000
0100
0000
0031
0000
1010
1000
,
0001
1000
0100
0010
0001
2000
0000
3000
,
1001
1000
0001
1000
0010
0100
0001
0010
,
0100
0000
1000
0000
0001
1000
0100
1000
0001
0000
0200
0000
0000
0000
0000
0000
,
0310
0000
1000
0000
0010
0000
0100
0000
0001
0000
0100
0000
0010
1000
0100
0000
,
1000
0001
0100
0000
0001
0010
0100
0000
0010
0001
1000
0000
0001
0100
0010
0000
,
1000
0100
0010
0000
0001
1000
0010
0000
0100
0001
1000
0000
0100
0010
0001
0000
,
0100
0010
1000
0000
0010
0100
0001
0000
1000
0010
0100
0000
0001
0010
0100
0000
,
1000
0001
0100
0000
0001
0010
0001
0000
1000
0100
0010
0000
0100
1000
0100
0000
,
1000
0001
0100
0000
0010
1000
0010
0000
0100
0001
1000
0000
0001
0100
0010
0000
,
1000
0100
1000
0000
0010
0100
0001
0000
1000
0100
0010
0000
0001
1000
0001
1000
,
0010
1000
0010
1000
0001
0100
0001
0100
0010
0100
0010
0100
0001
1000
0001
1000
,
0100
0010
0100
0010
0001
0100
0001
0100
0010
1000
0010
0000
1001
0000
1000
0000
,
0001
0010
0100
1000
0010
0100
0002
0100
,
0103
0002
1000
1003
0001
1000
0100
1000
,
0010
0100
0001
0010
0100
1000
0020
0100
,
0130
0002
0100
0103
0001
1000
0100
0010
,
0100
1000
0001
0010
0100
1000
0020
1000
,
1030
0002
0010
0013
0100
1000
0001
1000
,
0100
0010
0000
0001
1000
0100
1100
0000
,
0001
0101
0000
0010
1001
0000
1000
1000
,
0100
0100
0001
0001
0010
0010
0210
1000
,
0000
1300
0110
0000
1001
0000
0010
0001
,
0100
1000
0100
0001
0010
0100
1001
0000
,
1100
0000
1001
0000
0101
0000
0001
0001
,
0100
0100
1000
1000
0010
0010
0210
0001
,
0000
0301
0110
0000
1001
0000
0010
1000
,
0100
0001
0100
1000
0010
0100
1001
0000
,
0110
0000
0000
0000
1000
0001
1000
0000
MMMM
0000
0000
0000
1100
0000
0000
0000
,
2000
0001
0000
3001
0100
0000
0200
0001
,
0000
0000
0301
0000
0100
0010
0100
0000
0001
0000
1000
0000
0100
1000
0100
0000
,
1100
0000
0000
0000
0001
0100
0001
0000
0101
0000
0000
0000
0010
0001
0010
0000
,
0011
0000
0000
0000
1000
0010
1000
0000
1010
0000
0000
0000
0101
0000
0000
0000
,
0002
1000
0000
1003
0100
0000
0200
1000
,
0000
0000
1300
0000
0100
0010
0100
0000
1000
0000
0001
0000
0100
0010
0100
0000
,
0110
0000
0000
0000
1000
0001
1000
0000
1001
0000
0000
0000
2010
0000
0010
0000
,
3010
0011
0110
1001
,
0001
0100
0000
1000
0100
0000
0010
2000
,
0000
0000
3001
0000
1000
0100
1000
0001
0100
0010
1000
0001
0010
0000
0001
0000
,
0100
0010
1000
0001
0010
0100
1000
0001
,
0101
0000
0001
1000
0101
0000
1010
1000
,
0100
1000
0001
1000
0100
1000
0001
0100
,
0010
0100
0001
1000
0001
0100
1000
0100
,
0010
1000
0100
0010
0001
0100
0010
0001
,
1000
0000
0100
0000
0001
0000
1000
0000
0010
1000
0010
0000
1010
0000
0000
0000
;

//---------------dance-single - ----------------
#NOTES:
     dance-single:
     :
     Hard:
     8:
     0.637201,0.738614,0.407137,0.153807,0.036190,493.000000,448.000000,45.000000,17.000000,15.000000,0.000000,0.637201,0.738614,0.407137,0.153807,0.036190,493.000000,448.000000,45.000000,17.000000,15.000000,0.000000:
// measure 0
0000
0000
0000
0000
,  // measure 1
0000
0000
0000
0000
,  // measure 2
1000
0000
0001
0100
0000
0001
1000
0000
0001
0100
0000
0010
1000
0000
0100
0000
,  // measure 3
0010
0000
0001
1000
0000
0001
0010
0000
0100
1000
0000
0001
0100
0000
0100
0000
,  // measure 4
0010
0000
0000
1001
,  // measure 5
1000
0001
0M00
0010
0200
0000
0000
0000
,  // measure 6
0301
0000
0010
0001
1000
0001
0M00
0020
,  // measure 7
0000
0000
0130
0001
0100
2000
0000
0000
,  // measure 8
3000
0100
1000
0100
0010
0001
0100
0000
,  // measure 9
0M00
0000
0100
1000
0002
0000
0000
0000
,  // measure 10
0003
1000
0010
0001
0010
1000
0000
0200
,  // measure 11
0000
0000
0000
0310
0001
1000
0000
0101
,  // measure 12
0000
0000
0002
2000
0000
3003
1000
0100
,  // measure 13
1000
0000
0001
0100
0010
0000
0001
0100
,  // measure 14
1000
0000
0010
1000
0100
0100
1000
0100
,  // measure 15
0010
0000
1000
0010
0001
0000
0001
0010
,  // measure 16
1000
0000
0010
0100
0001
0001
1000
0100
,  // measure 17
1000
0001
0010
0100
1000
0000
1000
0010
,  // measure 18
1000
0000
0100
0001
0100
0100
0010
1000
,  // measure 19
0001
0010
0100
1000
0001
0000
0100
0010
,  // measure 20
0100
0000
0001
1000
0100
1000
1100
0000
,  // measure 21
0010
0100
0000
0100
0010
0000
1000
0001
,  // measure 22
0000
0001
0010
0000
0011
0000
1010
0000
,  // measure 23
0001
0010
0000
0010
0100
0000
0100
1000
,  // measure 24
0000
1000
0010
0000
0110
0000
1010
0000
,  // measure 25
1000
0100
0000
0100
0010
0000
0010
0001
,  // measure 26
0000
0001
1000
0000
1001
0000
0101
0001
,  // measure 27
0100
0000
1010
1000
0010
0000
1000
0000
,  // measure 28
0100
0000
0010
0000
0001
0000
M000
0M00
,  // measure 29
M000
0M00
00M0
000M
00M0
000M
1000
0100
,  // measure 30
1000
0100
0010
0001
0010
0101
0000
0000
,  // measure 31
0001
0000
1000
0000
1100
0000
0001
0100
,  // measure 32
0010
1000
0001
0100
0010
1100
0000
0000
,  // measure 33
1000
0001
0100
0010
1000
0000
0001
0010
,  // measure 34
0100
1000
0010
0100
0010
1100
0000
0000
,  // measure 35
0010
1000
0001
0100
0010
1000
0001
0010
,  // measure 36
0100
1000
0001
0010
0100
0101
0000
0000
,  // measure 37
1000
0001
0100
0010
1000
0001
1000
0010
,  // measure 38
1000
0100
0010
0100
1000
0101
0000
0000
,  // measure 39
1001
0000
0110
0000
1001
0000
0001
0100
,  // measure 40
0010
0100
0001
1000
0100
1001
0000
0000
,  // measure 41
1000
0010
0001
0100
0010
1000
0001
0100
,  // measure 42
0010
1000
0100
0010
0100
1010
0000
0000
,  // measure 43
0100
0010
0100
1000
0001
0100
0010
1000
,  // measure 44
0001
0100
0010
1000
0001
1100
0000
0000
,  // measure 45
1001
0000
0110
0000
1010
0000
1001
1000
,  // measure 46
0001
1000
0001
0100
0010
0100
0002
0100
,  // measure 47
0103
2000
0100
3100
0001
0100
0001
1000
,  // measure 48
0001
1000
0010
0100
0010
0100
0002
0010
,  // measure 49
0013
2000
0010
3010
0100
0001
1000
0100
,  // measure 50
1000
0100
0001
0100
0001
0100
0010
0100
,  // measure 51
0100
1000
0001
0001
0100
0010
1000
0001
,  // measure 52
1000
0100
0000
0010
0001
0100
1001
0000
,  // measure 53
0000
0110
0000
0000
1001
0000
0010
0010
,  // measure 54
1000
1000
0001
0001
0100
0100
0002
0000
,  // measure 55
1000
0100
1003
0001
,  // measure 56
1000
0010
0110
1001
,  // measure 57
1001
0000
0110
0000
1001
0000
0100
0100
,  // measure 58
1000
1000
0001
0001
0010
0010
0200
0000
,  // measure 59
0001
0010
1300
0001
,  // measure 60
0100
0001
0110
1001
,  // measure 61
1001
0110
MMMM
0001
,  // measure 62
0000
1010
0000
0000
0100
0000
0010
0001
,  // measure 63
0100
0000
1000
0100
1000
0010
1000
0100
,  // measure 64
0010
0000
0010
0001
1000
0000
1000
0010
,  // measure 65
0100
0000
0100
0001
0010
0000
0011
1000
,  // measure 66
0000
1010
0000
0000
0110
0000
1000
0001
,  // measure 67
0100
0000
0100
0001
0010
0100
2000
0010
,  // measure 68
3010
2000
0100
3100
0010
0001
0200
0001
,  // measure 69
0301
0020
0001
0031
1000
0001
0110
0000
,  // measure 70
0001
0100
0010
1000
0100
0000
1000
0010
,  // measure 71
0001
0000
0001
0010
1000
0010
0001
0000
,  // measure 72
0010
1000
0010
0000
0100
0000
1000
0100
,  // measure 73
0001
0000
1000
0100
0001
0000
1000
0001
,  // measure 74
0001
1000
1000
0100
0100
0000
0010
0001
,  // measure 75
1000
0000
0001
0010
0110
0000
0100
1000
,  // measure 76
0001
0000
1000
0100
0000
0001
0100
0000
,  // measure 77
1000
0010
0000
0001
0010
0000
0110
0000
;

//---------------dance-single - ----------------
#NOTES:
     dance-single:
     :
     Medium:
     6:
     0.436864,0.457237,0.208092,0.000000,0.000000,338.000000,315.000000,23.000000,0.000000,0.000000,0.000000,0.436864,0.457237,0.208092,0.000000,0.000000,338.000000,315.000000,23.000000,0.000000,0.000000,0.000000:
0000
0000
0000
0000
,
0000
0000
0000
0000
,
1000
1000
0001
1000
,
0100
0000
0100
0000
0010
0000
0010
0010
,
0001
0000
0000
1000
,
0000
0001
0000
0000
0100
0000
0000
0000
,
0000
0001
1000
0010
,
0100
0001
0001
1000
,
0000
0100
0010
0100
,
0100
0000
1000
0001
1000
0000
0000
0000
,
0000
0000
0001
0000
0010
0000
0000
0100
,
0000
0000
0010
0001
,
0100
0000
0001
1000
0100
0000
1000
0000
,
1100
1000
1100
1000
,
1100
1000
1100
1000
,
0010
0001
0100
1000
,
0100
0010
0100
0001
,
0101
0001
0101
0001
,
0101
0001
0101
1000
,
0100
0001
0010
0100
,
1000
0100
0010
1001
,
0000
0010
0000
0000
1001
0000
0000
0100
,
0000
0001
1000
0001
,
0000
0010
0000
0000
0100
0000
0000
1000
,
0000
0010
0100
1001
,
0000
0100
0000
0000
1001
0000
0000
0010
,
0000
1001
0100
1000
,
0100
0001
0100
1000
,
0001
0100
0010
0000
,
0000
0000
0000
1000
,
0001
0000
0010
0100
0010
0100
0000
0000
,
1000
0001
0100
1000
,
0010
0000
1000
0100
1000
0100
0000
0000
,
1000
0000
0010
0000
0100
0000
0001
0010
,
0100
0000
0010
0001
0010
0001
0000
0000
,
1000
0000
0010
0000
0100
0000
0001
0100
,
0001
0000
0010
0001
0100
0001
0000
0000
,
1000
0000
0100
0000
0010
0000
0001
0100
,
0001
0000
1000
0010
1000
0010
0000
0000
,
1000
0000
0100
0000
0010
0000
0100
1000
,
0100
0000
0010
0001
0010
0001
0000
0000
,
1000
0000
0001
0000
0100
0000
0010
0100
,
0010
0000
1000
0001
1000
0001
0000
0000
,
1000
0000
0010
0000
0100
0000
0001
0100
,
0001
0000
1000
0100
1000
0100
0000
0000
,
0010
0000
0001
0000
0100
0000
0010
0100
,
0010
0000
1000
0010
1000
0000
0100
0000
,
0100
0000
0010
0000
0010
0000
0001
0100
,
0001
0000
1000
0100
1000
0000
0001
0000
,
0001
0000
1000
0000
1000
0000
0010
1000
,
0010
0000
1000
0001
1000
0000
0001
0000
,
0010
0000
0100
0000
1000
0000
0001
0100
,
0001
0000
1000
0100
1000
0000
0001
0000
,
0001
1000
1000
1100
,
1100
0110
0110
0010
,
0001
0100
1000
0100
,
0010
0100
0010
1000
,
0001
0100
0010
1010
,
1010
0011
0011
0100
,
0010
1000
0001
1000
,
0100
0001
0100
0010
,
1000
0100
1001
0001
,
0000
1000
0000
0000
0100
0000
0010
0001
,
0010
0000
0100
1000
0100
0000
1000
0000
,
0001
0100
0010
1000
,
0100
0010
0100
1000
,
0000
0001
0000
0000
0010
0000
0100
0000
,
0010
0000
0001
0100
0001
0000
1000
0010
,
1000
0100
0010
0100
,
1000
0001
0100
0010
,
0010
0000
1000
0000
1000
0000
0001
0100
,
0001
0000
1000
0000
0010
1000
0100
0000
,
0010
0100
0010
0001
,
1000
0001
0100
0010
,
1000
0000
1000
0010
1000
0000
0100
0000
,
0100
0000
0010
0001
0010
0000
0001
0000
,
0100
1000
0100
0001
,
0001
1000
0001
0101
;

//---------------dance-single - ----------------
#NOTES:
     dance-single:
     :
     Easy:
     3:
     0.266254,0.316549,0.063332,0.000000,0.000000,206.000000,199.000000,7.000000,0.000000,0.000000,0.000000,0.266254,0.316549,0.063332,0.000000,0.000000,206.000000,199.000000,7.000000,0.000000,0.000000,0.000000:
0000
0000
0000
0000
,
0000
0000
0000
0000
,
0010
0010
0001
0001
,
1000
1000
0100
0100
,
0000
0000
0000
1000
,
0000
0001
0000
0100
,
0000
0001
0100
0001
,
0000
0010
0000
0100
,
0000
1000
0001
1000
,
0000
0100
0000
0010
,
0000
0100
1000
0100
,
0000
0010
0000
0001
,
0000
0100
0000
0001
,
0000
0001
0000
1000
,
0000
0010
1000
0100
,
0000
0100
0000
0010
,
0000
0100
1000
0001
,
0000
1000
0000
0001
,
0000
0100
0001
0010
,
0000
0100
0000
1000
,
0000
0001
1000
0100
,
0000
0010
0000
0010
,
0000
0010
0100
0010
,
0000
0001
0000
0001
,
0000
0001
0100
1000
,
0000
1000
0000
0001
,
0000
0100
0010
1000
,
0000
1000
0000
0001
,
0000
0001
0000
0000
,
0000
0000
0000
1000
,
0100
0010
0001
0000
,
1000
0000
0001
0001
,
0100
0010
1000
0000
,
0001
0000
1000
1000
,
0010
0100
0001
0000
,
1000
0000
0001
0001
,
0010
0100
1000
0000
,
0100
0000
0100
0010
,
0010
0100
0100
1000
,
0000
0001
0000
0100
,
0100
0010
0010
1000
,
0000
0001
0000
0010
,
0010
0100
0100
1000
,
1000
0001
0001
0100
,
0100
0010
0010
1000
,
0000
0001
0000
1000
,
0000
0100
0000
1001
,
0000
1001
0000
0001
,
0000
0010
0000
1001
,
0000
1001
0000
0001
,
0000
1000
0000
1001
,
0000
0010
0000
1000
,
0000
0001
0000
1000
,
0000
1000
0000
0100
,
0100
0100
0100
0100
,
0000
0010
0000
0001
,
0000
0100
0000
0010
,
0000
1000
0000
0001
,
0001
0001
0001
1000
,
0000
0010
0000
0100
,
0000
0001
0000
0010
,
0100
0010
0100
1000
,
0000
0001
0000
1000
,
0000
0001
0100
0010
,
0000
1000
0000
0100
,
0010
0100
0000
1000
,
0000
0001
0000
0010
,
0001
0100
0000
0001
,
0001
1000
1000
0100
,
0000
0010
0000
1001
,
0000
0010
0000
0001
,
1000
0010
0000
0100
,
0000
0001
0000
1000
,
0000
0001
1000
0100
,
0100
0010
0010
0001
,
0001
1000
0010
1000
,
0000
0100
0000
0010
,
0000
0001
1000
1001
;

//---------------dance-single - ----------------
#NOTES:
     dance-single:
     :
     Beginner:
     2:
     0.156392,0.175860,0.000000,0.000000,0.000000,121.000000,121.000000,0.000000,0.000000,0.000000,0.000000,0.156392,0.175860,0.000000,0.000000,0.000000,121.000000,121.000000,0.000000,0.000000,0.000000,0.000000:
0000
0000
0000
0000
,
0000
0000
0000
0000
,
1000
0000
0100
0000
,
0001
0000
0100
0000
,
0000
0000
0000
0001
,
0000
0000
0000
0000
,
0000
0010
0000
0000
,
0000
0000
0000
0000
,
0000
0100
0000
0100
,
0000
0100
0000
0000
,
0000
1000
0000
1000
,
0000
1000
0000
0000
,
0000
0000
0000
0000
,
0001
0000
0001
0000
,
0001
0000
0001
0000
,
1000
0000
1000
0000
,
1000
0000
1000
0000
,
0100
0000
0100
0000
,
0100
0000
0100
0000
,
0010
0000
0010
0000
,
0010
0000
0010
0000
,
0001
0000
0001
0000
,
0001
0000
0001
0000
,
0010
0000
0010
0000
,
0010
0000
0010
0000
,
0100
0000
0100
0000
,
0100
0000
0100
0100
,
0000
0100
0000
1000
,
0000
1000
0000
0010
,
0000
0000
0000
1000
,
0000
1000
0000
0001
,
0000
0000
0000
0010
,
0000
0010
0000
0100
,
0000
0000
0000
1000
,
0000
1000
0000
0001
,
0000
0000
0000
0100
,
0000
0100
0000
0010
,
0000
0000
0000
1000
,
0000
1000
0000
0001
,
0000
0001
0000
0010
,
0000
0010
0000
0100
,
0000
0000
0000
1000
,
0000
1000
0000
0100
,
0000
0100
0000
0010
,
0000
0010
0000
0001
,
0000
0000
0000
0100
,
0000
0100
0000
0001
,
0000
0000
0000
1000
,
0000
1000
0000
0100
,
0000
0000
0000
0010
,
0000
0010
0000
0100
,
0000
0000
0000
0010
,
0000
0010
0000
0010
,
0000
0000
0000
0001
,
0000
0000
0000
1000
,
0000
0000
0000
0001
,
0000
0100
0000
0010
,
0000
1000
0000
0100
,
0000
0000
0000
0010
,
0000
0000
0000
0001
,
0000
1000
0000
0010
,
0000
0100
0000
0001
,
0000
0001
0000
1000
,
0000
1000
0000
0100
,
0000
0000
0000
0100
,
0000
0000
0000
0010
,
0000
0010
0000
0100
,
0000
0100
0000
1000
,
0000
0000
0000
0001
,
0000
0000
0000
0100
,
0000
0100
0000
0001
,
0000
0000
0000
1000
,
0000
0010
0000
1000
,
0000
0000
0000
0010
,
0000
0010
0000
0100
,
0000
0000
0000
0001
,
0000
1000
0000
0100
,
0000
0100
0000
0100
;
