#TITLE:Turmoil & Treachery;
#SUBTITLE:(Howling Grotto Boss);
#ARTIST:Rainbowdragoneyes;
#TITLETRANSLIT:;
#SUBTITLETRANSLIT:;
#ARTISTTRANSLIT:;
#GENRE:The Messenger;
#CREDIT:[Ness];
#BANNER:;
#BACKGROUND:Screenshot 2023-05-14 220755.png;
#LYRICSPATH:;
#CDTITLE:;
#MUSIC:The Messenger - Turmoil & Treachery (Howling Grotto Boss).mp3;
#OFFSET:-0.065000;
#SAMPLESTART:10.919932;
#SAMPLELENGTH:10.909091;
#LASTBEATHINT:199.853317;
#SELECTABLE:YES;
#BPMS:0.000000=176.000000
;
#STOPS:
;
#BGCHANGES:;
#KEYSOUNDS:;
#ATTACKS:;

//---------------dance-single - ----------------
#NOTES:
     dance-single:
     :
     Challenge:
     10:
     0.777249,0.899388,0.818887,0.000000,0.735610,392.000000,333.000000,59.000000,0.000000,112.000000,0.000000,0.777249,0.899388,0.818887,0.000000,0.735610,392.000000,333.000000,59.000000,0.000000,112.000000,0.000000:
// measure 0
0000
0000
0000
0000
,  // measure 1
0000
0000
0000
0000
,  // measure 2
0000
0000
0000
0000
,  // measure 3
0000
0000
0000
0000
,  // measure 4
0000
0000
0000
0000
,  // measure 5
0000
0000
0000
0000
,  // measure 6
0000
0000
0000
0000
,  // measure 7
0000
0000
0000
0000
,  // measure 8
1010
0000
0000
0001
1000
0010
1000
0001
0100
0000
0000
0100
0010
0000
1000
0100
,  // measure 9
1000
0000
0000
1000
0001
0010
0001
1000
0100
0000
0000
0100
0010
0000
0001
1000
,  // measure 10
0010
0000
0000
0010
0100
0001
1000
0010
0100
0000
0000
0100
0001
0000
1000
0100
,  // measure 11
0010
0000
0000
0001
1000
0010
0100
0010
1000
0000
0000
0100
0010
0000
0001
0000
,  // measure 12
1000
1100
00MM
MM00
0011
MM00
00MM
1010
,  // measure 13
0M0M
0000
M0M0
0000
0101
0000
M0M0
0000
0M0M
0000
0000
1MM0
0000
0000
0MM1
0000
,  // measure 14
0000
0110
M00M
0MM0
1010
0M0M
M0M0
0011
,  // measure 15
MM00
0000
00MM
0000
1100
0000
00MM
0000
MM00
0000
0000
0MM1
0000
0000
1MM0
0000
,  // measure 16
0100
0000
0000
1000
0001
0100
0010
1000
0100
0000
0000
0010
0001
0000
0010
0100
,  // measure 17
1000
0000
0000
0001
1000
0010
0100
0001
1000
0000
0000
0010
0100
0000
0010
1000
,  // measure 18
0001
0000
0000
1000
0100
0010
0100
1000
0001
0000
0000
0010
0100
0000
0010
0000
,  // measure 19
0001
0000
0000
1000
0010
0100
0001
1000
0100
0000
0000
0010
0001
0000
1000
0000
,  // measure 20
0100
1001
0MM0
M00M
1010
0M0M
M0M0
0110
,  // measure 21
M00M
0000
0MM0
0000
0011
0000
MM00
0000
00MM
0000
0000
1MM0
0000
0000
0MM1
0000
,  // measure 22
0000
0101
M0M0
0M0M
1100
00MM
MM00
0011
,  // measure 23
MM00
0000
00MM
0000
1010
0000
0M0M
0000
M0M0
0000
0000
0MM1
0000
0000
1MM0
0000
,  // measure 24
1M1M
11MM
MM11
M1M1
,  // measure 25
1M1M
11MM
MM11
M1M1
,  // measure 26
1M1M
11MM
MM11
M1M1
,  // measure 27
1M1M
11MM
MM11
1M1M
,  // measure 28
1100
0000
1000
0100
1000
0000
0001
0100
0001
0000
1000
0010
0100
0000
0001
0010
,  // measure 29
0100
0000
1000
0001
1000
0000
0010
0100
0010
0000
0100
0001
0100
0000
0001
1000
,  // measure 30
0001
0000
0010
0100
1000
0000
0100
1000
0100
0000
1000
0001
1000
0000
0010
1000
,  // measure 31
0010
0000
0100
0001
1000
0000
0001
0100
0001
0000
1000
0010
0100
0001
1000
0010
,  // measure 32
0100
0000
0000
0001
1000
0100
0010
0001
0100
0000
0000
0010
1000
0000
0100
1000
,  // measure 33
0100
0000
0000
1000
0001
0100
0010
1000
0100
0000
0000
0010
0001
0000
1000
0010
,  // measure 34
0100
0000
0000
0001
1000
0010
0100
0001
0010
0000
0000
0100
1000
0000
0010
0100
,  // measure 35
0001
0000
0000
1000
0100
1000
0001
0010
0100
0000
0000
1000
0010
0000
1000
0001
,  // measure 36
0100
0011
1000
0100
1010
0001
0100
0011
,  // measure 37
1000
0000
0100
0000
1010
0000
0001
0000
0100
0000
0010
1000
0000
1000
0100
0000
,  // measure 38
1000
0101
1000
0010
1100
0001
0010
0101
,  // measure 39
1000
0000
0010
0000
1100
0000
0001
0000
0010
0000
0100
1000
0000
0001
0100
0000
,  // measure 40
0010
0000
0000
1000
0001
0010
0100
1000
0001
0000
0000
1000
0100
0000
0010
0001
,  // measure 41
1000
0000
0000
0010
0100
0001
1000
0100
0010
0000
0000
0001
1000
0000
0001
0100
,  // measure 42
0010
0000
0000
1000
0001
0010
0100
1000
0010
0000
0000
1000
0100
0000
0010
0001
,  // measure 43
1000
0000
0000
0010
0100
0001
1000
0100
0010
0000
0000
0100
1000
0000
0001
0010
,  // measure 44
0100
1001
1001
0010
1010
1010
0100
0101
,  // measure 45
0101
0000
0010
0000
0011
0000
0011
0000
0100
0000
1000
0001
0000
0100
0010
0000
,  // measure 46
1000
0110
0110
0001
1100
1100
0100
1010
,  // measure 47
1010
0000
1000
0000
0011
0000
0011
0000
0001
0000
1000
0001
0000
0100
0001
0000
,  // measure 48
1100
0000
0000
0000
;

//---------------dance-single - ----------------
#NOTES:
     dance-single:
     :
     Hard:
     8:
     0.519488,0.594908,0.916043,0.000000,0.444142,262.000000,196.000000,66.000000,0.000000,32.000000,0.000000,0.519488,0.594908,0.916043,0.000000,0.444142,262.000000,196.000000,66.000000,0.000000,32.000000,0.000000:
0000
0000
0000
0000
,
0000
0000
0000
0000
,
0000
0000
0000
0000
,
0000
0000
0000
0000
,
0000
0000
0000
0000
,
0000
0000
0000
0000
,
0000
0000
0000
0000
,
0000
0000
0000
0000
,
1001
0000
0000
1000
0010
0000
0000
1000
0001
0000
0000
1000
0010
0000
0000
1000
,
0100
0000
0000
1000
0001
0000
0000
1000
0100
0000
0000
1000
0001
0000
0000
0001
,
0100
0000
0000
0001
1000
0000
0000
0001
0100
0000
0000
0001
0010
0000
0000
0001
,
0100
0000
0000
0001
0100
0000
0000
0010
1000
0000
0000
0010
1000
0000
0000
0100
,
1000
1100
0000
0000
0110
0000
0000
0011
,
0000
0000
1001
0000
0000
MMMM
0000
0000
,
0000
0101
0000
0000
0110
0000
0000
1010
,
0000
0000
1001
0000
0000
MMMM
0000
0000
,
1000
0000
0000
1000
0010
0000
0000
0010
0001
0000
0000
0001
0100
0000
0000
0100
,
1000
0000
0000
1000
0010
0000
0000
0010
0100
0000
0000
0100
0001
0000
0000
0001
,
0010
0000
0000
0010
1000
0000
0000
1000
0100
0000
0000
0100
0001
0000
0000
0001
,
0010
0000
0000
0010
0100
0000
0000
0100
1000
0000
0000
1000
0001
0000
0000
0001
,
0100
0110
0000
0000
1010
0000
0000
1100
,
0000
0000
1001
0000
0000
MMMM
0000
0000
,
0000
1010
0000
0000
1100
0000
0000
0101
,
0000
0000
1001
0000
0000
MMMM
0000
0000
,
1100
1100
1001
1001
,
0101
0101
0110
1001
,
1010
1010
0011
0011
,
0110
0110
1001
1100
,
1001
1001
0110
0110
,
1010
1010
0011
0011
,
0110
1100
0101
1010
,
0110
1001
0011
1100
,
1001
0000
0000
0100
0010
0000
0000
1000
0001
0000
0000
0010
0100
0000
0000
1000
,
0001
0000
0000
0100
0010
0000
0000
1000
0001
0000
0000
0010
0100
0000
0000
1000
,
0010
0000
0000
0100
0001
0000
0000
0010
0100
0000
0000
1000
0001
0000
0000
0010
,
0100
0000
0000
1000
0100
0000
0000
0010
0001
0000
0000
1000
0010
0000
0000
0100
,
0001
0101
0000
0000
1010
0000
0000
1100
,
0000
0000
0110
0000
0000
MMMM
0000
0000
,
0000
1001
0000
0000
1010
0000
0000
0011
,
0000
0000
0110
0000
0000
MMMM
0000
0000
,
0001
0000
0000
0001
0100
0000
0000
0100
0010
0000
0000
0010
1000
0000
0000
1000
,
0100
0000
0000
0100
0001
0000
0000
0010
1000
0000
0000
0100
0001
0000
0000
0010
,
1000
0000
0000
1000
0100
0000
0000
0001
0010
0000
0000
0100
1000
0000
0000
1000
,
0010
0000
0000
0100
0001
0000
0000
0001
0010
0000
0000
0100
1000
0000
0000
1000
,
0010
0110
0000
0000
1010
0000
0000
1100
,
0000
0000
0101
0000
0000
MMMM
0000
0000
,
0000
1001
0000
0000
0011
0000
0000
0110
,
0000
0000
1100
0000
0000
MMMM
0000
0000
;

//---------------dance-single - ----------------
#NOTES:
     dance-single:
     :
     Medium:
     6:
     0.368797,0.459063,0.582937,0.000000,0.000000,186.000000,144.000000,42.000000,0.000000,0.000000,0.000000,0.368797,0.459063,0.582937,0.000000,0.000000,186.000000,144.000000,42.000000,0.000000,0.000000,0.000000:
0000
0000
0000
0000
,
0000
0000
0000
0000
,
0000
0000
0000
0000
,
0000
0000
0000
0000
,
0000
0000
0000
0000
,
0000
0000
0000
0000
,
0000
0000
0000
0000
,
0000
0000
0000
0000
,
0001
0000
0010
0000
0100
0000
1000
0100
,
1000
0000
0001
0010
0100
0000
0010
0000
,
0001
0000
1000
0000
0010
0000
0100
0001
,
0100
0000
1000
0010
0100
0000
0010
0000
,
0000
1001
0000
0000
0110
0000
0000
1001
,
0000
0110
0000
0000
,
0000
1010
0000
0000
0101
0000
0000
1010
,
0000
0101
0000
0000
,
1000
0000
0100
0000
0010
0000
0001
1000
,
0010
0000
0100
0001
1000
0000
0100
0000
,
0010
0000
0001
0000
1000
0000
0001
0100
,
0010
0000
1000
0100
0001
0000
0100
0000
,
0000
0011
0000
0000
1100
0000
0000
0011
,
0000
1100
0000
0000
,
0000
1001
0000
0000
0110
0000
0000
1001
,
0000
0110
0000
0000
,
0001
1000
0100
0110
,
0001
1000
0010
0011
,
1000
0001
0100
0110
,
1000
0001
0010
1010
,
0100
0010
1000
0110
,
0001
1000
0100
1001
,
0010
1000
0011
1010
,
0100
0001
1100
0101
,
1000
0000
0001
0000
0100
0000
0001
1000
,
0100
0000
0010
0001
0100
0000
1000
0000
,
0001
0000
0010
0000
0100
0000
1000
0001
,
0100
0000
0010
1000
0100
0000
0010
0000
,
0000
1001
0000
0000
0110
0000
0000
0101
,
0000
1100
0000
0000
,
0000
1001
0000
0000
0110
0000
0000
1010
,
0000
0011
0000
0000
,
1000
0000
0001
0000
0100
0000
1000
0010
,
0100
0000
0001
0010
1000
0000
0100
0000
,
0010
0000
1000
0000
0100
0000
0001
1000
,
0100
0000
0010
0001
0100
0000
0010
0000
,
0000
1100
0000
0000
0101
0000
0000
0110
,
0000
1001
0000
0000
,
0000
1100
0000
0000
0101
0000
0000
1010
,
0000
0011
0000
0000
;

//---------------dance-single - ----------------
#NOTES:
     dance-single:
     :
     Easy:
     4:
     0.253796,0.295112,0.000000,0.000000,0.000000,128.000000,128.000000,0.000000,0.000000,0.000000,0.000000,0.253796,0.295112,0.000000,0.000000,0.000000,128.000000,128.000000,0.000000,0.000000,0.000000,0.000000:
0000
0000
0000
0000
,
0000
0000
0000
0000
,
0000
0000
0000
0000
,
0000
0000
0000
0000
,
0000
0000
0000
0000
,
0000
0000
0000
0000
,
0000
0000
0000
0000
,
0000
0000
0000
0000
,
0001
1000
0010
0100
,
0001
0001
1000
1000
,
0100
0010
0001
1000
,
0100
0100
0010
0010
,
0000
0001
0000
0000
1000
0000
0000
0010
,
0000
0100
0000
0000
,
0000
0010
0000
0000
1000
0000
0000
0100
,
0000
0001
0000
0000
,
1000
0100
0010
0001
,
1000
1000
0001
0001
,
0100
1000
0010
0001
,
0100
0100
0010
0010
,
0000
1000
0000
0000
0100
0000
0000
0010
,
0000
0001
0000
0000
,
0000
1000
0000
0000
0001
0000
0000
0010
,
0000
0100
0000
0000
,
1000
1000
0010
0010
,
0001
0001
1000
0001
,
0100
0100
1000
1000
,
0100
0100
0010
1000
,
0100
0100
0010
0010
,
0001
0001
1000
0100
,
0001
0001
0010
0010
,
0100
0100
1000
0001
,
0100
0010
1000
0001
,
0010
0100
0010
0001
,
1000
0100
0010
0100
,
1000
0001
0100
0010
,
0000
1000
0000
0000
0100
0000
0000
0010
,
0000
0001
0000
0000
,
0000
0010
0000
0000
0001
0000
0000
0100
,
0000
1000
0000
0000
,
0001
0001
1000
1000
,
0010
0001
0100
0010
,
1000
0100
0010
0001
,
1000
1000
0100
0100
,
0000
0010
0000
0000
0001
0000
0000
0100
,
0000
1000
0000
0000
,
0000
0001
0000
0000
1000
0000
0000
0010
,
0000
0100
0000
0000
;

//---------------dance-single - ----------------
#NOTES:
     dance-single:
     :
     Beginner:
     1:
     0.111036,0.159614,0.000000,0.000000,0.000000,56.000000,56.000000,0.000000,0.000000,0.000000,0.000000,0.111036,0.159614,0.000000,0.000000,0.000000,56.000000,56.000000,0.000000,0.000000,0.000000,0.000000:
0000
0000
0000
0000
,
0000
0000
0000
0000
,
0000
0000
0000
0000
,
0000
0000
0000
0000
,
0000
0000
0000
0000
,
0000
0000
0000
0000
,
0000
0000
0000
0000
,
0000
0000
0000
0000
,
0001
0000
0000
0010
,
0010
0000
0100
0000
,
1000
0000
0000
0010
,
0010
0000
0100
0000
,
0001
0000
0000
0000
,
0000
0000
0000
0000
,
1000
0000
0000
0000
,
0000
0000
0000
0000
,
0100
0000
0000
0010
,
0010
0000
0001
0000
,
1000
0000
0000
0001
,
0001
0000
0100
0000
,
0010
0000
0000
0000
,
0000
0000
0000
0000
,
1000
0000
0000
0000
,
0000
0000
0000
0000
,
0100
0000
0010
0000
,
0001
0000
1000
0000
,
0001
0000
0100
0000
,
0010
0000
1000
0000
,
0100
0000
1000
0000
,
0010
0000
0001
0000
,
1000
0000
0001
0000
,
0100
0000
0010
0000
,
1000
0000
0000
0100
,
0100
0000
0010
0000
,
0001
0000
0000
1000
,
1000
0000
0001
0000
,
0100
0000
0000
0000
,
0000
0000
0000
0000
,
0010
0000
0000
0000
,
0000
0000
0000
0000
,
1000
0000
0000
0001
,
0001
0000
0010
0000
,
0100
0000
0000
0010
,
0010
0000
0001
0000
,
1000
0000
0000
0000
,
0000
0000
0000
0000
,
0001
0000
0000
0000
;
