#TITLE:To the Top;
#SUBTITLE:(Searing Crags Future);
#ARTIST:Rainbowdragoneyes;
#TITLETRANSLIT:;
#SUBTITLETRANSLIT:;
#ARTISTTRANSLIT:;
#GENRE:The Messenger;
#CREDIT:[Ness];
#BANNER:The Messenger - To the Top (Searing Crags Future).png;
#BACKGROUND:The Messenger - To the Top (Searing Crags Future)-bg.png;
#LYRICSPATH:;
#CDTITLE:;
#MUSIC:The Messenger - To the Top (Searing Crags Future).mp3;
#OFFSET:-0.015000;
#SAMPLESTART:7.686938;
#SAMPLELENGTH:15.360001;
#LASTBEATHINT:424.000000;
#SELECTABLE:YES;
#BPMS:0.000000=124.999992
,80.000000=249.999985
,400.000000=124.999992
;
#STOPS:
;
#BGCHANGES:;
#KEYSOUNDS:;
#ATTACKS:;

//---------------dance-single - ----------------
#NOTES:
     dance-single:
     :
     Challenge:
     11:
     0.844351,1.154529,0.512954,0.168433,0.267961,772.000000,705.000000,67.000000,22.000000,0.000000,0.000000,0.844351,1.154529,0.512954,0.168433,0.267961,772.000000,705.000000,67.000000,22.000000,0.000000,0.000000:
// measure 0
0000
0000
0000
0000
,  // measure 1
0000
0000
0000
0000
,  // measure 2
0000
0000
0000
0000
,  // measure 3
0000
0000
0000
0000
,  // measure 4
1001
0000
0100
0000
1001
0000
0010
0000
1000
0001
0100
0010
1000
0000
0010
0100
,  // measure 5
0001
0000
0100
0000
1001
0000
0010
0000
0001
0100
0010
1000
0100
0000
0010
0001
,  // measure 6
1000
0000
0010
0000
0101
0000
1000
0010
0100
0001
0010
0100
1000
0001
0100
0010
,  // measure 7
1000
0000
1100
0000
0101
0000
0001
1000
0001
0000
0010
0000
1000
0000
0001
0100
,  // measure 8
0010
0000
1000
0000
1001
0000
0100
0000
0010
1000
0100
0010
0001
0000
0100
0010
,  // measure 9
1000
0000
0001
0000
0110
0000
0010
0000
1000
0100
0010
0001
0100
0000
0010
1000
,  // measure 10
0001
0000
0100
0000
1001
0000
0010
0001
1000
0100
0010
0001
0100
0001
1000
0010
,  // measure 11
0100
0000
0010
0000
0100
0001
0010
0100
1000
0000
0001
0000
0010
0000
0100
0010
,  // measure 12
0001
0000
0100
0000
1001
0000
0001
0000
0010
0001
1000
0010
1000
0000
0001
0100
,  // measure 13
0010
0000
0100
0000
1001
0000
1000
0000
0001
0010
0100
0010
0001
0000
1000
0100
,  // measure 14
0010
0000
0001
0000
0110
0000
1000
0001
0100
0010
1000
0100
1000
0001
0100
0010
,  // measure 15
2000
0000
0001
0000
0001
0000
0001
0001
0000
0001
0000
0001
0000
3001
1000
0100
,  // measure 16
1000
0000
0010
0000
1001
0000
0100
0000
0001
1000
0010
0100
0001
0000
1000
0000
,  // measure 17
0100
0000
0010
0000
1001
0000
1000
0000
0001
0010
0100
1000
0010
0000
0100
0010
,  // measure 18
1000
0000
0001
0000
1010
0000
0001
0100
0001
0010
0100
1000
0001
1000
0100
0010
,  // measure 19
0001
0000
0101
0000
1100
0000
1000
0001
0000
0011
0000
1010
0000
0001
0100
0010
,  // measure 20
1000
0100
0010
0001
0100
0001
0000
1001
,  // measure 21
0000
0010
0001
0100
0010
1000
0100
0010
,  // measure 22
0100
1000
0001
0100
0010
1000
0000
1100
,  // measure 23
0000
0001
1000
0100
0010
0001
0100
0010
,  // measure 24
1000
0001
1000
0100
0010
0001
0000
1100
,  // measure 25
0000
0001
0010
0001
1000
0100
0010
0001
,  // measure 26
0100
0010
1000
0100
1000
0001
0000
0010
,  // measure 27
0100
0100
1000
1000
0001
0001
0010
0010
,  // measure 28
0100
1000
0010
0100
1000
0001
0100
1000
,  // measure 29
0010
0100
1000
0001
0100
0010
0100
0001
,  // measure 30
1000
0001
0010
0100
0001
0010
1000
0001
,  // measure 31
0010
0100
0001
0010
1000
0100
0010
0001
,  // measure 32
0100
0010
1000
0100
0010
0001
0100
0010
,  // measure 33
1000
0100
0010
0001
0100
0010
1000
0001
,  // measure 34
0010
0000
0100
0010
0001
0100
0001
0000
,  // measure 35
0100
1000
0000
0001
0100
0000
0100
0010
,  // measure 36
0001
0100
1000
0010
0100
0010
0100
0001
,  // measure 37
1000
0100
0001
0010
0100
0010
0100
1000
,  // measure 38
0001
0100
1000
0010
0100
0010
0100
0001
,  // measure 39
1000
0100
0001
0010
0100
0010
0100
1000
,  // measure 40
0012
0000
0100
0000
0013
0001
1000
0000
,  // measure 41
2010
0000
0100
0000
3010
1000
0001
0000
,  // measure 42
0102
0000
1000
0000
0103
0001
0010
0000
,  // measure 43
2100
0000
0001
0000
3100
1000
0010
0000
,  // measure 44
1000
0010
1000
0100
0010
0001
1000
0000
,  // measure 45
0100
0010
0001
0100
0010
1000
0001
0000
,  // measure 46
1000
0100
0010
0001
0100
0001
1000
0000
,  // measure 47
0001
0100
0010
1000
0100
1000
0001
0000
,  // measure 48
1001
0000
0010
0001
1000
0100
0001
0000
,  // measure 49
1001
0000
0001
0100
1000
0010
0100
0000
,  // measure 50
1001
0000
0010
0100
1000
0001
0100
0000
,  // measure 51
1001
0000
0001
0100
0010
1000
0100
0000
,  // measure 52
0001
0000
1001
0000
0010
0100
0100
0000
,  // measure 53
0001
1000
0000
0001
0000
0010
0100
1000
,  // measure 54
0020
0000
0000
0001
0000
0000
0130
0000
,  // measure 55
0001
0011
1000
1100
,  // measure 56
0110
0000
0001
0200
0000
0300
1001
0000
,  // measure 57
1010
0000
1000
0200
0000
0300
1000
0000
,  // measure 58
0001
0010
0100
0000
1000
0010
0100
0000
,  // measure 59
0010
1000
0001
0000
1000
0100
0010
0000
,  // measure 60
0001
0010
0001
1000
0010
1000
0010
1000
,  // measure 61
0001
0100
0010
1000
0100
1000
0100
1000
,  // measure 62
0010
0100
0001
1000
0100
0010
0100
0010
,  // measure 63
0001
0100
0010
1000
0001
1000
0001
1000
,  // measure 64
0010
0000
0200
0010
0000
0300
0101
0000
,  // measure 65
0001
0000
0020
1000
0000
0030
1100
0000
,  // measure 66
0001
0101
1000
1001
,  // measure 67
0100
1100
0010
0011
,  // measure 68
2000
3001
0200
0310
,  // measure 69
0002
0023
2030
3020
,  // measure 70
0031
0000
1000
0000
0001
0100
0010
1000
,  // measure 71
0001
0000
0110
0000
1000
0100
0010
0001
,  // measure 72
0200
0310
0002
0013
,  // measure 73
2000
3002
0203
0320
,  // measure 74
1030
0000
0001
0000
1000
0010
0100
0001
,  // measure 75
0010
0000
0110
0000
1000
0001
0100
0010
,  // measure 76
1000
1001
0100
0101
,  // measure 77
0001
1000
0001
0010
0100
0010
0100
1000
,  // measure 78
0010
0000
0100
0000
0001
0010
0100
1000
,  // measure 79
0001
0000
0010
0000
0100
1000
0001
0010
,  // measure 80
0100
0000
0000
1100
0000
0000
0101
0000
,  // measure 81
1001
0000
0000
0110
0000
0000
1010
0000
,  // measure 82
1001
0000
0100
0000
0001
1000
0010
0100
,  // measure 83
0110
0000
0110
0000
0001
1000
0010
0100
,  // measure 84
0001
0000
1010
0000
1000
0100
1000
0001
,  // measure 85
0010
0000
1100
0000
0001
0000
0010
0100
,  // measure 86
1000
0000
0011
0000
0100
0001
1000
0010
,  // measure 87
1000
0000
0011
0000
0010
0001
1000
0001
,  // measure 88
0010
0000
1001
0000
0100
0010
0001
0100
,  // measure 89
0001
0000
1001
0000
0100
0000
0010
1000
,  // measure 90
0100
0000
0110
0000
0001
1000
0010
0100
,  // measure 91
0001
0000
0011
0000
0010
0100
1000
0001
,  // measure 92
1000
0000
1100
0000
0010
0100
0001
1000
,  // measure 93
0100
0000
1010
0000
0100
0000
0001
1000
,  // measure 94
0010
0000
0011
0000
1000
0001
0100
0010
,  // measure 95
1000
0000
1010
0000
0001
0000
1000
0100
,  // measure 96
1000
0000
0001
0000
0100
0010
1000
0001
,  // measure 97
0010
0000
1000
0000
0010
0000
0001
0010
,  // measure 98
0100
0000
1000
0000
0001
0100
1000
0100
,  // measure 99
0010
0001
0000
0010
1000
0000
0001
1000
,  // measure 100
0100
0000
0010
0000
0100
0000
0010
0000
0100
0010
0100
0010
0100
0000
0010
0001
,  // measure 101
0100
0000
0001
0000
1000
0000
0010
0000
0001
0100
0010
1000
0100
0000
0010
0001
,  // measure 102
0100
0000
0010
0000
1000
0000
0001
0000
1000
0010
0100
0001
0010
0000
0100
1000
,  // measure 103
0001
0000
1000
0000
0100
0010
0001
1000
0010
0000
0100
0000
0001
0000
1000
0001
,  // measure 104
0101
0000
0000
0000
;

//---------------dance-single - ----------------
#NOTES:
     dance-single:
     :
     Hard:
     9:
     0.543578,0.836038,0.091872,0.091872,0.103356,497.000000,485.000000,12.000000,12.000000,0.000000,0.000000,0.543578,0.836038,0.091872,0.091872,0.103356,497.000000,485.000000,12.000000,12.000000,0.000000,0.000000:
// measure 0
0000
0000
0000
0000
,  // measure 1
0000
0000
0000
0000
,  // measure 2
0000
0000
0000
0000
,  // measure 3
0000
0000
0000
0000
,  // measure 4
0001
0000
0100
0000
0001
0000
1000
0000
0010
0000
0100
0000
0001
1000
0000
0000
,  // measure 5
1000
0000
0100
0000
1000
0000
0001
0000
0010
0000
0100
0000
1000
0001
0000
0000
,  // measure 6
0100
0000
0000
0000
0101
0000
1000
0010
1000
0000
0000
0000
1010
0000
0001
1000
,  // measure 7
0001
0001
1000
1000
0100
0010
1001
0000
,  // measure 8
0010
0000
1000
0000
0010
0000
0100
0000
0001
0000
1000
0000
0010
1000
0000
0000
,  // measure 9
0100
0000
1000
0000
0100
0000
0010
0000
0001
0000
1000
0000
0100
0010
0000
0000
,  // measure 10
0001
0000
0000
0000
1010
0000
1000
0001
0100
0000
0000
0000
0101
0000
0001
0100
,  // measure 11
0001
0100
1000
0100
0001
0100
0010
0000
,  // measure 12
1000
0000
0100
0000
0001
0000
1000
0000
0010
0000
0001
0000
0100
0001
0000
0000
,  // measure 13
0001
0000
0100
0000
1000
0000
0001
0000
0010
0000
1000
0000
0100
1000
0000
0000
,  // measure 14
0010
0000
0000
0000
0110
0000
1000
0001
0100
0000
0000
0000
1001
0000
0001
1000
,  // measure 15
0100
0000
0001
0000
0100
0000
1000
0100
0000
0001
0000
0100
0000
1000
0100
0000
,  // measure 16
0001
0000
0010
0000
1000
0000
0010
0000
0100
0000
1000
0000
0100
0010
0000
0000
,  // measure 17
0001
0000
0100
0000
1000
0000
0100
0000
0010
0000
1000
0000
0001
0100
0000
0000
,  // measure 18
0010
0000
0000
0000
1001
0000
0001
1000
0100
0000
0000
0000
0110
0000
0001
1000
,  // measure 19
0001
0000
0001
0000
1000
0000
1000
0010
0000
0100
0000
0010
0000
0100
0001
0000
,  // measure 20
1000
0000
0100
0000
1000
0100
0000
1000
,  // measure 21
0000
0100
0001
0100
,  // measure 22
0010
0000
0001
0000
0100
0001
0000
1000
,  // measure 23
0000
0001
0010
0001
,  // measure 24
1000
0000
0100
0000
1000
0001
0000
0010
,  // measure 25
0000
0100
0010
0100
,  // measure 26
1000
0000
0100
0000
0010
0001
0000
0100
,  // measure 27
0020
0000
2030
0000
,  // measure 28
3100
1000
0100
0010
,  // measure 29
0001
0010
0001
0100
,  // measure 30
1000
0001
0100
0010
,  // measure 31
1000
0001
0100
1000
,  // measure 32
0001
0010
0001
1000
,  // measure 33
0010
0001
0010
1000
,  // measure 34
0100
0010
0100
1000
,  // measure 35
0001
0100
0001
0100
,  // measure 36
0001
1000
0001
0000
0010
0000
0100
0000
,  // measure 37
1000
0100
1000
0000
0010
0000
0100
0000
,  // measure 38
0001
0100
0001
0000
1000
0000
0100
0000
,  // measure 39
1000
0100
1000
0000
0001
0000
0100
0000
,  // measure 40
0001
0010
0001
0000
0010
0000
0100
0000
,  // measure 41
1000
0100
1000
0000
0010
0000
0100
0000
,  // measure 42
0001
0100
0001
0000
0010
0000
0100
0000
,  // measure 43
1000
0100
1000
0000
0001
0000
0000
0000
,  // measure 44
2002
3003
0010
1000
,  // measure 45
0001
0100
0010
1000
,  // measure 46
0100
0100
0010
0010
,  // measure 47
0001
1000
0100
0010
,  // measure 48
0001
1000
0001
1000
,  // measure 49
0010
0100
0010
0100
,  // measure 50
0002
0000
0023
0000
,  // measure 51
0230
0000
2300
0000
,  // measure 52
3001
0000
1000
0000
0100
1000
0000
0000
,  // measure 53
0010
0001
0000
1000
0000
0010
0100
0010
,  // measure 54
1000
0000
0000
0001
0000
0000
1000
0000
,  // measure 55
0010
0100
0001
0100
,  // measure 56
0010
0000
0000
1000
0000
0000
0100
0000
,  // measure 57
0010
0000
0000
0001
0000
0000
0100
0000
,  // measure 58
0002
0000
2003
0000
,  // measure 59
3200
0000
0320
0000
,  // measure 60
0031
0000
0100
0000
0001
1000
0000
0000
,  // measure 61
0010
1000
0000
0001
0000
1000
0100
0010
,  // measure 62
0001
0000
0000
1000
0000
0000
0010
0000
,  // measure 63
0100
0001
1000
0010
,  // measure 64
0100
0000
0010
0100
0000
0000
0001
0000
,  // measure 65
0010
0000
0001
0100
0000
0000
0001
0000
,  // measure 66
0010
0100
1000
0001
,  // measure 67
0100
0010
0001
0100
,  // measure 68
1000
0001
0100
0010
,  // measure 69
0100
0100
0001
0001
,  // measure 70
1000
0000
0100
0000
0010
0001
0010
0001
,  // measure 71
1000
0000
0001
0000
0100
0010
0100
0010
,  // measure 72
1000
0100
0010
0001
,  // measure 73
1000
1000
0001
0001
,  // measure 74
1000
0000
0010
0000
0100
0001
0100
0001
,  // measure 75
0010
0000
0100
0000
1000
0100
1000
0100
,  // measure 76
1000
0001
0100
0010
,  // measure 77
1000
0100
0010
0100
,  // measure 78
1000
0000
0001
0000
1000
0010
1000
0010
,  // measure 79
0100
0000
0001
0000
1000
0001
1000
0001
,  // measure 80
0010
0000
0000
0001
0000
0000
1000
0000
,  // measure 81
0010
0000
0000
0100
0000
0000
0001
0000
,  // measure 82
0010
0000
0100
0000
,  // measure 83
0110
0000
1001
0000
,  // measure 84
0001
0100
1000
0010
,  // measure 85
0100
0010
1000
0100
,  // measure 86
0001
0100
1000
0010
,  // measure 87
0001
0100
0010
0100
,  // measure 88
0001
0010
1000
0100
,  // measure 89
0010
1000
0100
0001
,  // measure 90
0100
1000
0001
0010
,  // measure 91
0100
1000
0010
0001
,  // measure 92
1000
0100
0010
0001
,  // measure 93
0100
1000
0001
0100
,  // measure 94
0010
0100
0001
0010
,  // measure 95
1000
0100
0010
0100
,  // measure 96
1000
0010
0001
0100
,  // measure 97
1000
0100
0001
0100
,  // measure 98
1000
0010
0001
0100
,  // measure 99
0010
1000
0001
1000
,  // measure 100
0100
0010
0100
0010
0100
0010
0100
0010
,  // measure 101
0001
0100
0001
0100
0001
0100
0001
1000
,  // measure 102
0010
1000
0100
0000
0010
0001
1000
0000
,  // measure 103
0001
0000
0010
0000
0100
0010
0100
0010
0100
0000
1000
0000
0001
0000
0100
0010
,  // measure 104
0100
0000
0000
0000
;

//---------------dance-single - ----------------
#NOTES:
     dance-single:
     :
     Medium:
     6:
     0.309522,0.557359,0.084216,0.000000,0.000000,283.000000,272.000000,11.000000,0.000000,0.000000,0.000000,0.309522,0.557359,0.084216,0.000000,0.000000,283.000000,272.000000,11.000000,0.000000,0.000000,0.000000:
// measure 0
0000
0000
0000
0000
,  // measure 1
0000
0000
0000
0000
,  // measure 2
0000
0000
0000
0000
,  // measure 3
0000
0000
0000
0000
,  // measure 4
0001
0010
0100
1100
,  // measure 5
1000
0010
0100
0101
,  // measure 6
1000
0001
1000
0000
0001
0100
0001
0000
,  // measure 7
0010
0100
0010
0100
,  // measure 8
0010
0001
1000
0110
,  // measure 9
0010
1000
0001
1100
,  // measure 10
0100
1000
0001
0000
0100
0001
1000
0000
,  // measure 11
0010
0100
0001
1000
,  // measure 12
0010
1000
0100
0000
0100
0000
0110
0000
,  // measure 13
0010
0001
0100
0000
0100
0000
0110
0000
,  // measure 14
0001
0010
1000
0000
1000
0010
0001
0000
,  // measure 15
0001
0100
0001
0000
0100
0000
0100
0000
,  // measure 16
0001
1000
0100
0000
0001
0000
0101
0000
,  // measure 17
1000
0001
0100
0000
1000
0000
1100
0000
,  // measure 18
0010
1000
0001
0000
0010
0001
1000
0000
,  // measure 19
0001
0000
0110
0000
1000
0001
0100
0000
,  // measure 20
0001
0000
0010
0000
,  // measure 21
0100
0000
1000
0000
,  // measure 22
0010
0000
1000
0000
,  // measure 23
0100
0000
0010
0000
,  // measure 24
0001
0100
0001
0000
,  // measure 25
1000
0000
0010
0000
,  // measure 26
0100
0000
0001
0000
,  // measure 27
1000
0000
0001
0000
,  // measure 28
1000
0000
0100
0000
,  // measure 29
1000
0000
0001
0010
,  // measure 30
0100
0000
0010
0000
,  // measure 31
0100
0000
0010
0001
,  // measure 32
1000
0000
0001
0000
,  // measure 33
1000
0000
0001
0100
,  // measure 34
0010
0000
0100
0000
,  // measure 35
0010
1000
0100
0000
,  // measure 36
1000
0000
0001
0000
,  // measure 37
1000
0010
1000
0000
,  // measure 38
0001
0000
1000
0000
,  // measure 39
0001
0000
0100
0001
,  // measure 40
0100
0000
0010
0000
,  // measure 41
1000
0000
0100
0000
,  // measure 42
0010
0000
0001
0000
,  // measure 43
1000
0000
0001
0000
,  // measure 44
0100
0010
0100
0000
,  // measure 45
0001
0000
0010
0000
,  // measure 46
0100
0000
1000
0000
,  // measure 47
0010
0000
0100
0000
,  // measure 48
0001
0000
0010
0000
,  // measure 49
0001
1000
0001
0000
,  // measure 50
0100
0000
0010
0000
,  // measure 51
1000
0000
0100
0000
,  // measure 52
0010
0000
0100
0000
,  // measure 53
0010
0100
0010
0000
,  // measure 54
0001
0000
1000
0000
,  // measure 55
0001
0000
0100
0000
,  // measure 56
0010
0000
1000
0000
,  // measure 57
0100
0000
0010
0000
,  // measure 58
0001
0000
0001
0000
,  // measure 59
1000
0000
1000
0000
,  // measure 60
0100
0000
0010
0000
,  // measure 61
0100
1000
0100
0000
,  // measure 62
0010
0000
0001
0000
,  // measure 63
0100
0000
0010
0000
,  // measure 64
0100
0000
0001
0000
,  // measure 65
1000
0000
0010
0000
,  // measure 66
0100
0001
0100
0000
,  // measure 67
0010
1000
0010
0000
,  // measure 68
0100
0000
0001
0000
,  // measure 69
0010
0100
0010
0100
,  // measure 70
0010
0000
0001
0000
,  // measure 71
0100
0000
1000
0000
,  // measure 72
0100
0000
0010
0000
,  // measure 73
0100
0010
0100
0010
,  // measure 74
0100
0000
1000
0000
,  // measure 75
0010
0000
0001
0000
,  // measure 76
0100
0000
0010
0000
,  // measure 77
0100
0000
0001
0000
,  // measure 78
1000
0000
0010
0000
,  // measure 79
0100
0000
0001
0000
,  // measure 80
0010
0000
0001
0000
,  // measure 81
0001
0000
1000
0000
,  // measure 82
1001
0000
0000
0000
,  // measure 83
0110
0000
0000
0000
,  // measure 84
1000
0000
1000
0000
,  // measure 85
0001
0000
0001
0000
,  // measure 86
1000
0000
0100
0000
,  // measure 87
0001
0000
0100
0000
,  // measure 88
1000
0000
1000
0000
,  // measure 89
0001
0100
0001
0000
,  // measure 90
1000
0000
0001
0000
,  // measure 91
1000
0100
1000
0000
,  // measure 92
0001
0000
0001
0000
,  // measure 93
0010
0000
1000
0000
,  // measure 94
0010
0000
0001
0000
,  // measure 95
0100
0000
0010
0000
,  // measure 96
1000
0000
0100
0000
,  // measure 97
0010
0000
0001
0000
,  // measure 98
1000
0000
0001
0000
,  // measure 99
0100
0000
0010
0000
,  // measure 100
1000
1000
1000
1000
,  // measure 101
0001
0001
0001
0001
,  // measure 102
0100
0010
0100
0010
,  // measure 103
1000
0001
0100
0010
,  // measure 104
1000
0000
0000
0000
;

//---------------dance-single - ----------------
#NOTES:
     dance-single:
     :
     Easy:
     3:
     0.169526,0.318491,0.007656,0.061248,0.000000,155.000000,154.000000,1.000000,8.000000,0.000000,0.000000,0.169526,0.318491,0.007656,0.061248,0.000000,155.000000,154.000000,1.000000,8.000000,0.000000,0.000000:
0000
0000
0000
0000
,
0000
0000
0000
0000
,
0000
0000
0000
0000
,
0000
0000
0000
0000
,
0001
0100
0000
0010
,
1000
0010
0000
0100
,
0002
0003
2000
3000
,
0001
0001
1000
0000
,
0010
1000
0000
1000
,
0100
0001
0000
0100
,
0020
0030
0200
0300
,
0001
1000
0010
0000
,
1000
0100
0000
0010
,
0001
0100
0000
0001
,
2000
3000
0002
0003
,
1000
0100
0010
0000
,
0100
1000
0000
0001
,
0100
0010
0000
1000
,
0002
0003
2000
3000
,
0001
0010
0100
0000
,
1000
0000
0000
0000
,
1000
0000
0000
0000
,
0001
0000
0000
0000
,
0100
0000
0000
0000
,
0001
0000
0000
0000
,
0010
0000
0000
0000
,
0100
0000
0000
0000
,
1000
0000
1000
0000
,
0001
0000
0000
0000
,
0100
0000
0000
0000
,
0010
0000
0000
0000
,
1000
0000
1000
0000
,
1000
0000
0000
0000
,
0100
0000
0000
0000
,
0010
0000
0000
0000
,
0001
0000
0001
0000
,
0001
0000
0000
0000
,
0100
0000
0000
0000
,
0010
0000
0000
0000
,
1000
0000
0000
0000
,
0001
0000
0001
0000
,
1000
0000
0000
0000
,
0100
0000
0000
0000
,
0010
0000
0010
0000
,
0010
0000
0000
0000
,
0001
0000
0000
0000
,
0100
0000
0000
0000
,
0010
0000
0000
0000
,
1000
0000
0000
0000
,
0100
0000
0100
0000
,
0010
0000
0000
0000
,
0001
0000
0000
0000
,
1000
0000
0000
0000
,
0001
0000
0100
0000
,
0001
0000
0000
0000
,
1000
0000
0000
0000
,
0010
0000
0000
0000
,
1000
0000
0100
0000
,
1000
0000
0000
0000
,
0001
0000
0000
0000
,
0010
0000
0000
0000
,
0100
0000
0010
0000
,
0100
0000
0000
0000
,
1000
0000
0000
0000
,
0001
0000
0000
0000
,
0100
0000
0000
0000
,
0010
0000
1000
0000
,
0100
0000
0010
0000
,
0001
0000
0001
0000
,
1000
0000
0000
0000
,
0001
0000
0001
0000
,
0100
0000
0100
0000
,
0001
0000
1000
0000
,
0100
0000
0000
0000
,
1000
0000
1000
0000
,
0100
0000
0100
0000
,
1000
0000
0001
0000
,
0100
0000
0000
0000
,
0010
0000
0100
0000
,
0010
0000
0000
0000
,
1000
0000
0000
0000
,
0001
0000
0000
0000
,
0100
0000
0000
0000
,
0000
0000
0000
0000
,
0100
0000
0000
0000
,
0010
0000
0000
0000
,
1000
0000
0000
0000
,
0100
0000
0000
0000
,
0010
0000
0000
0000
,
0001
0000
0000
0000
,
0100
0000
0000
0000
,
0001
0000
0000
0000
,
1000
0000
1000
0000
,
0100
0000
0000
0000
,
0001
0000
0000
0000
,
0100
0000
0000
0000
,
1000
0000
0000
0000
,
0001
0000
0000
0000
,
0100
0000
0000
0000
,
0010
0000
0000
0000
,
1000
0000
0000
0000
,
1000
1000
1000
0000
,
0001
0100
0000
1000
,
0000
0100
0100
0001
,
1001
0000
0000
0000
;

//---------------dance-single - ----------------
#NOTES:
     dance-single:
     :
     Beginner:
     1:
     0.096247,0.159245,0.007656,0.000000,0.000000,88.000000,87.000000,1.000000,0.000000,0.000000,0.000000,0.096247,0.159245,0.007656,0.000000,0.000000,88.000000,87.000000,1.000000,0.000000,0.000000,0.000000:
0000
0000
0000
0000
,
0000
0000
0000
0000
,
0000
0000
0000
0000
,
0000
0000
0000
0000
,
0001
0000
0000
0000
,
1000
0000
0000
0000
,
0000
0010
0000
0010
,
0000
0100
0000
0000
,
0010
0000
0000
0000
,
1000
0000
0000
0000
,
0000
0100
0000
0100
,
0000
0010
0000
0000
,
0001
0000
0000
0000
,
1000
0000
0000
0000
,
0000
0010
0000
0100
,
0000
0010
0000
0000
,
0100
0000
0000
0000
,
0001
0000
0000
0000
,
0000
0010
0000
0100
,
0000
1000
0000
0000
,
0001
0000
0000
0000
,
0000
0000
0000
0000
,
1000
0000
0000
0000
,
0000
0000
0000
0000
,
0010
0000
0000
0000
,
0000
0000
0000
0000
,
0100
0000
0000
0000
,
0000
0000
0000
0000
,
0001
0000
0000
0000
,
0000
0000
0000
0000
,
0010
0000
0000
0000
,
0000
0000
0000
0000
,
0100
0000
0000
0000
,
0000
0000
0000
0000
,
1000
0000
0000
0000
,
0000
0000
0000
0000
,
0010
0000
0000
0000
,
0000
0000
0000
0000
,
0100
0000
0000
0000
,
0000
0000
0000
0000
,
0001
0000
0000
0000
,
0000
0000
0000
0000
,
1000
0000
0000
0000
,
0100
0000
0000
0000
,
0010
0000
0000
0000
,
0000
0000
0000
0000
,
0100
0000
0000
0000
,
0000
0000
0000
0000
,
0010
0000
0000
0000
,
0001
0000
0000
0000
,
1000
0000
0000
0000
,
0001
0000
0000
0000
,
0100
0000
0000
0000
,
0010
0000
0000
0000
,
1000
0000
0000
0000
,
0100
0000
0000
0000
,
0010
0000
0000
0000
,
0010
0000
0000
0000
,
0001
0000
0000
0000
,
1000
0000
0000
0000
,
0001
0000
0000
0000
,
0100
0000
0000
0000
,
0010
0000
0000
0000
,
1000
0000
0000
0000
,
0100
0000
0000
0000
,
0100
0000
0000
0000
,
0010
0000
0000
0000
,
0010
0000
0000
0000
,
0001
0000
0000
0000
,
0000
0000
0000
0000
,
0100
0000
0000
0000
,
0100
0000
0000
0000
,
1000
0000
0000
0000
,
0000
0000
0000
0000
,
0010
0000
0000
0000
,
0010
0000
0000
0000
,
0001
0000
0000
0000
,
0000
0000
0000
0000
,
1000
0000
0000
0000
,
0000
0000
0000
0000
,
1001
0000
0000
0000
,
1000
0000
0000
0000
,
0001
0000
0000
0000
,
0000
0000
0000
0000
,
0010
0000
0000
0000
,
0010
0000
0000
0000
,
0100
0000
0000
0000
,
0100
0000
0000
0000
,
0010
0000
0000
0000
,
0010
0000
0000
0000
,
0100
0000
0000
0000
,
0100
0000
0000
0000
,
1000
0000
0000
0000
,
1000
0000
0000
0000
,
0001
0000
0000
0000
,
0001
0000
0000
0000
,
0100
0000
0000
0000
,
0100
0000
0000
0000
,
0010
0000
0000
0000
,
0010
0000
0000
0000
,
1000
0000
0000
0000
,
0000
0000
0000
0000
,
0000
0001
0000
0001
,
0000
1000
0000
0000
,
0100
0000
0000
0000
;
