#VERSION:0.83;
#TITLE:To Break the Curse;
#SUBTITLE:(Music Box Past);
#ARTIST:Rainbowdragoneyes;
#TITLETRANSLIT:;
#SUBTITLETRANSLIT:;
#ARTISTTRANSLIT:;
#GENRE:The Messenger;
#ORIGIN:;
#CREDIT:[Ness];
#BANNER:The Messenger - To Break the Curse (Music Box Past).png;
#BACKGROUND:The Messenger - To Break the Curse (Music Box Past)-bg.png;
#PREVIEWVID:;
#JACKET:The Messenger - To Break the Curse (Music Box Past)-jacket.png;
#CDIMAGE:;
#DISCIMAGE:;
#LYRICSPATH:;
#CDTITLE:;
#MUSIC:The Messenger - To Break the Curse (Music Box Past).mp3;
#OFFSET:-0.015000;
#SAMPLESTART:19.210842;
#SAMPLELENGTH:12.799999;
#SELECTABLE:YES;
#BPMS:0.000=150.000;
#STOPS:;
#DELAYS:;
#WARPS:;
#TIMESIGNATURES:0.000=4=4;
#TICKCOUNTS:0.000=2;
#COMBOS:0.000=1;
#SPEEDS:0.000=1.000=0.000=0;
#SCROLLS:0.000=1.000;
#FAKES:;
#LABELS:0.000=Song Start;
#LASTSECONDHINT:115.250839;
#BGCHANGES:;
#KEYSOUNDS:;
#ATTACKS:
;

//---------------dance-single - ----------------
#NOTEDATA:;
#CHARTNAME:;
#STEPSTYPE:dance-single;
#DESCRIPTION:;
#CHARTSTYLE:;
#DIFFICULTY:Challenge;
#METER:10;
#RADARVALUES:0.739193,0.827221,0.244790,0.236349,0.489580,613.000000,584.000000,29.000000,28.000000,0.000000,0.000000,0.000000,0.000000,0.000000,0.739193,0.827221,0.244790,0.236349,0.489580,613.000000,584.000000,29.000000,28.000000,0.000000,0.000000,0.000000,0.000000,0.000000;
#CREDIT:;
#NOTES:
0000
0000
0000
0000
,
0000
0000
0000
0000
,
0000
0000
0000
0000
,
0000
0000
0000
0000
,
0020
1000
1030
0020
0001
0031
0020
0100
,
0130
0001
0010
0010
0010
0010
0010
0000
,
0200
0001
0301
0200
1000
1300
0200
0001
,
0301
1000
0100
0100
0100
0100
0100
0000
,
2000
0100
3100
0002
0100
0103
2000
0100
,
3100
0001
0010
0010
0010
0010
0010
0000
,
0200
1000
1300
0020
0001
0031
0200
1000
,
1300
0020
0001
0031
0001
0001
0001
1000
,
1001
0001
1000
1100
1000
0001
1001
0001
,
0100
0101
0100
0010
0010
0010
1010
0000
,
1100
0100
0010
0110
0010
0001
0011
0001
,
1000
1001
0001
0100
0100
0100
0110
0000
,
0101
1000
1000
1001
0010
0010
0011
0001
,
0001
1001
0100
0100
0110
1000
0010
0010
,
1010
1000
0100
1100
0001
0100
0101
0001
,
0010
0000
0011
0000
0010
0000
0001
0000
1000
0001
0000
0000
0100
0000
0100
0010
,
0200
0000
0000
0001
0300
0000
0020
0000
0000
1000
0030
0000
0200
0000
0000
0000
,
0300
0000
0100
0010
0001
0000
1000
0100
0010
0000
0001
0000
0100
0000
0001
0000
,
0020
0000
0000
0001
0030
0000
0200
0000
0000
1000
0300
0000
0020
0000
0000
0000
,
0000
0000
0031
1000
0100
0000
0010
0000
0001
0000
0100
0000
0100
0000
0010
0000
,
1000
0000
0000
0000
0001
0100
1000
0000
0000
0000
1000
0100
0001
0000
0000
0000
,
0000
0000
0001
1000
0100
0000
0010
0000
0001
0000
1000
0000
0100
0000
0000
0000
,
1100
0000
0000
1000
0010
0000
1010
0000
0000
0010
0001
0000
1001
0000
0000
0000
,
0000
0000
0001
0000
1000
0000
0010
0000
0100
0001
0000
0000
1100
0000
0000
0000
,
1000
0001
1000
0001
1000
0100
1000
0001
1000
0001
1000
0001
0100
0000
0000
0000
,
0001
0010
0001
0010
0001
1000
0001
0010
0001
0010
0001
1000
0001
0000
0000
0000
,
1000
0010
1000
0010
1000
0001
1000
0010
1000
0010
1000
0100
1000
0000
0000
0000
,
0001
0010
0100
1000
0100
0010
0001
1000
,
0010
0000
0000
0000
1001
0000
0020
0000
0000
0000
0130
0000
1001
0000
0001
1000
,
0010
0100
0001
0100
0001
0100
0001
1000
0001
0000
0010
0000
0100
0000
1000
0000
,
0100
0000
0020
1000
0030
0020
0001
0030
,
0000
0000
1000
0000
0001
0000
1000
0000
0100
1000
0010
1000
0010
1000
0010
1000
,
0010
1000
0001
0000
1000
0000
0001
1000
0100
0000
1000
0000
0001
1000
0001
0000
,
0100
0000
0001
1000
0001
0000
0010
0000
0001
1000
0001
0000
0010
0000
0100
0000
,
1000
0100
1000
0000
0001
0000
0010
0001
0010
0000
0100
0000
1000
0010
0100
0000
,
0010
0000
1000
0001
0100
0000
0001
0000
0010
0100
1000
0000
0100
0000
0010
0000
,
0001
0100
0010
0000
1000
0000
0001
1000
0100
0000
0010
0000
0001
0100
0010
0000
,
1000
0000
0100
1000
0010
0000
0100
0000
0001
1000
0100
0000
0010
0000
0001
0000
,
1000
0010
0100
0000
0010
0000
1000
0001
0010
0000
0100
0000
1000
0001
0100
0000
,
0001
0000
1000
0100
0010
0000
0001
0000
1000
0001
0100
0000
0010
0000
0100
0000
,
0001
0000
0001
1000
0010
0000
0010
0000
0100
0001
1000
0000
1000
0000
0100
0010
,
0001
0000
0010
0100
1000
0000
0100
0010
0001
0000
0010
0100
1000
0000
0000
0000
,
0001
0000
1000
0010
0100
0000
0001
0000
1000
0100
1000
0000
0001
0000
1000
0100
,
0010
0000
0100
0010
0001
0000
0010
0001
1000
0000
0001
1000
0100
0000
0000
0000
,
1000
0000
0010
1000
0001
0000
1000
0000
0001
1000
0100
0000
0010
0000
0001
1000
,
0100
0000
0010
0001
1000
0000
0100
0010
0001
0000
1000
0100
0010
0000
0000
0000
,
0001
0000
1000
0010
0100
0000
0001
0000
1000
0100
0010
0000
0001
0000
1000
0001
,
0100
0000
0001
1000
0010
0000
1000
0001
0100
0000
0010
1000
0100
0000
0000
0000
,
0101
0000
0001
0100
0001
0000
1000
0000
0010
0100
0010
0000
1000
0000
0100
1000
,
0001
0000
0010
0100
1000
0000
0001
0010
0100
1000
0100
0010
0001
1000
0001
1000
,
0001
0000
0100
0010
0100
0000
0001
0000
1000
0010
1000
0000
0001
0000
1000
0100
,
0010
0000
0001
1000
0010
0000
0100
0001
1000
0010
0100
0001
1000
0001
1000
0001
,
1000
1000
1000
0100
0100
0100
0010
0010
,
0010
1000
1000
0010
0010
0001
0001
0100
,
0100
0100
0100
1000
1000
1000
0001
0001
,
0001
0010
0010
0010
0100
0100
0001
0001
,
1000
1000
1000
0010
0010
0010
0100
0100
,
0100
1000
1000
1000
0100
0100
0001
0001
,
0010
0010
0010
1000
1000
1000
0001
0001
,
0001
0000
0100
0000
0100
0000
0100
0000
1000
0001
0000
0000
0101
0000
0001
0100
,
0001
1000
0010
0100
0010
1000
0100
1000
0000
0000
0001
0010
0100
1000
0100
0010
,
0000
0002
2003
3020
,
0130
0010
1000
0100
0010
0001
2000
0000
0000
0000
0000
0000
3010
0000
0010
0000
,
0100
0100
0001
0001
1000
1000
0100
0000
,
0201
1000
0000
0300
0000
0000
1020
0001
,
0000
0030
0000
0000
0000
1000
0100
0010
,
0001
0000
0000
0000
;

//---------------dance-single - ----------------
#NOTEDATA:;
#CHARTNAME:;
#STEPSTYPE:dance-single;
#DESCRIPTION:;
#CHARTSTYLE:;
#DIFFICULTY:Hard;
#METER:7;
#RADARVALUES:0.434110,0.498654,0.092851,0.270113,0.042205,360.000000,349.000000,11.000000,32.000000,0.000000,0.000000,0.000000,0.000000,0.000000,0.434110,0.498654,0.092851,0.270113,0.042205,360.000000,349.000000,11.000000,32.000000,0.000000,0.000000,0.000000,0.000000,0.000000;
#CREDIT:;
#DISPLAYBPM:0.000000;
#NOTES:
// measure 0
0000
0000
0000
0000
,  // measure 1
0000
0000
0000
0000
,  // measure 2
0000
0000
0000
0000
,  // measure 3
0000
0000
0000
0000
,  // measure 4
0002
1000
0003
0010
0001
0000
0010
1000
,  // measure 5
0000
0200
0001
0300
0000
0000
0000
0000
,  // measure 6
0002
0010
0003
2000
0100
3000
0010
2000
,  // measure 7
0000
3010
0001
0000
0000
0000
0000
0000
,  // measure 8
2000
0001
3000
1000
0100
0000
0002
1000
,  // measure 9
0003
0001
0100
0000
0000
0000
0000
0000
,  // measure 10
0010
1000
0000
0010
0001
0000
2000
0100
,  // measure 11
3000
0002
0010
0003
0000
0000
0000
0000
,  // measure 12
0100
1000
0100
2000
0000
3001
0100
0000
,  // measure 13
0000
0010
0100
0000
0001
0000
1001
0000
,  // measure 14
0001
0010
1000
0020
0000
0130
0001
0000
,  // measure 15
1000
0000
1001
0000
0010
1000
0100
0100
,  // measure 16
1000
0001
0100
0020
0000
1030
0100
0000
,  // measure 17
0000
0001
1000
0000
0001
0000
1001
0000
,  // measure 18
0010
1000
0001
0020
0000
0130
1000
0000
,  // measure 19
0010
0000
0000
0000
0110
0000
0000
0000
1000
0001
0000
0000
0100
0000
0010
0000
,  // measure 20
2000
0000
0000
3100
0000
0000
0002
0000
0000
0013
0000
0000
0200
0000
0000
0000
,  // measure 21
0300
1000
0001
0000
1000
0100
0010
0001
,  // measure 22
0200
0000
0000
0301
0000
0000
2000
0000
0000
3010
0000
0000
0002
0000
0000
0000
,  // measure 23
0003
1000
0100
0000
0010
0100
1000
0001
,  // measure 24
0200
0000
0000
0310
0000
0000
0002
0000
0000
1003
0000
0000
0020
0000
0000
0000
,  // measure 25
0030
1000
0100
0000
1000
0001
1000
0100
,  // measure 26
0010
0000
0000
0011
0000
0000
1000
0000
0000
0101
0000
0000
1001
0000
0000
0000
,  // measure 27
0000
0000
0001
0000
1000
0000
0010
0000
0100
0001
0000
0000
1100
0000
0000
0000
,  // measure 28
1000
0100
1000
0001
1000
0100
1000
0000
,  // measure 29
0001
0010
0100
1000
0000
0010
0100
0000
,  // measure 30
0001
0100
0001
1000
0001
0010
0001
0000
,  // measure 31
1000
1000
0001
0001
0100
0100
0010
0010
,  // measure 32
1000
0100
0010
0001
0000
0010
0100
0000
,  // measure 33
0010
0001
1000
0000
0001
0100
0010
0000
,  // measure 34
2020
0000
3030
0022
0000
0033
2002
0000
,  // measure 35
3003
0000
0010
0000
1000
0100
0001
0000
,  // measure 36
0001
0100
0000
1000
0100
0000
0001
0010
,  // measure 37
0000
1000
0010
0000
0100
0001
0000
0010
,  // measure 38
0100
0000
1000
0010
0000
0100
0001
0000
,  // measure 39
0010
0100
0000
1000
0010
0000
0001
0100
,  // measure 40
0000
0010
1000
0100
0010
0000
0001
1000
,  // measure 41
0000
0001
0100
0000
1000
0010
0000
0100
,  // measure 42
1000
0000
0100
0001
0000
0010
0001
0000
,  // measure 43
0010
0100
0000
1000
0001
1000
0100
0000
,  // measure 44
0010
0001
0100
1000
0100
0001
0010
0100
,  // measure 45
1000
0010
0100
0001
,  // measure 46
1000
0100
1000
0001
0100
0010
1000
0001
,  // measure 47
0100
0010
1000
0001
,  // measure 48
0010
0001
1000
0001
0100
0010
1000
0100
,  // measure 49
0010
0001
1000
0001
,  // measure 50
1000
0010
1000
0100
0001
0100
1000
0001
,  // measure 51
0100
0000
0001
1000
0010
0100
0001
0000
,  // measure 52
0010
0100
0010
0100
1000
0001
1000
0100
,  // measure 53
1000
0001
0010
0001
,  // measure 54
0100
0010
0100
0010
1000
0100
0010
0001
,  // measure 55
0100
0001
1000
0100
,  // measure 56
0010
0100
0000
1000
0001
0000
1000
0100
,  // measure 57
0000
0001
0100
0000
0000
0000
0000
0000
,  // measure 58
1000
0001
0000
0010
1000
0000
0010
0001
,  // measure 59
0000
1000
0001
0000
0100
0000
0100
0000
,  // measure 60
0001
0010
0000
1000
0100
0000
0010
1000
,  // measure 61
0000
0010
0001
0000
0000
0000
0000
0000
,  // measure 62
0100
1000
0000
0001
0100
0000
0010
1000
,  // measure 63
0000
0001
0010
0000
0100
0000
0100
0000
,  // measure 64
0010
0001
1000
0001
0100
0010
1000
0100
,  // measure 65
0010
0100
1000
0001
,  // measure 66
1000
0100
1000
0001
0000
1000
0100
0000
,  // measure 67
0000
0010
0001
1000
0001
0100
0010
0000
,  // measure 68
0002
2000
0000
0000
0000
3003
0200
0002
,  // measure 69
0000
0000
0303
0000
;

//---------------dance-single - ----------------
#NOTEDATA:;
#CHARTNAME:;
#STEPSTYPE:dance-single;
#DESCRIPTION:;
#CHARTSTYLE:;
#DIFFICULTY:Medium;
#METER:6;
#RADARVALUES:0.317141,0.319757,0.000000,0.000000,0.025323,263.000000,263.000000,0.000000,0.000000,0.000000,0.000000,0.000000,0.000000,0.000000,0.317141,0.319757,0.000000,0.000000,0.025323,263.000000,263.000000,0.000000,0.000000,0.000000,0.000000,0.000000,0.000000,0.000000;
#CREDIT:;
#DISPLAYBPM:0.000000;
#NOTES:
0000
0000
0000
0000
,
0000
0000
0000
0000
,
0000
0000
0000
0000
,
0000
0000
0000
0000
,
1000
0100
0000
1000
0100
0000
1000
0100
,
0000
1000
0100
0000
0000
0000
0000
0000
,
1000
0001
0000
1000
0001
0000
1000
0001
,
0000
1000
0001
0000
0000
0000
0000
0000
,
0001
0100
0000
0001
0100
0000
0001
0100
,
0000
0001
0100
0000
0000
0000
0000
0000
,
0001
1000
0000
0001
1000
0000
0001
1000
,
0000
0001
1000
0000
0000
0000
0000
0000
,
0001
0010
1000
0100
,
0010
0100
0010
0000
0100
0000
0000
0000
,
1000
0001
0100
0010
,
1000
0000
0001
0000
0100
0010
0100
0000
,
0001
0010
0100
1000
,
0001
1000
0001
0000
1000
0000
0100
0000
,
0010
0001
1000
0001
,
0100
0000
0010
0000
1000
0000
0001
1000
,
0100
0000
0000
0010
0000
0000
0100
0000
0000
0010
0000
0000
0001
0000
0000
0000
,
0000
1000
0001
0100
,
0010
0000
0000
0100
0000
0000
0010
0000
0000
0100
0000
0000
0010
0000
0000
0000
,
0000
1000
0100
0010
,
0001
0000
0000
1000
0000
0000
0100
0000
,
0000
0010
0000
0000
0001
0000
1000
0000
,
0001
0000
0000
0100
0000
0000
0001
0000
0000
0100
0000
0000
0001
0000
0000
0000
,
0000
0000
0000
0000
,
1000
0010
1000
0100
,
0010
0100
1000
0001
,
0100
0010
0100
0001
,
0010
0100
0010
0100
,
1000
0001
0100
0010
,
1000
0001
0010
0100
,
0010
0001
1000
0100
,
0001
0100
1000
0001
,
0100
0010
0100
0001
,
0010
0100
0010
0100
,
1000
0001
0100
0010
,
1000
0001
0010
0100
,
1000
0100
0001
0010
,
0100
1000
0001
1000
,
0100
0010
0001
0100
,
1000
0001
0010
1000
,
0100
0010
0001
1000
,
0100
0010
0100
1000
,
0001
0010
0100
1000
,
0100
0001
0010
0100
,
0010
0001
1000
0100
,
0001
1000
0010
0001
,
0100
1000
0001
1000
,
0100
0010
0001
1000
,
0001
0100
0001
0100
0001
0000
0010
0000
,
0100
1000
0001
1000
,
0010
1000
0010
1000
0010
0000
0100
0000
,
0001
0010
0100
1000
,
0001
1000
0000
0001
1000
0000
0001
1000
,
0000
0001
1000
0000
0000
0000
0000
0000
,
0010
0001
0000
0010
0001
0000
0010
0001
,
0000
0010
0001
0000
0000
0000
0000
0000
,
0100
1000
0000
0100
1000
0000
0100
1000
,
0000
0100
1000
0000
0000
0000
0000
0000
,
0001
0100
0000
0001
0100
0000
0001
0100
,
0000
0001
0100
0000
0000
0000
0000
0000
,
0010
0000
1000
0000
0100
0010
0100
0000
,
1000
0001
1000
0100
,
0010
0001
0100
0000
0001
0000
1000
0000
,
0100
0010
0100
0000
,
1000
0001
0000
0000
0000
0000
0001
1000
;

//---------------dance-single - ----------------
#NOTEDATA:;
#CHARTNAME:;
#STEPSTYPE:dance-single;
#DESCRIPTION:;
#CHARTSTYLE:;
#DIFFICULTY:Easy;
#METER:3;
#RADARVALUES:0.227908,0.232128,0.000000,0.101292,0.000000,189.000000,189.000000,0.000000,12.000000,0.000000,0.000000,0.000000,0.000000,0.000000,0.227908,0.232128,0.000000,0.101292,0.000000,189.000000,189.000000,0.000000,12.000000,0.000000,0.000000,0.000000,0.000000,0.000000;
#CREDIT:;
#DISPLAYBPM:0.000000;
#NOTES:
0000
0000
0000
0000
,
0000
0000
0000
0000
,
0000
0000
0000
0000
,
0000
0000
0000
0000
,
0002
0003
2000
3000
,
0200
0300
1000
0001
,
2000
3000
0020
0030
,
0200
0300
0001
1000
,
0002
0003
0020
0030
,
0200
0300
1000
0001
,
2000
3000
0002
0003
,
0200
0300
0010
0100
,
0001
0001
1000
0100
,
0010
0100
0000
0000
,
1000
1000
0010
1000
,
0001
0010
0000
0000
,
0100
1000
0001
0100
,
0010
0100
0000
0000
,
0001
0010
0100
1000
,
0000
0001
1000
0010
,
0100
0100
0001
0001
,
0000
1000
0000
0100
,
0010
0010
0100
0100
,
0000
1000
0000
0001
,
1000
1000
0010
0010
,
0000
0100
0000
0001
,
0010
0010
0100
0100
,
0000
1000
0000
0001
,
1000
1000
0100
0100
,
0010
0000
0001
0000
,
1000
0001
0001
0100
,
0100
0000
0010
0000
,
1000
0100
0010
0100
,
0010
0001
0100
0000
,
0001
1000
0001
0100
,
0010
0000
0100
0000
,
0001
0010
0100
0000
,
1000
0100
0010
0000
,
0001
1000
0010
0000
,
1000
0001
0100
0000
,
0010
1000
0100
0000
,
0010
0001
0100
0000
,
0010
1000
0001
0000
,
0100
0001
1000
0000
,
0100
0010
0100
0010
,
0001
0000
1000
0000
,
0001
1000
0001
1000
,
0010
0000
0100
0000
,
0001
0010
0100
1000
,
0010
0000
0000
0000
,
0100
0001
1000
0010
,
0100
0000
0001
0000
,
0010
0100
0010
0100
,
0010
0001
1000
0000
,
0100
0010
0100
0010
,
0100
1000
0001
0000
,
1000
0010
0100
0000
,
0001
0000
0001
0000
,
0001
0010
0100
0000
,
1000
0000
1000
0000
,
1000
0100
0001
0000
,
0001
0100
1000
0000
,
0001
1000
0010
0000
,
0100
0001
1000
0000
,
0001
0000
0010
0000
,
0100
1000
0001
0000
,
1000
0000
0010
0000
,
0100
0001
1000
0000
,
0100
0000
0000
0010
;

//---------------dance-single - ----------------
#NOTEDATA:;
#CHARTNAME:;
#STEPSTYPE:dance-single;
#DESCRIPTION:;
#CHARTSTYLE:;
#DIFFICULTY:Beginner;
#METER:2;
#RADARVALUES:0.129027,0.174096,0.008441,0.008441,0.000000,107.000000,106.000000,1.000000,1.000000,0.000000,0.000000,0.000000,0.000000,0.000000,0.129027,0.174096,0.008441,0.008441,0.000000,107.000000,106.000000,1.000000,1.000000,0.000000,0.000000,0.000000,0.000000,0.000000;
#CREDIT:;
#DISPLAYBPM:0.000000;
#NOTES:
0000
0000
0000
0000
,
0000
0000
0000
0000
,
0000
0000
0000
0000
,
0000
0000
0000
0000
,
0001
0000
0001
0000
,
0100
0000
0100
0000
,
0010
0000
0010
0000
,
1000
0000
1000
0000
,
0100
0000
0100
0000
,
0010
0000
0010
0000
,
0001
0000
0001
0000
,
1000
0000
1000
0000
,
0010
0000
0010
0010
,
0000
0100
0000
0000
,
0001
0000
0001
0001
,
0000
1000
0000
0000
,
0010
0000
0100
0100
,
0000
0001
0000
0000
,
0010
0000
0001
0001
,
0000
1000
0000
0000
,
1001
0000
0010
0000
,
0001
0000
0010
0000
,
1000
0000
0100
0000
,
0010
0000
0100
0000
,
1000
0000
0001
0000
,
0100
0000
0001
0000
,
1000
0000
0001
0000
,
0010
0000
0100
0000
,
1000
1000
1000
0000
,
0000
0000
0100
0000
,
0001
0001
0001
0000
,
0000
0000
0100
0000
,
1000
1000
1000
0000
,
0010
0000
0100
0000
,
0001
0001
0001
0001
,
0000
0000
0000
0000
,
0010
0000
0000
0100
,
0000
0000
1000
0000
,
0000
0000
0001
0000
,
0000
0010
0000
0000
,
0100
0000
0000
1000
,
0000
0000
0000
0000
,
0000
0000
0010
0000
,
0000
0100
0000
0000
,
0001
0000
0001
0000
,
1000
0000
0000
0000
,
0100
0000
0100
0000
,
0010
0000
0001
0000
,
1000
0000
1000
0000
,
0100
0000
0000
0000
,
0010
0000
0010
0000
,
0001
0000
1000
0000
,
0010
0000
0100
0000
,
1000
0000
0100
0000
,
0001
0000
0010
0000
,
0100
0000
1000
0000
,
0010
0000
0000
0000
,
0000
0000
0000
0000
,
0100
0000
0000
0000
,
0000
0000
0000
0000
,
0001
0000
0000
0000
,
0000
0000
0000
0000
,
1000
0000
0000
0000
,
0000
0000
0000
0000
,
0100
0000
0000
0200
,
0000
0300
0000
0000
,
0010
0000
0000
0000
,
0010
0000
0000
0000
,
0100
0000
0000
0100
;
