#VERSION:0.83;
#TITLE:The Tower of Time;
#SUBTITLE:(Tower of Time Future);
#ARTIST:Rainbowdragoneyes;
#TITLETRANSLIT:;
#SUBTITLETRANSLIT:;
#ARTISTTRANSLIT:;
#GENRE:The Messenger;
#ORIGIN:;
#CREDIT:[Ness];
#BANNER:The Messenger - The Tower of Time (Tower of Time Future).png;
#BACKGROUND:The Messenger - The Tower of Time (Tower of Time Future)-bg.png;
#PREVIEWVID:;
#JACKET:The Messenger - The Tower of Time (Tower of Time Future)-jacket.png;
#CDIMAGE:;
#DISCIMAGE:;
#LYRICSPATH:;
#CDTITLE:;
#MUSIC:The Messenger - The Tower of Time (Tower of Time Future).mp3;
#OFFSET:-0.015000;
#SAMPLESTART:0.010842;
#SAMPLELENGTH:21.333334;
#SELECTABLE:YES;
#BPMS:0.000=90.000;
#STOPS:;
#DELAYS:;
#WARPS:;
#TIMESIGNATURES:0.000=4=4;
#TICKCOUNTS:0.000=2;
#COMBOS:0.000=1;
#SPEEDS:0.000=1.000=0.000=0;
#SCROLLS:0.000=1.000;
#FAKES:;
#LABELS:0.000=Song Start;
#LASTSECONDHINT:96.050842;
#BGCHANGES:;
#KEYSOUNDS:;
#ATTACKS:
;

//---------------dance-single - ----------------
#NOTEDATA:;
#CHARTNAME:;
#STEPSTYPE:dance-single;
#DESCRIPTION:;
#CHARTSTYLE:;
#DIFFICULTY:Hard;
#METER:7;
#RADARVALUES:0.307174,0.335355,0.049317,0.177541,0.123292,218.000000,213.000000,5.000000,18.000000,0.000000,0.000000,0.000000,0.000000,0.000000,0.307174,0.335355,0.049317,0.177541,0.123292,218.000000,213.000000,5.000000,18.000000,0.000000,0.000000,0.000000,0.000000,0.000000;
#CREDIT:;
#NOTES:
// measure 0
0000
0000
0000
0000
,  // measure 1
0000
0000
0000
0000
,  // measure 2
2000
3100
0002
1003
,  // measure 3
0200
0000
0000
0000
0301
0000
0000
0000
0020
0000
0000
0000
1030
0100
0000
0000
,  // measure 4
1000
0001
0100
0100
0001
1000
0010
0000
,  // measure 5
0001
1000
0010
0010
1000
0001
0100
0000
,  // measure 6
0010
1000
0100
0001
1000
0100
0001
0000
,  // measure 7
0010
0000
0001
0000
0100
0000
0010
0000
1000
0000
1000
0000
0000
0001
0000
0000
,  // measure 8
0100
0000
0001
1000
0000
0000
0100
0000
0010
0000
0100
1000
0000
0000
0001
0000
,  // measure 9
0010
0000
0001
0010
0000
0000
0001
0000
1000
0000
0001
0100
0000
0000
0010
0000
,  // measure 10
1000
0000
0100
1000
0000
0000
0010
0000
0100
0000
0001
0100
0000
0000
0010
0000
,  // measure 11
0000
0000
0001
1000
0000
0000
0001
0000
0100
0000
0010
1000
0000
0001
0000
1000
,  // measure 12
0100
1000
0010
0100
1000
0100
0001
0000
,  // measure 13
1000
0010
0100
0001
0010
0100
1000
0000
,  // measure 14
0010
0001
1000
0001
0100
0010
1000
0000
,  // measure 15
0010
0001
0100
0010
0100
1000
0100
0000
,  // measure 16
0012
2003
3001
1010
,  // measure 17
0200
0000
0000
0000
0302
0000
0000
0000
1003
0000
0000
0000
0001
1000
0100
0000
,  // measure 18
0010
0000
1000
0000
0001
0000
1000
0100
1000
0000
0001
0000
0100
0000
0000
0000
,  // measure 19
0001
1000
0010
0100
0001
0100
1000
0000
,  // measure 20
0001
1000
0100
1000
0010
0100
0001
0000
,  // measure 21
0010
0001
1000
0001
0100
0010
1000
0000
,  // measure 22
0001
0000
1000
0000
0010
0000
0100
0000
0001
0000
1000
0000
0100
0000
0010
0001
,  // measure 23
0010
0100
1000
0001
0100
0010
1000
0001
,  // measure 24
1000
0100
1000
0100
1000
0000
0000
0000
0001
0000
0010
0000
0010
0100
0010
0100
,  // measure 25
0020
0000
0000
0000
0230
0000
0000
0000
1300
0000
0000
0000
1000
0001
0100
0001
,  // measure 26
1000
0000
0000
0000
0002
0000
0000
0000
0013
0000
0000
0000
0100
0000
1000
0001
,  // measure 27
1000
0010
0100
0000
0001
1000
0010
0100
,  // measure 28
0002
0000
0000
0000
1003
0000
0000
0000
0010
0100
0010
0100
0010
0100
0000
0000
,  // measure 29
0002
0013
2000
3100
,  // measure 30
0010
0101
0001
1000
,  // measure 31
0100
1010
0100
0001
,  // measure 32
0200
0310
2000
3100
,  // measure 33
0020
0031
2000
3010
,  // measure 34
0101
0000
0000
0000
;

//---------------dance-single - ----------------
#NOTEDATA:;
#CHARTNAME:;
#STEPSTYPE:dance-single;
#DESCRIPTION:;
#CHARTSTYLE:;
#DIFFICULTY:Medium;
#METER:5;
#RADARVALUES:0.202904,0.184445,0.000000,0.118361,0.000000,144.000000,144.000000,0.000000,12.000000,0.000000,0.000000,0.000000,0.000000,0.000000,0.202904,0.184445,0.000000,0.118361,0.000000,144.000000,144.000000,0.000000,12.000000,0.000000,0.000000,0.000000,0.000000,0.000000;
#CREDIT:;
#DISPLAYBPM:0.000000;
#NOTES:
// measure 0
0000
0000
0000
0000
,  // measure 1
0000
0000
0000
0000
,  // measure 2
0020
0130
2000
3001
,  // measure 3
0200
0310
2000
3001
,  // measure 4
0020
0130
0020
0031
,  // measure 5
2000
3100
2000
3001
,  // measure 6
0200
0310
2000
3001
,  // measure 7
2000
3100
0020
0031
,  // measure 8
1000
0001
0100
0010
,  // measure 9
0100
0001
0010
0100
,  // measure 10
1000
0001
1000
0100
,  // measure 11
0010
0001
0100
0010
,  // measure 12
1000
0000
0001
0000
1000
0001
0100
0000
,  // measure 13
0001
0000
1000
0000
0010
1000
0100
0000
,  // measure 14
1000
0001
0010
0100
,  // measure 15
0010
0001
0100
0010
,  // measure 16
1000
0010
1000
0000
0001
0000
1000
0000
,  // measure 17
0100
0000
0010
0000
0001
0100
0001
0000
,  // measure 18
1000
0000
0100
0000
0001
0100
0010
0000
,  // measure 19
1000
0000
0001
0000
1000
0100
0010
0000
,  // measure 20
0001
0000
1000
0000
0010
1000
0100
0000
,  // measure 21
1000
0000
0001
0000
0010
0001
0100
0000
,  // measure 22
0001
0000
1000
0000
0100
0010
0100
0000
,  // measure 23
1000
0000
0001
0000
0010
0100
0010
0000
,  // measure 24
0100
1000
0001
0100
,  // measure 25
0010
0100
0010
0000
1000
0000
0001
0000
,  // measure 26
0100
0000
0010
0000
1000
0000
0100
0010
,  // measure 27
0100
1000
0001
0100
,  // measure 28
0001
0000
0010
0000
0100
0000
0010
0100
,  // measure 29
0010
0000
0100
0000
1000
0000
0001
1000
,  // measure 30
0001
0000
0010
0000
0100
0000
1000
0100
,  // measure 31
1000
0010
1000
0001
,  // measure 32
0100
0010
0100
0010
,  // measure 33
1000
0100
0010
0001
,  // measure 34
0100
0000
0000
0000
;

//---------------dance-single - ----------------
#NOTEDATA:;
#CHARTNAME:;
#STEPSTYPE:dance-single;
#DESCRIPTION:;
#CHARTSTYLE:;
#DIFFICULTY:Easy;
#METER:3;
#RADARVALUES:0.125406,0.150910,0.000000,0.138087,0.000000,89.000000,89.000000,0.000000,14.000000,0.000000,0.000000,0.000000,0.000000,0.000000,0.125406,0.150910,0.000000,0.138087,0.000000,89.000000,89.000000,0.000000,14.000000,0.000000,0.000000,0.000000,0.000000,0.000000;
#CREDIT:;
#DISPLAYBPM:0.000000;
#NOTES:
// measure 0
0000
0000
0000
0000
,  // measure 1
0000
0000
0000
0000
,  // measure 2
0020
0030
0200
0300
,  // measure 3
2000
3000
0002
0003
,  // measure 4
2000
3000
0020
0030
,  // measure 5
0002
0003
0020
0030
,  // measure 6
0200
0300
2000
3000
,  // measure 7
0200
0300
0002
0003
,  // measure 8
0010
0010
0100
0100
,  // measure 9
1000
0001
1000
0001
,  // measure 10
0100
0100
0010
0010
,  // measure 11
1000
0001
1000
0001
,  // measure 12
0010
0010
0100
0100
,  // measure 13
1000
0100
0010
0001
,  // measure 14
1000
0000
0001
0000
,  // measure 15
0100
0010
0100
0010
,  // measure 16
1000
0000
0001
0000
,  // measure 17
0010
0100
0010
0100
,  // measure 18
1000
0000
0001
0000
,  // measure 19
0100
0000
0010
0000
,  // measure 20
1000
0000
0100
0000
,  // measure 21
0010
0000
0100
0010
,  // measure 22
0001
0000
1000
0000
,  // measure 23
0001
0000
0100
0010
,  // measure 24
1000
0000
0001
0000
,  // measure 25
1000
0001
1000
0100
,  // measure 26
0010
0000
0001
1000
,  // measure 27
0001
0000
0100
0010
,  // measure 28
1000
0100
1000
0000
,  // measure 29
0001
1000
0001
0000
,  // measure 30
0100
0010
1000
0000
,  // measure 31
0001
0010
0100
0000
,  // measure 32
0020
0000
0030
0000
,  // measure 33
0200
0000
0300
0000
,  // measure 34
1000
0000
0000
0000
;

//---------------dance-single - ----------------
#NOTEDATA:;
#CHARTNAME:;
#STEPSTYPE:dance-single;
#DESCRIPTION:;
#CHARTSTYLE:;
#DIFFICULTY:Beginner;
#METER:1;
#RADARVALUES:0.052135,0.067071,0.000000,0.000000,0.000000,37.000000,37.000000,0.000000,0.000000,0.000000,0.000000,0.000000,0.000000,0.000000,0.052135,0.067071,0.000000,0.000000,0.000000,37.000000,37.000000,0.000000,0.000000,0.000000,0.000000,0.000000,0.000000,0.000000;
#CREDIT:;
#DISPLAYBPM:0.000000;
#NOTES:
// measure 0
0000
0000
0000
0000
,  // measure 1
0000
0000
0000
0000
,  // measure 2
0001
0000
0000
0000
,  // measure 3
1000
0000
0000
0000
,  // measure 4
0010
0000
0000
0000
,  // measure 5
0100
0000
0000
0000
,  // measure 6
0001
0000
0000
0000
,  // measure 7
0010
0000
0000
0000
,  // measure 8
0100
0000
0000
0000
,  // measure 9
1000
0000
0000
0000
,  // measure 10
0010
0000
0000
0000
,  // measure 11
0100
0000
0000
0000
,  // measure 12
0001
0000
0000
0000
,  // measure 13
1000
0000
0000
0000
,  // measure 14
0001
0000
0000
0000
,  // measure 15
0010
0000
0000
0000
,  // measure 16
0100
0000
0000
0000
,  // measure 17
1000
0000
0000
0000
,  // measure 18
1000
0000
0010
0000
,  // measure 19
0100
0000
0000
0000
,  // measure 20
0001
0000
0010
0000
,  // measure 21
0100
0000
0000
0000
,  // measure 22
1000
0000
1000
0000
,  // measure 23
0001
0000
0000
0000
,  // measure 24
0010
0000
0010
0000
,  // measure 25
0100
0000
0000
0000
,  // measure 26
0001
0000
0000
0000
,  // measure 27
0010
0000
0000
0000
,  // measure 28
1000
0000
0000
0000
,  // measure 29
0100
0000
0000
0000
,  // measure 30
0010
0000
0000
0000
,  // measure 31
0100
0000
0000
0000
,  // measure 32
0010
0000
0000
0000
,  // measure 33
0010
0000
0000
0000
,  // measure 34
0001
0000
0000
0000
;

//---------------dance-single - ----------------
#NOTEDATA:;
#CHARTNAME:;
#STEPSTYPE:dance-single;
#DESCRIPTION:;
#CHARTSTYLE:;
#DIFFICULTY:Challenge;
#METER:9;
#RADARVALUES:0.466398,0.553336,0.147951,0.177541,0.641120,331.000000,314.000000,15.000000,18.000000,5.000000,1.000000,0.000000,0.000000,0.000000,0.466398,0.553336,0.147951,0.177541,0.641120,331.000000,314.000000,15.000000,18.000000,5.000000,1.000000,0.000000,0.000000,0.000000;
#CREDIT:;
#NOTES:
// measure 0
0000
0000
0000
0000
,  // measure 1
0000
0000
0000
0000
,  // measure 2
0020
0001
1000
0100
,  // measure 3
0001
0000
0000
0000
1000
0000
0000
0000
0001
0000
0000
0000
0130
2000
0000
0000
,  // measure 4
3001
1000
0010
0100
0001
0100
0010
1000
0100
1000
0001
0100
0010
0100
0001
1000
,  // measure 5
0100
1000
0001
0100
0010
1000
0100
1000
0001
0100
0010
1000
0100
0010
0100
1000
,  // measure 6
0001
0100
0010
1000
0100
0010
0100
1000
0001
0100
0010
1000
0100
0010
0100
1000
,  // measure 7
0001
0010
0100
1000
0100
0010
0001
1000
0100
0010
0100
1000
0001
0010
0100
1000
,  // measure 8
0100
1000
0001
0100
0000
0010
1000
0001
0010
0100
0010
0001
1000
0001
0100
0001
,  // measure 9
0000
1000
0001
0100
0000
0001
1000
0010
0100
0001
1000
0100
0000
0010
0100
1000
,  // measure 10
0000
0001
0010
0100
0000
0010
0001
1000
0001
0100
0010
1000
0100
1000
0001
1000
,  // measure 11
0000
0010
0100
0001
0000
1000
0010
0100
0001
1000
0100
1000
0000
0001
0010
0100
,  // measure 12
1000
0001
0100
0001
0000
1000
0100
0010
0001
1000
0001
0100
0010
1000
0100
0010
,  // measure 13
0000
0001
1000
0010
0000
0100
0001
1000
0010
0100
0001
1000
0000
0100
0010
0001
,  // measure 14
0100
1000
0100
0001
0000
1000
0100
0001
1000
0001
1000
0001
1000
0001
0100
1000
,  // measure 15
0000
0001
0100
1000
0000
0001
0100
1000
0001
1000
0100
0001
0000
1000
0100
0001
,  // measure 16
0100
0000
0000
2100
0000
0000
3010
00M0
0000
0001
000M
0000
,  // measure 17
1000
0000
0000
0000
M000
0000
0000
0000
0000
0000
0000
0000
0100
0000
0000
0000
0M00
0000
0000
0000
0000
0000
0000
0000
0010
0000
0000
0000
00M0
0000
0000
0000
0000
0000
0000
0000
1000
0000
0000
1000
0000
0000
0001
0000
0000
0100
0000
0000
,  // measure 18
0001
0010
1010
0010
0100
1000
0101
0001
,  // measure 19
1000
0100
0011
0001
0100
1000
1100
0010
,  // measure 20
0100
0001
0110
0001
0010
0001
1100
0100
,  // measure 21
0010
0100
1010
0001
1000
0100
0011
0001
,  // measure 22
0100
0000
1000
0000
0102
0000
0010
0000
0013
0000
0100
0000
1010
0000
0100
1000
,  // measure 23
0100
0000
0001
0000
1001
0000
0010
0000
0001
0000
1000
0000
0010
0100
0001
1000
,  // measure 24
0100
0010
0100
1000
0002
0000
0000
0000
0000
0000
1003
0000
1000
0100
0010
0001
,  // measure 25
0200
0000
0000
0000
2000
0000
0000
0000
3000
0000
0000
0000
0301
0100
0010
1000
,  // measure 26
0100
0010
0001
0100
2000
0000
0000
0000
0000
0000
3100
0000
0010
0000
0001
1000
,  // measure 27
0001
0000
0100
1000
0001
0000
0000
0000
0000
0000
0010
0000
1010
0000
0001
0000
,  // measure 28
2000
0000
0000
0000
3001
0000
0000
0000
0100
0001
1000
0100
0001
0100
0000
0000
,  // measure 29
1000
0000
0000
0000
1100
0000
0000
0000
0010
0000
0000
0000
0001
1000
0010
0100
,  // measure 30
0020
0002
0003
2000
,  // measure 31
0030
0200
3000
0002
,  // measure 32
0303
2222
0000
3333
,  // measure 33
0010
1000
0100
1000
0000
0001
0100
1000
0100
0001
0100
0010
0000
1000
0001
0100
,  // measure 34
0001
0000
0000
0000
;
