#VERSION:0.83;
#TITLE:The Time Gauntlet;
#SUBTITLE:(Tower of Time Past);
#ARTIST:Rainbowdragoneyes;
#TITLETRANSLIT:;
#SUBTITLETRANSLIT:;
#ARTISTTRANSLIT:;
#GENRE:The Messenger;
#ORIGIN:;
#CREDIT:[Ness];
#BANNER:The Messenger - The Time Gauntlet (Tower of Time Past).png;
#BACKGROUND:The Messenger - The Time Gauntlet (Tower of Time Past)-bg.png;
#PREVIEWVID:;
#JACKET:The Messenger - The Time Gauntlet (Tower of Time Past)-jacket.png;
#CDIMAGE:;
#DISCIMAGE:Screenshot 2023-05-14 222033.png;
#LYRICSPATH:;
#CDTITLE:;
#MUSIC:The Messenger - The Time Gauntlet (Tower of Time Past).mp3;
#OFFSET:-0.015000;
#SAMPLESTART:0.010842;
#SAMPLELENGTH:21.333334;
#SELECTABLE:YES;
#BPMS:0.000=90.000;
#STOPS:;
#DELAYS:;
#WARPS:;
#TIMESIGNATURES:0.000=4=4;
#TICKCOUNTS:0.000=2;
#COMBOS:0.000=1;
#SPEEDS:0.000=1.000=0.000=0;
#SCROLLS:0.000=1.000;
#FAKES:;
#LABELS:0.000=Song Start;
#LASTSECONDHINT:96.050842;
#BGCHANGES:;
#KEYSOUNDS:;
#ATTACKS:
;

//---------------dance-single - ----------------
#NOTEDATA:;
#CHARTNAME:;
#STEPSTYPE:dance-single;
#DESCRIPTION:;
#CHARTSTYLE:;
#DIFFICULTY:Hard;
#METER:8;
#RADARVALUES:0.331128,0.385659,0.128224,0.236721,0.281107,235.000000,222.000000,13.000000,24.000000,0.000000,0.000000,0.000000,0.000000,0.000000,0.331128,0.385659,0.128224,0.236721,0.281107,235.000000,222.000000,13.000000,24.000000,0.000000,0.000000,0.000000,0.000000,0.000000;
#CREDIT:;
#NOTES:
0000
0000
0000
0000
,
0000
0000
0000
0000
,
2000
3100
0002
1003
,
0200
0000
0000
0000
0301
0000
0000
0000
0020
0000
0000
0000
1030
0100
0000
0000
,
2000
3001
0200
0310
,
0002
0013
2000
3001
,
0020
0130
2000
3001
,
0020
0000
0130
0000
2000
0000
3001
1000
,
0100
0000
1000
0001
0000
1000
0100
0000
0000
0000
0000
0010
0001
0000
0000
0000
,
1000
0001
0000
0001
0100
0000
0100
0010
0000
0010
1000
0000
1000
0001
0000
1000
,
0000
0000
0100
0000
0100
0010
0000
0000
0000
0001
0000
0000
1000
0000
0000
0010
,
0100
0000
0100
0000
0100
0010
0100
0010
0100
0001
0000
1000
0100
0000
0010
0000
,
0100
0000
0000
1000
0000
0000
0001
0000
0000
0000
0000
1000
0100
0000
0000
0000
,
0001
0010
0000
0100
1000
0000
0010
0100
0000
0000
0110
0000
0001
0100
0000
0010
,
2000
0000
0000
0100
0000
0000
0001
0001
0000
0010
0000
0000
3001
0000
0000
0000
,
0010
0001
0100
0010
0100
1000
0100
0000
,
0012
2003
3001
1010
,
0200
0302
1003
0101
,
0010
0000
1000
0000
0001
0000
1000
0100
1000
0000
0001
0000
0100
0000
0000
0000
,
0001
0000
1000
0000
0010
0000
0100
0001
0010
0000
0100
0000
1000
0000
0000
0000
,
0001
0000
1000
0000
0100
0000
1000
0001
0100
0000
0001
0000
1000
0000
0000
0000
,
0001
0000
0010
0000
0100
0000
0010
0001
1000
0000
0100
0000
1000
0000
0001
0000
,
0100
0000
0010
0000
1000
0000
0001
1000
0010
0000
0100
0000
0001
0000
1000
0001
,
0010
0000
0100
0000
1000
0000
0001
0000
0100
0000
0010
0000
1000
0001
1000
0001
,
1000
0100
0010
0100
1000
0000
0000
0000
0001
0000
0010
0000
0010
0100
0010
0001
,
0020
0000
0000
0000
0230
0000
0000
0000
1300
0000
0000
0000
1000
0001
0100
0001
,
1000
0000
0000
0000
0002
0000
0000
0000
0013
0000
0000
0000
0100
1000
0001
1000
,
0100
0000
0000
1000
0000
0000
0001
0000
0100
0000
0000
0010
0000
0000
1000
0000
,
0100
0000
0000
0101
0000
0000
0011
0000
0001
0000
0000
1010
0000
0000
1100
0000
,
0010
0000
0000
0110
0000
0000
1001
0000
1000
0000
0000
0101
0000
0000
1100
0000
,
1000
0000
0001
0010
0000
0100
1000
0000
1000
0000
0001
0100
0000
1000
0100
0000
,
0001
0000
1000
0010
0000
1000
0100
0000
0010
0000
0001
0100
0000
0001
0010
0000
,
0200
1300
0002
0103
,
0020
1030
0002
0013
,
0011
0000
0000
0000
;

//---------------dance-single - ----------------
#NOTEDATA:;
#CHARTNAME:;
#STEPSTYPE:dance-single;
#DESCRIPTION:;
#CHARTSTYLE:;
#DIFFICULTY:Medium;
#METER:5;
#RADARVALUES:0.202904,0.184445,0.000000,0.118361,0.000000,144.000000,144.000000,0.000000,12.000000,0.000000,0.000000,0.000000,0.000000,0.000000,0.202904,0.184445,0.000000,0.118361,0.000000,144.000000,144.000000,0.000000,12.000000,0.000000,0.000000,0.000000,0.000000,0.000000;
#CREDIT:;
#DISPLAYBPM:0.000000;
#NOTES:
0000
0000
0000
0000
,
0000
0000
0000
0000
,
0020
0130
2000
3001
,
0200
0310
2000
3001
,
0020
0130
0020
0031
,
2000
3100
2000
3001
,
0200
0310
2000
3001
,
2000
3100
0020
0031
,
1000
0001
0100
0010
,
0100
0001
0010
0100
,
1000
0001
1000
0100
,
0010
0001
0100
0010
,
1000
0000
0001
0000
1000
0001
0100
0000
,
0001
0000
1000
0000
0010
1000
0100
0000
,
1000
0001
0010
0100
,
0010
0001
0100
0010
,
1000
0010
1000
0000
0001
0000
1000
0000
,
0100
0000
0010
0000
0001
0100
0001
0000
,
1000
0000
0100
0000
0001
0100
0010
0000
,
1000
0000
0001
0000
1000
0100
0010
0000
,
0001
0000
1000
0000
0010
1000
0100
0000
,
1000
0000
0001
0000
0010
0001
0100
0000
,
0001
0000
1000
0000
0100
0010
0100
0000
,
1000
0000
0001
0000
0010
0100
0010
0000
,
0100
1000
0001
0100
,
0010
0100
0010
0000
1000
0000
0001
0000
,
0100
0000
0010
0000
1000
0000
0100
0010
,
0100
1000
0001
0100
,
0001
0000
0010
0000
0100
0000
0010
0100
,
0010
0000
0100
0000
1000
0000
0001
1000
,
0001
0000
0010
0000
0100
0000
1000
0100
,
1000
0010
1000
0001
,
0100
0010
0100
0010
,
1000
0100
0010
0001
,
0100
0000
0000
0000
;

//---------------dance-single - ----------------
#NOTEDATA:;
#CHARTNAME:;
#STEPSTYPE:dance-single;
#DESCRIPTION:;
#CHARTSTYLE:;
#DIFFICULTY:Easy;
#METER:3;
#RADARVALUES:0.125406,0.150910,0.000000,0.138087,0.000000,89.000000,89.000000,0.000000,14.000000,0.000000,0.000000,0.000000,0.000000,0.000000,0.125406,0.150910,0.000000,0.138087,0.000000,89.000000,89.000000,0.000000,14.000000,0.000000,0.000000,0.000000,0.000000,0.000000;
#CREDIT:;
#DISPLAYBPM:0.000000;
#NOTES:
// measure 0
0000
0000
0000
0000
,  // measure 1
0000
0000
0000
0000
,  // measure 2
0020
0030
0200
0300
,  // measure 3
2000
3000
0002
0003
,  // measure 4
2000
3000
0020
0030
,  // measure 5
0002
0003
0020
0030
,  // measure 6
0200
0300
2000
3000
,  // measure 7
0200
0300
0002
0003
,  // measure 8
0010
0010
0100
0100
,  // measure 9
1000
0001
1000
0001
,  // measure 10
0100
0100
0010
0010
,  // measure 11
1000
0001
1000
0001
,  // measure 12
0010
0010
0100
0100
,  // measure 13
1000
0100
0010
0001
,  // measure 14
1000
0000
0001
0000
,  // measure 15
0100
0010
0100
0010
,  // measure 16
1000
0000
0001
0000
,  // measure 17
0010
0100
0010
0100
,  // measure 18
1000
0000
0001
0000
,  // measure 19
0100
0000
0010
0000
,  // measure 20
1000
0000
0100
0000
,  // measure 21
0010
0000
0100
0010
,  // measure 22
0001
0000
1000
0000
,  // measure 23
0001
0000
0100
0010
,  // measure 24
1000
0000
0001
0000
,  // measure 25
1000
0001
1000
0100
,  // measure 26
0010
0000
0001
1000
,  // measure 27
0001
0000
0100
0010
,  // measure 28
1000
0100
1000
0000
,  // measure 29
0001
1000
0001
0000
,  // measure 30
0100
0010
1000
0000
,  // measure 31
0001
0010
0100
0000
,  // measure 32
0020
0000
0030
0000
,  // measure 33
0200
0000
0300
0000
,  // measure 34
1000
0000
0000
0000
;

//---------------dance-single - ----------------
#NOTEDATA:;
#CHARTNAME:;
#STEPSTYPE:dance-single;
#DESCRIPTION:;
#CHARTSTYLE:;
#DIFFICULTY:Beginner;
#METER:1;
#RADARVALUES:0.052135,0.067071,0.000000,0.000000,0.000000,37.000000,37.000000,0.000000,0.000000,0.000000,0.000000,0.000000,0.000000,0.000000,0.052135,0.067071,0.000000,0.000000,0.000000,37.000000,37.000000,0.000000,0.000000,0.000000,0.000000,0.000000,0.000000,0.000000;
#CREDIT:;
#DISPLAYBPM:0.000000;
#NOTES:
// measure 0
0000
0000
0000
0000
,  // measure 1
0000
0000
0000
0000
,  // measure 2
0001
0000
0000
0000
,  // measure 3
1000
0000
0000
0000
,  // measure 4
0010
0000
0000
0000
,  // measure 5
0100
0000
0000
0000
,  // measure 6
0001
0000
0000
0000
,  // measure 7
0010
0000
0000
0000
,  // measure 8
0100
0000
0000
0000
,  // measure 9
1000
0000
0000
0000
,  // measure 10
0010
0000
0000
0000
,  // measure 11
0100
0000
0000
0000
,  // measure 12
0001
0000
0000
0000
,  // measure 13
1000
0000
0000
0000
,  // measure 14
0001
0000
0000
0000
,  // measure 15
0010
0000
0000
0000
,  // measure 16
0100
0000
0000
0000
,  // measure 17
1000
0000
0000
0000
,  // measure 18
1000
0000
0010
0000
,  // measure 19
0100
0000
0000
0000
,  // measure 20
0001
0000
0010
0000
,  // measure 21
0100
0000
0000
0000
,  // measure 22
1000
0000
1000
0000
,  // measure 23
0001
0000
0000
0000
,  // measure 24
0010
0000
0010
0000
,  // measure 25
0100
0000
0000
0000
,  // measure 26
0001
0000
0000
0000
,  // measure 27
0010
0000
0000
0000
,  // measure 28
1000
0000
0000
0000
,  // measure 29
0100
0000
0000
0000
,  // measure 30
0010
0000
0000
0000
,  // measure 31
0100
0000
0000
0000
,  // measure 32
0010
0000
0000
0000
,  // measure 33
0010
0000
0000
0000
,  // measure 34
0001
0000
0000
0000
;
