#VERSION:0.83;
#TITLE:The Poisoned River;
#SUBTITLE:(Riviere Turquoise Past);
#ARTIST:Rainbowdragoneyes;
#TITLETRANSLIT:;
#SUBTITLETRANSLIT:;
#ARTISTTRANSLIT:;
#GENRE:The Messenger;
#ORIGIN:;
#CREDIT:[Ness];
#BANNER:The Messenger - The Poisoned River (Riviere Turquoise Past).png;
#BACKGROUND:The Messenger - The Poisoned River (Riviere Turquoise Past)-bg.png;
#PREVIEWVID:;
#JACKET:The Messenger - The Poisoned River (Riviere Turquoise Past)-jacket.png;
#CDIMAGE:;
#DISCIMAGE:;
#LYRICSPATH:;
#CDTITLE:;
#MUSIC:The Messenger - The Poisoned River (Riviere Turquoise Past).mp3;
#OFFSET:-0.035000;
#SAMPLESTART:3.870842;
#SAMPLELENGTH:15.360002;
#SELECTABLE:YES;
#BPMS:0.000=125.000,
48.000=250.000,
96.000=125.000;
#STOPS:;
#DELAYS:;
#WARPS:;
#TIMESIGNATURES:0.000=4=4;
#TICKCOUNTS:0.000=2;
#COMBOS:0.000=1;
#SPEEDS:0.000=1.000=0.000=0;
#SCROLLS:0.000=1.000;
#FAKES:;
#LABELS:0.000=Song Start;
#LASTSECONDHINT:101.830849;
#BGCHANGES:;
#KEYSOUNDS:;
#ATTACKS:
;

//---------------dance-single - ----------------
#NOTEDATA:;
#CHARTNAME:;
#STEPSTYPE:dance-single;
#DESCRIPTION:;
#CHARTSTYLE:;
#DIFFICULTY:Challenge;
#METER:10;
#RADARVALUES:0.769099,0.886754,0.141428,0.103714,0.966425,571.000000,556.000000,15.000000,11.000000,0.000000,0.000000,16.000000,0.000000,0.000000,0.769099,0.886754,0.141428,0.103714,0.966425,571.000000,556.000000,15.000000,11.000000,0.000000,0.000000,16.000000,0.000000,0.000000;
#CREDIT:;
#NOTES:
0000
0000
0000
0000
,
0000
0000
0000
0000
0000
0000
0000
0000
0000
0000
0000
0000
0001
1000
1000
0010
,
0010
0100
0100
0001
0001
1000
1000
0100
0100
0010
0010
0001
0001
1000
1000
0100
,
0010
0001
0001
1000
1000
0010
0010
0100
0100
0001
0001
1000
1000
0010
0010
0100
,
0001
1000
0001
0000
1000
0100
0010
0001
0000
0001
0010
0000
0010
0100
1000
0000
,
1000
0010
1000
0000
0001
0100
0010
1000
0000
1000
0001
0010
0000
0010
0100
1000
,
0001
0010
0001
0000
1000
0100
0010
0001
0000
1000
0010
1000
0000
0001
0100
0010
,
1000
0001
1000
0000
0010
0100
0001
0010
0000
0001
1000
0100
0000
0010
0100
1000
,
0001
0100
0010
0000
0100
0001
1000
0001
0000
0010
0001
1000
0000
0010
1000
0100
,
1000
0001
1000
0000
0100
1000
0010
1000
0000
0010
0100
0001
0000
0010
0001
1000
,
0010
0100
0001
0000
1000
0001
1000
0100
0000
1000
0010
1000
0000
0100
0010
0001
,
0100
0001
1000
0000
0001
0100
0001
0010
0000
0001
0100
0001
0000
1000
0001
0100
,
0010
1000
0100
0000
1000
0001
1000
0100
,
0010
0100
1000
0000
0010
0100
0001
1000
,
0001
0100
0001
0010
0100
0010
0001
1000
,
0100
0010
0100
1000
0001
0010
0100
1000
,
0100
0010
0001
0000
0000
0000
1001
0000
,
1000
0010
0100
0000
0000
0000
0110
0000
,
0001
0001
1000
0000
0010
0010
0100
0000
,
1000
1000
0001
0000
0100
0100
0010
0000
,
1000
0100
0000
0000
0100
0001
0000
0000
,
0010
0000
1000
0000
0001
0010
0000
0000
,
0100
1000
0001
0000
0100
0000
0000
0000
,
0010
1000
0100
0000
0100
0001
0000
0000
,
1000
0001
1000
0100
1000
1000
0000
0001
1000
0001
0100
0001
0010
0010
0000
0100
,
1000
0100
0010
0000
0001
1000
0000
0001
0100
0001
0010
0000
0110
0000
0000
0000
,
0400
4000
0300
3000
0004
0040
0003
0030
0001
0100
0001
1000
0010
0100
0001
0000
,
0400
0040
0300
0030
4000
0004
3000
0003
1000
0100
1000
0001
0010
0100
1000
0000
,
0040
0004
0030
0003
0040
4000
0030
3000
0001
1000
0100
0010
0001
0100
0010
0000
,
0400
0004
0300
0003
0400
4000
0300
3000
0100
0010
0001
0100
0010
1000
0100
0010
,
0001
1000
0001
0000
0001
0100
0001
0000
1000
0100
0010
0001
1000
0100
0010
0000
,
0100
1000
0100
0000
0100
0001
0100
0000
0100
0010
0001
1000
0010
0100
0001
0000
,
1000
0010
1000
0000
1000
0001
1000
0000
1000
0100
0010
0001
0100
0010
1000
0000
,
0010
1000
0010
0000
0010
0001
0010
0000
0010
0100
0010
0001
1000
0100
0010
0000
,
0102
0000
0010
0000
1000
0100
0010
0013
,
2010
0000
0100
0000
0001
0010
0100
3100
,
0210
0000
1000
0000
0010
0010
0301
0000
,
0120
0000
0001
0000
1000
0100
0130
0010
,
0001
0010
0002
0000
0000
0003
0001
0100
0002
0000
0000
0000
1003
0100
1000
0001
,
0200
0000
0310
0000
1010
0000
0011
0001
,
1000
0000
0001
1000
0100
0000
0000
0100
0010
0000
0000
0010
0001
0000
1000
0000
,
0001
0000
1000
0010
0100
0000
0000
0100
0001
0000
0000
0001
1000
0000
0100
0000
,
0010
0000
0010
0001
0100
0000
0000
0100
0010
0000
0000
0010
1000
0000
0100
0000
,
1000
0001
1000
0010
0100
0001
0010
0200
0000
0000
0000
0000
1300
0001
0100
0001
,
1000
0000
0010
0100
0001
0000
0000
1000
0010
0000
0000
0100
0001
0000
1000
0000
,
1000
0000
0100
0010
0001
0000
0000
0000
1000
0100
1000
0020
0000
0130
0001
0000
,
0101
0000
0001
0010
0001
0000
1000
0100
1000
0000
1000
0001
0100
0010
1000
0001
,
0100
0000
0000
0100
0010
0000
0000
1000
0100
0000
0000
0000
0101
0000
0000
0000
,
0100
1000
0100
0010
0000
0001
0100
0000
0001
1000
0010
0100
0001
0010
0100
1000
,
0100
0000
0000
1000
0001
0000
0000
1000
0010
0000
0100
0000
0100
0000
0001
0000
,
0001
0000
0000
0000
0000
0000
1000
0000
0100
0000
0010
0000
0001
0000
0000
0000
0000
0000
0001
0000
0010
0000
0100
0000
1000
0000
0000
0000
0000
0000
0001
0000
0000
0100
0000
0000
0010
0000
0000
1000
0000
0000
0100
0000
0000
0010
0000
0000
,
0001
1000
0010
0100
0001
0001
1000
0100
,
0010
0000
0000
0001
0000
0000
1000
0000
0000
0010
0000
0000
0100
0000
0000
0001
0000
0000
1000
0000
0000
0200
0000
0000
0000
0000
0000
0000
0000
0000
1300
0000
0100
0000
1000
0000
0001
0000
0100
0000
0001
0000
0100
0000
0010
0000
0100
0000
,
0010
1000
0100
1000
0001
0010
0001
0100
0010
0100
0001
2000
0000
0000
3100
0000
,
0010
0001
0100
0000
0101
0000
0100
0010
1000
0100
1000
0000
1100
0000
1000
0001
,
0100
0010
1000
0000
1001
0000
0010
0100
0001
0001
1000
0000
1001
0000
0000
0000
,
1000
0100
0100
0010
0010
0001
0001
1000
1000
0010
0010
0100
0100
0001
0001
0010
,
0010
0000
0000
0000
;

//---------------dance-single - ----------------
#NOTEDATA:;
#CHARTNAME:;
#STEPSTYPE:dance-single;
#DESCRIPTION:;
#CHARTSTYLE:;
#DIFFICULTY:Hard;
#METER:8;
#RADARVALUES:0.509141,0.537427,0.282856,0.160285,0.240428,378.000000,348.000000,30.000000,17.000000,0.000000,0.000000,0.000000,0.000000,0.000000,0.509141,0.537427,0.282856,0.160285,0.240428,378.000000,348.000000,30.000000,17.000000,0.000000,0.000000,0.000000,0.000000,0.000000;
#CREDIT:;
#NOTES:
0000
0000
0000
0000
,
0000
0000
0000
0000
0000
0000
0001
1000
,
0001
0100
1000
0100
0010
0100
1000
0100
,
0001
0100
0010
1000
0010
0001
0010
0100
,
0001
0000
0001
0000
0000
1000
0000
0100
0000
0010
0001
0000
1000
0000
0000
0000
,
0010
0000
0100
0000
0001
0000
0000
0010
0000
0000
0100
1000
0001
0000
0000
0000
,
1000
0000
0001
0000
0000
0100
0000
0001
0000
1000
0001
0000
0010
0000
0000
0000
,
0100
0000
1000
0000
0010
0000
0100
0000
0001
0000
1000
0001
0100
0000
0000
0000
,
1001
0000
1001
0000
0000
0101
0000
0101
0000
0000
0110
0000
0000
0000
0000
0000
,
1000
0000
0010
0000
0100
0000
0001
0000
1000
0000
0100
1000
0000
0000
0000
0000
,
1100
0000
1100
0000
0000
1001
0000
1001
0000
0000
0101
0000
0000
0000
0000
0000
,
0001
0000
0010
0000
0001
1000
0000
0100
0000
0000
0010
0001
1000
0000
0000
0000
,
0100
0010
0100
1000
,
0001
1000
0100
0010
,
0001
0010
0100
1000
0001
0000
1000
0000
,
0010
0100
0001
1000
,
0100
1000
0001
1000
,
0100
1000
0001
0100
,
0001
0100
0001
0000
0000
0000
1001
0000
,
0000
1100
0000
1001
,
0010
1000
0000
0000
1000
0001
0000
0000
,
0010
0000
0001
0000
0100
0001
0000
0000
,
0010
0001
0010
0000
0100
0000
0000
0000
,
1000
0100
1000
0000
0010
0100
0000
0000
,
0002
0000
1003
0000
0100
1000
0001
0000
,
0100
0010
0100
0010
1000
0100
0010
0000
,
0001
1000
0000
0000
1000
0010
0000
0000
0100
0001
0100
0000
0001
0000
0000
0000
,
1000
0100
0000
0000
0100
0010
0000
0000
0001
1000
0001
0000
1000
0000
0000
0000
,
0010
1000
0000
0000
1000
0100
0000
0000
1000
0001
1000
0000
0001
0000
0000
0000
,
0100
0001
0000
0000
0001
0010
0000
0000
0010
0100
0010
0000
0100
0000
0000
0000
,
0100
1000
0000
0000
1000
0010
1000
0000
0001
0000
0000
0000
1001
0000
0000
0000
,
0001
0010
0000
0000
0010
0100
0010
0000
0100
0000
0000
0000
1100
0000
0000
0000
,
0100
1000
0000
0000
1000
0001
1000
0000
0010
0000
0000
0000
0101
0000
0000
0000
,
0001
0100
0000
0000
0100
0010
0100
0000
0010
0000
0000
0000
1100
0000
0000
0000
,
2001
0000
3010
1000
0100
1000
0001
1000
,
0002
0000
0103
0001
0010
0100
1000
0001
,
0200
0000
0310
0100
0001
0010
0001
0100
,
0020
0000
1030
0001
0100
0010
1000
0100
,
1000
0100
2000
0000
0000
0000
3001
0010
0002
0000
0000
0000
0103
0010
0100
0010
,
0100
0000
0110
0000
0002
0000
1003
0100
,
0010
0000
0000
0000
1001
0000
0000
0000
0010
0000
0000
0001
0010
0000
0100
0000
,
1000
0000
0000
0000
1100
0000
0000
0000
1000
0000
0000
0001
0100
0000
0010
0000
,
1000
0000
0000
0000
1001
0000
0000
0000
0010
0000
0000
1000
0100
0000
0010
0000
,
0001
0000
1000
0000
0001
0000
0100
0010
0000
0000
0000
0000
1000
0000
0100
0000
,
2000
0000
3001
0000
0101
0000
1001
1000
,
0002
0000
0000
0000
1003
0000
0000
0000
0100
0000
1000
0020
0000
0000
0130
0000
,
0001
0000
0011
0000
1010
0000
0100
0001
,
1000
0100
2000
0000
3001
0000
1001
0000
,
0100
0000
0001
0020
0000
0000
0130
0000
1000
0000
0100
0000
1000
0001
0000
0000
,
0100
0000
0110
0000
1010
1000
0010
0100
,
0001
0000
0000
0000
0010
0000
0001
0000
0000
0000
1000
0000
0010
0000
0000
0100
0000
0000
0001
0000
0000
1000
0000
0000
,
0100
0100
0010
0010
0001
1000
0100
0010
,
0100
1000
0001
1000
0200
0010
0310
0000
,
0010
0001
0100
0001
1000
0010
0100
0000
,
2001
0000
3002
0000
0203
0010
0310
0000
,
1000
0000
0100
0000
0001
0000
0100
0000
0010
0001
1000
0000
0001
0000
0000
0000
,
1000
1000
0010
0010
0001
0001
0100
0100
,
1000
0000
0000
0000
;

//---------------dance-single - ----------------
#NOTEDATA:;
#CHARTNAME:;
#STEPSTYPE:dance-single;
#DESCRIPTION:;
#CHARTSTYLE:;
#DIFFICULTY:Medium;
#METER:6;
#RADARVALUES:0.365019,0.429941,0.235713,0.056571,0.000000,271.000000,246.000000,25.000000,6.000000,0.000000,0.000000,0.000000,0.000000,0.000000,0.365019,0.429941,0.235713,0.056571,0.000000,271.000000,246.000000,25.000000,6.000000,0.000000,0.000000,0.000000,0.000000,0.000000;
#CREDIT:;
#NOTES:
0000
0000
0000
0000
,
0000
0000
0000
0000
0000
0000
0001
0100
,
0001
0000
0010
0000
0100
0000
1000
0100
,
1000
0000
0010
0000
0100
0001
1000
0000
,
0100
0100
0100
0000
1000
0100
0001
0000
,
0010
0000
0100
0000
0010
0001
0100
0000
,
0010
0010
0010
0000
1000
0010
0001
0000
,
1000
0010
1000
0000
0001
0000
1000
0000
,
0001
0001
0001
0000
0010
0100
0010
0000
,
0100
1000
0001
0100
,
1000
1000
1000
0000
0010
0100
0010
0000
,
1000
0100
0001
0010
,
0100
0000
1000
0000
,
0001
1000
0100
0000
,
0010
0001
0100
0000
,
0001
0010
0100
0000
,
1000
0010
1000
0000
,
0001
1000
0100
0000
,
0010
0001
0100
0001
,
0000
1000
0010
1000
,
0200
0000
0310
0000
,
0002
0000
1003
0000
,
0010
0100
0010
0100
,
0001
1000
0001
0000
,
1001
0010
0100
0010
,
1000
0001
0200
0310
,
1010
0000
1010
0000
0001
0001
0001
0000
,
0011
0000
0011
0000
1000
1000
1000
0000
,
1100
0000
1100
0000
0001
0001
0001
0000
,
0101
0000
0101
0000
1000
1000
1000
0000
,
0110
0000
0110
0000
0100
0010
0100
0000
,
1001
0000
1001
0000
0001
1000
0001
0000
,
0110
0000
0110
0000
0010
0100
0010
0000
,
1001
0000
1001
0000
1000
0001
1000
0000
,
1010
1000
0001
0010
,
0002
0000
0103
0000
0010
1000
0010
1000
,
0020
0130
0002
0013
,
0100
1000
0100
0000
0010
0001
0010
0000
,
0100
1000
0000
1000
0001
0000
0001
0100
,
0001
0000
0010
0000
0100
0000
1000
0001
,
0100
0000
0101
0000
0000
0000
0000
0001
,
1000
0000
1100
0000
0000
0000
0000
0010
,
0100
0000
0110
0000
0000
0000
0000
1000
,
0010
1000
0100
1000
0010
0000
0000
1000
,
0100
0000
0101
0000
0000
0000
0000
0001
,
0010
0000
1010
0000
0001
1000
0001
0000
,
0010
0000
0011
0000
1000
0000
0001
1000
,
0100
0000
0010
0000
0001
1000
0001
0000
,
0110
1000
0100
0001
,
0100
0000
1000
0000
0010
0010
0100
0100
,
0001
1000
0100
0010
,
0001
0000
1000
0000
0001
0001
1000
1000
,
0100
0010
0001
1000
,
0010
0100
0001
1000
,
0100
0001
0010
0100
,
1000
0001
0100
0100
,
0010
0010
0010
0010
0100
0100
0100
0100
,
0100
0000
0000
0000
;

//---------------dance-single - ----------------
#NOTEDATA:;
#CHARTNAME:;
#STEPSTYPE:dance-single;
#DESCRIPTION:;
#CHARTSTYLE:;
#DIFFICULTY:Easy;
#METER:3;
#RADARVALUES:0.167020,0.214971,0.000000,0.254570,0.000000,124.000000,124.000000,0.000000,27.000000,0.000000,0.000000,0.000000,0.000000,0.000000,0.167020,0.214971,0.000000,0.254570,0.000000,124.000000,124.000000,0.000000,27.000000,0.000000,0.000000,0.000000,0.000000,0.000000;
#CREDIT:;
#NOTES:
// measure 0
0000
0000
0000
0000
,  // measure 1
0000
0000
0000
0001
,  // measure 2
1000
0100
0000
1000
,  // measure 3
0010
0001
0010
0000
,  // measure 4
0200
0000
1300
0000
,  // measure 5
0002
0000
0013
0000
,  // measure 6
2000
0000
3001
0000
,  // measure 7
0020
0000
0130
0000
,  // measure 8
2000
0000
3100
0000
,  // measure 9
0002
0000
0013
0000
,  // measure 10
2000
0000
3001
0000
,  // measure 11
0020
0000
0130
0000
,  // measure 12
1000
0000
0000
0000
,  // measure 13
0001
0000
0000
0000
,  // measure 14
1000
0000
0100
0000
,  // measure 15
1000
0000
0001
0000
,  // measure 16
0100
0000
0000
0000
,  // measure 17
0010
0000
0000
0000
,  // measure 18
0100
0000
0001
0000
,  // measure 19
0010
0000
0000
0000
,  // measure 20
0100
0000
0000
0000
,  // measure 21
0010
0000
0000
0000
,  // measure 22
0100
0000
1000
0000
,  // measure 23
0010
0000
0001
0000
,  // measure 24
0010
0000
0100
0000
,  // measure 25
0010
0000
0100
0000
,  // measure 26
2000
3200
0300
0000
,  // measure 27
0002
0023
0030
0000
,  // measure 28
2000
3002
0003
0000
,  // measure 29
0020
0230
0300
0000
,  // measure 30
2000
3200
0300
0000
,  // measure 31
0002
2003
3000
0000
,  // measure 32
0020
0032
0003
0000
,  // measure 33
2000
3020
0030
0000
,  // measure 34
0002
0000
1003
0000
,  // measure 35
0001
0100
0010
0000
,  // measure 36
2000
0000
3100
0000
,  // measure 37
0010
0000
0100
1000
,  // measure 38
0002
0000
1003
0000
,  // measure 39
0001
0000
0100
0010
,  // measure 40
1000
0100
1000
0000
,  // measure 41
0001
0010
0001
0000
,  // measure 42
1000
0001
1000
0000
,  // measure 43
0001
1000
0100
0000
,  // measure 44
0010
0100
0010
0000
,  // measure 45
0001
0100
0001
0000
,  // measure 46
1000
0000
0001
0000
,  // measure 47
1000
0010
1000
0000
,  // measure 48
0001
0000
1000
0000
,  // measure 49
0010
0010
0100
0100
,  // measure 50
0001
0000
0010
0000
,  // measure 51
0100
1000
0001
0010
,  // measure 52
0100
0000
1000
0000
,  // measure 53
0010
0000
0100
0000
,  // measure 54
0001
0000
1000
0000
,  // measure 55
0001
0000
0100
0100
,  // measure 56
0010
0010
0010
0010
,  // measure 57
0010
0000
0000
0000
;

//---------------dance-single - ----------------
#NOTEDATA:;
#CHARTNAME:;
#STEPSTYPE:dance-single;
#DESCRIPTION:;
#CHARTSTYLE:;
#DIFFICULTY:Beginner;
#METER:1;
#RADARVALUES:0.140081,0.161228,0.000000,0.000000,0.000000,104.000000,104.000000,0.000000,0.000000,0.000000,0.000000,0.000000,0.000000,0.000000,0.140081,0.161228,0.000000,0.000000,0.000000,104.000000,104.000000,0.000000,0.000000,0.000000,0.000000,0.000000,0.000000,0.000000;
#CREDIT:;
#NOTES:
// measure 0
0000
0000
0000
0000
,  // measure 1
0000
0000
0000
0001
,  // measure 2
0001
0000
0000
1000
,  // measure 3
1000
0000
0010
0010
,  // measure 4
0000
0000
0100
0000
,  // measure 5
0001
0000
0010
0000
,  // measure 6
0100
0100
0100
0000
,  // measure 7
1000
0000
0001
0000
,  // measure 8
1000
1000
1000
0000
,  // measure 9
0010
0000
0100
0000
,  // measure 10
0001
0001
0001
0000
,  // measure 11
1000
0000
0001
0000
,  // measure 12
0010
0000
0010
0000
,  // measure 13
0010
0000
0000
0000
,  // measure 14
0100
0000
0000
0000
,  // measure 15
0100
0000
0000
0000
,  // measure 16
1000
0000
1000
0000
,  // measure 17
1000
0000
0000
0000
,  // measure 18
0001
0000
0000
0000
,  // measure 19
0010
0000
0000
0000
,  // measure 20
0100
0000
0000
0000
,  // measure 21
0010
0000
0000
0000
,  // measure 22
0001
0000
0000
0000
,  // measure 23
1000
0000
0000
0000
,  // measure 24
0100
0000
0100
0000
,  // measure 25
0010
0000
0010
0000
,  // measure 26
0001
0001
0000
0000
,  // measure 27
1000
1000
0000
0000
,  // measure 28
0100
0100
0000
0000
,  // measure 29
0010
0010
0000
0000
,  // measure 30
0001
0001
0000
0000
,  // measure 31
0010
0010
0000
0000
,  // measure 32
1000
1000
0000
0000
,  // measure 33
0100
0100
0000
0000
,  // measure 34
0001
0000
0010
0000
,  // measure 35
0100
0000
1000
0000
,  // measure 36
0010
0000
0001
0000
,  // measure 37
0100
0000
1000
0000
,  // measure 38
0010
0000
0100
0000
,  // measure 39
0001
0000
0010
0000
,  // measure 40
1000
0000
0100
0000
,  // measure 41
0001
0000
0100
0000
,  // measure 42
1000
0000
0100
0000
,  // measure 43
0001
0000
0100
0000
,  // measure 44
1000
0000
0001
0000
,  // measure 45
1000
0000
0001
0000
,  // measure 46
1000
0000
0010
0000
,  // measure 47
0100
0000
0001
0000
,  // measure 48
0010
0000
0001
0000
,  // measure 49
0010
0000
0100
0000
,  // measure 50
1000
0000
0100
0000
,  // measure 51
0010
0000
0001
0000
,  // measure 52
0010
0000
1000
0000
,  // measure 53
0010
0000
0001
0000
,  // measure 54
0100
0000
0010
0000
,  // measure 55
1000
0000
0100
0000
,  // measure 56
0010
0000
0000
0000
,  // measure 57
0100
0000
0000
0000
;
