#VERSION:0.83;
#TITLE:The Frozen Light;
#SUBTITLE:(Glacial Peak Past);
#ARTIST:Rainbowdragoneyes;
#TITLETRANSLIT:;
#SUBTITLETRANSLIT:;
#ARTISTTRANSLIT:;
#GENRE:The Messenger;
#ORIGIN:;
#CREDIT:[Ness];
#BANNER:The Messenger - The Frozen Light (Glacial Peak Past).png;
#BACKGROUND:The Messenger - The Frozen Light (Glacial Peak Past)-bg.png;
#PREVIEWVID:;
#JACKET:The Messenger - The Frozen Light (Glacial Peak Past)-jacket.png;
#CDIMAGE:;
#DISCIMAGE:;
#LYRICSPATH:;
#CDTITLE:;
#MUSIC:The Messenger - The Frozen Light (Glacial Peak Past).mp3;
#OFFSET:-0.055000;
#SAMPLESTART:32.010841;
#SAMPLELENGTH:12.799999;
#SELECTABLE:YES;
#BPMS:0.000=150.000;
#STOPS:;
#DELAYS:;
#WARPS:;
#TIMESIGNATURES:0.000=4=4;
#TICKCOUNTS:0.000=2;
#COMBOS:0.000=1;
#SPEEDS:0.000=1.000=0.000=0;
#SCROLLS:0.000=1.000;
#FAKES:;
#LABELS:0.000=Song Start;
#LASTSECONDHINT:86.450844;
#BGCHANGES:;
#KEYSOUNDS:;
#ATTACKS:
;

//---------------dance-single - ----------------
#NOTEDATA:;
#CHARTNAME:;
#STEPSTYPE:dance-single;
#DESCRIPTION:;
#CHARTSTYLE:;
#DIFFICULTY:Challenge;
#METER:9;
#RADARVALUES:0.574297,0.606343,0.199893,0.244314,0.233209,362.000000,344.000000,18.000000,22.000000,0.000000,0.000000,0.000000,0.000000,0.000000,0.574297,0.606343,0.199893,0.244314,0.233209,362.000000,344.000000,18.000000,22.000000,0.000000,0.000000,0.000000,0.000000,0.000000;
#CREDIT:;
#NOTES:
0000
0000
0000
0000
,
0000
0000
0000
0000
,
0000
0000
0000
0000
,
0000
0000
0000
0000
,
0002
0000
0203
0000
2300
0000
3010
0100
,
0020
2030
3002
0023
,
0230
0000
2300
0000
3001
1000
0100
0010
,
0002
0203
2300
3200
,
0310
1000
0001
1000
,
0100
0001
1000
0001
,
0100
0000
0000
0100
0010
0000
0000
0010
1000
0000
0000
1000
0100
0000
0000
0100
,
0010
0000
0000
0010
0001
0000
0000
0001
1000
0000
0000
1000
0001
0000
0000
0001
,
0100
0010
1000
0100
0010
1000
0100
0001
,
1000
0100
0000
0110
0000
1001
0000
0010
,
0001
1000
0001
0100
0010
0100
1000
0001
,
0100
1000
0000
0110
0000
1001
0001
0010
,
1000
0100
0010
0100
1000
0001
0100
0010
,
1000
0100
0000
0110
0000
1001
0000
0100
,
1000
0001
0010
1000
0001
0100
0010
1000
,
0100
0010
0000
0110
0000
1001
1000
0010
,
0001
0100
0002
0010
0013
0100
2000
0010
,
3001
0100
0010
0000
1000
0001
1000
0000
,
0100
1000
0002
1000
0103
0010
0200
0001
,
0300
1000
0010
0001
0010
1000
0100
0010
,
0010
0001
2000
0010
3010
0100
0002
1000
,
0003
0100
1000
0000
0001
1000
0100
0000
,
0010
0001
0200
0001
0310
1000
0020
0000
,
0030
0000
0200
0000
0000
0000
0301
0000
1000
0001
1000
0001
1000
0100
1000
0000
,
0010
1000
0100
1000
0001
0010
0001
0100
,
0010
0100
0010
0000
1000
0001
0100
0000
,
0010
1000
0100
1000
0001
0100
1000
0100
,
0000
0010
1000
0100
1000
0001
0100
0010
,
1000
0001
1000
0010
0001
0010
0100
0001
,
0000
1000
0100
0010
0001
1000
0100
0010
,
0100
1000
0001
1000
0010
0001
0010
0000
,
0100
0001
1000
0110
,
1000
0000
0100
1000
0100
0000
0000
0010
0001
0000
0100
0001
0100
0000
0000
0001
,
1000
0000
0010
1000
0010
0000
0000
1000
0100
0000
0010
0100
0010
0000
0000
0001
,
0100
0000
0001
1000
0001
0000
0000
0010
0100
0000
1000
0010
1000
0000
0000
0001
,
0100
0000
0001
1000
0100
0000
0000
1000
0001
0000
0010
0001
1000
0000
0000
0010
,
1000
0000
0100
1000
0010
0000
0000
0100
0001
0000
0010
0001
0100
0000
0000
0001
,
0010
0000
0100
0010
0001
0000
0000
0100
0010
0000
1000
0010
0100
0000
0000
0001
,
1000
0000
0100
0010
0001
0000
0000
1000
0010
0000
0100
0010
1000
0000
0000
0001
,
0100
0000
0010
0100
0001
0000
0000
0010
0100
0000
1000
0100
0010
0000
0000
0000
,
0011
0001
1000
0001
0100
1000
0100
0010
,
1000
0100
0000
0110
0000
1001
0000
1000
,
0010
0001
0010
0100
0001
1000
0100
0010
,
0001
0100
0000
0110
0000
1001
0001
0010
,
1000
0100
0010
0100
1000
0001
0100
0010
,
1000
0100
0000
0110
0000
1001
0000
1000
,
0001
0100
0010
1000
0100
0010
0001
1000
,
0010
0001
0000
0110
0000
1001
1000
0100
,
0001
0000
0000
0000
;

//---------------dance-single - ----------------
#NOTEDATA:;
#CHARTNAME:;
#STEPSTYPE:dance-single;
#DESCRIPTION:;
#CHARTSTYLE:;
#DIFFICULTY:Hard;
#METER:6;
#RADARVALUES:0.385509,0.404229,0.011105,0.233209,0.000000,243.000000,242.000000,1.000000,21.000000,0.000000,0.000000,0.000000,0.000000,0.000000,0.385509,0.404229,0.011105,0.233209,0.000000,243.000000,242.000000,1.000000,21.000000,0.000000,0.000000,0.000000,0.000000,0.000000;
#CREDIT:;
#NOTES:
// measure 0
0000
0000
0000
0000
,  // measure 1
0000
0000
0000
0000
,  // measure 2
0000
0000
0000
0000
,  // measure 3
0000
0000
0000
0000
,  // measure 4
2000
0000
3200
0000
2300
0000
3001
0010
,  // measure 5
0002
0203
0320
2030
,  // measure 6
3002
0000
2003
0000
3010
0100
0001
1000
,  // measure 7
0200
0320
0032
2003
,  // measure 8
3100
0100
0010
0010
,  // measure 9
0001
0001
1000
1000
,  // measure 10
0010
1000
0100
0001
,  // measure 11
0100
1000
0010
0100
,  // measure 12
0002
0000
1003
0000
0010
1000
0100
0000
,  // measure 13
1000
0001
0000
0100
0000
0010
0000
0000
,  // measure 14
1000
0010
0100
0000
0002
0000
0013
0000
,  // measure 15
0100
1000
0000
0001
0000
1000
0000
0000
,  // measure 16
0002
0000
0013
0000
0100
1000
0010
0000
,  // measure 17
0100
0001
0000
1000
0000
0100
0000
0000
,  // measure 18
0010
0001
0100
0000
0020
0000
1030
0000
,  // measure 19
0001
1000
0000
0100
0000
0100
0000
0000
,  // measure 20
0010
0100
0010
0100
0010
0001
0010
0001
,  // measure 21
0010
0000
0100
0000
1000
0001
1000
0000
,  // measure 22
0010
1000
0010
1000
0010
0100
0010
0100
,  // measure 23
0000
0001
1000
0100
,  // measure 24
1000
0001
1000
0001
0100
0001
0100
0001
,  // measure 25
0000
1000
0001
1000
,  // measure 26
0100
1000
0100
1000
0001
1000
0001
0000
,  // measure 27
0000
0010
0001
0100
,  // measure 28
0010
1000
0010
1000
0001
1000
0001
1000
,  // measure 29
0100
0000
0010
0000
0001
1000
0001
0000
,  // measure 30
0100
0001
0100
0001
1000
0010
1000
0010
,  // measure 31
0000
0100
0001
0010
,  // measure 32
0100
1000
0100
1000
0001
0010
0001
0010
,  // measure 33
0000
0100
0010
0100
,  // measure 34
1000
0001
1000
0010
1000
0001
0100
0000
,  // measure 35
0000
0010
1000
0100
,  // measure 36
1000
0100
1000
0000
0001
0000
0010
0000
,  // measure 37
0001
0100
1000
0000
0010
0000
0100
0000
,  // measure 38
0001
1000
0100
0000
0010
0100
1000
0000
,  // measure 39
0001
0010
0100
0000
0010
0100
1000
0000
,  // measure 40
0001
1000
0010
0000
0100
0000
0001
0000
,  // measure 41
1000
0010
0100
0000
0001
0000
1000
0000
,  // measure 42
0100
1000
0001
0000
0100
0001
1000
0000
,  // measure 43
0010
1000
0001
0000
0010
0001
1000
0000
,  // measure 44
0020
0000
0130
0000
0001
1000
0100
0000
,  // measure 45
1000
0010
0000
0100
0000
0100
0000
0000
,  // measure 46
0001
1000
0100
0000
0020
0000
0130
0000
,  // measure 47
0010
0001
0000
1000
0000
0001
0000
0000
,  // measure 48
2000
0000
3100
0000
0010
0001
1000
0000
,  // measure 49
0001
0100
0000
0010
0000
1000
0000
0000
,  // measure 50
0100
0010
0100
0000
2000
0000
3001
0000
,  // measure 51
0100
0010
0000
1000
0000
0001
0000
0000
,  // measure 52
1001
0000
0000
0000
;

//---------------dance-single - ----------------
#NOTEDATA:;
#CHARTNAME:;
#STEPSTYPE:dance-single;
#DESCRIPTION:;
#CHARTSTYLE:;
#DIFFICULTY:Medium;
#METER:5;
#RADARVALUES:0.291908,0.288735,0.011105,0.266525,0.000000,184.000000,183.000000,1.000000,24.000000,0.000000,0.000000,0.000000,0.000000,0.000000,0.291908,0.288735,0.011105,0.266525,0.000000,184.000000,183.000000,1.000000,24.000000,0.000000,0.000000,0.000000,0.000000,0.000000;
#CREDIT:;
#NOTES:
0000
0000
0000
0000
,
0000
0000
0000
0000
,
0000
0000
0000
0000
,
0000
0000
0000
0000
,
2000
3200
2300
3002
,
2003
3020
0230
0302
,
0023
0230
0320
0032
,
2003
3200
0320
0032
,
0103
0010
0100
0010
,
0100
0010
0100
0010
,
1000
1000
0001
0001
,
0100
0100
0010
0010
,
1000
0100
0010
0001
,
2000
0000
0000
0100
0000
0100
3000
0000
,
0010
0100
1000
0001
,
0200
0000
0000
0010
0000
0010
0300
0000
,
1000
0010
0100
0001
,
0020
0000
0000
0100
0000
0100
0030
0000
,
1000
0001
0100
0001
,
2000
0000
0000
0001
0000
0000
3001
0000
,
0100
0010
1000
0100
,
0010
0000
0001
0000
1000
0001
1000
0000
,
0001
0100
0010
1000
,
0100
0010
0100
0000
,
1000
0001
0100
0010
,
1000
0000
0001
0000
0100
0010
0100
0000
,
0001
0010
0100
1000
,
0000
0001
1000
0100
,
1000
0001
0100
0001
,
0010
0100
0010
0001
,
1000
0100
0010
0100
,
1000
0001
0100
0010
,
1000
0100
0010
0100
,
1000
0001
0100
0010
,
1000
0001
1000
0010
,
0000
0000
0000
0000
,
0100
0001
0100
0000
0001
0000
1000
0000
,
0100
0010
0100
1000
,
0001
0010
0100
1000
,
0010
1000
0001
1000
,
0010
1000
0010
0000
0100
0000
0001
0000
,
0010
0100
0010
0001
,
1000
0100
0010
0100
,
1000
0001
0100
0010
,
1000
0100
0010
0001
,
2000
0000
0000
0001
0000
0001
3000
0000
,
0100
0010
1000
0001
,
0020
0000
0000
0100
0000
0100
0030
0000
,
0010
0001
1000
0001
,
0200
0000
0000
0010
0000
0010
0300
0000
,
1000
0100
0010
0100
,
0002
0000
0000
1000
0000
0000
1003
0000
,
1001
0000
0000
0000
;

//---------------dance-single - ----------------
#NOTEDATA:;
#CHARTNAME:;
#STEPSTYPE:dance-single;
#DESCRIPTION:;
#CHARTSTYLE:;
#DIFFICULTY:Easy;
#METER:3;
#RADARVALUES:0.179269,0.202114,0.000000,0.177683,0.000000,113.000000,113.000000,0.000000,16.000000,0.000000,0.000000,0.000000,0.000000,0.000000,0.179269,0.202114,0.000000,0.177683,0.000000,113.000000,113.000000,0.000000,16.000000,0.000000,0.000000,0.000000,0.000000,0.000000;
#CREDIT:;
#NOTES:
0000
0000
0000
0000
,
0000
0000
0000
0000
,
0000
0000
0000
0000
,
0000
0000
0000
0000
,
2000
0000
3200
0000
,
2300
0000
3002
0000
,
0023
0000
0230
0000
,
2300
0000
3002
0000
,
0103
0000
0010
0000
,
1000
0000
0001
0000
,
0100
0000
0010
0000
,
1000
0000
0001
0000
,
1000
0100
1000
0000
,
0001
0000
1000
0000
,
0001
0100
0001
0000
,
1000
0000
0001
0000
,
0010
0001
0010
0000
,
0100
0000
1000
0000
,
0010
1000
0010
0000
,
0100
0000
0001
0000
,
1000
0001
1000
0000
,
0100
0000
0010
0000
,
0100
0000
1000
0000
,
0001
1000
0100
0000
,
1000
0001
1000
0000
,
0010
0000
0100
0000
,
0001
0100
0001
0000
,
0010
0000
0100
0000
,
1000
0100
1000
0000
,
0001
0000
0100
0000
,
0010
0000
1000
0000
,
0001
1000
0100
0000
,
0010
0001
0010
0000
,
0100
0000
1000
0000
,
0001
1000
0001
0000
,
0100
0000
0010
0000
,
2000
0000
3100
0000
,
0002
0000
0013
0000
,
0200
0000
1300
0000
,
0020
0000
0130
0000
,
2000
0000
3001
0000
,
0020
0000
0031
0000
,
0200
0000
0310
0000
,
0002
0000
0103
0000
,
1000
0001
0100
0000
,
0010
0000
0010
0000
,
1000
0100
1000
0000
,
0001
0000
1000
0000
,
0001
0100
0001
0000
,
1000
0000
0001
0000
,
0010
0100
0010
0000
,
0100
0000
0100
0000
,
1000
0000
0000
0000
;

//---------------dance-single - ----------------
#NOTEDATA:;
#CHARTNAME:;
#STEPSTYPE:dance-single;
#DESCRIPTION:;
#CHARTSTYLE:;
#DIFFICULTY:Beginner;
#METER:1;
#RADARVALUES:0.101533,0.144367,0.000000,0.144367,0.000000,64.000000,64.000000,0.000000,13.000000,0.000000,0.000000,0.000000,0.000000,0.000000,0.101533,0.144367,0.000000,0.144367,0.000000,64.000000,64.000000,0.000000,13.000000,0.000000,0.000000,0.000000,0.000000,0.000000;
#CREDIT:;
#NOTES:
0000
0000
0000
0000
,
0000
0000
0000
0000
,
0000
0000
0000
0000
,
0000
0000
0000
0000
,
0020
0000
0030
0000
,
0200
0000
0300
0000
,
2000
0000
3000
0000
,
0002
0000
0003
0000
,
0200
0000
0300
0000
,
0000
0000
0000
0000
,
0010
0000
0010
0000
,
0100
0000
0100
0000
,
0002
0000
0003
0000
,
2000
0000
3000
0000
,
0002
0000
0003
0000
,
2000
0000
3000
0000
,
0020
0000
0030
0000
,
0200
0000
0300
0000
,
0020
0000
0030
0000
,
0200
0000
0300
0000
,
0001
0000
0001
0000
,
0010
0000
0010
0000
,
0100
0000
0100
0000
,
1000
0000
0000
0000
,
0010
0000
0010
0000
,
1000
0000
1000
0000
,
0001
0000
0001
0000
,
0100
0000
0000
0000
,
0001
0000
0000
0000
,
0010
0000
0000
0000
,
0100
0000
0100
0000
,
1000
0000
1000
0000
,
0010
0000
0000
0000
,
0100
0000
0000
0000
,
0001
0000
0001
0000
,
1000
0000
1000
0000
,
0100
0000
0000
0000
,
0010
0000
0000
0000
,
0001
0000
0000
0000
,
1000
0000
0000
0000
,
0010
0000
0000
0000
,
0100
0000
0000
0000
,
0001
0000
0000
0000
,
1000
0000
0000
0000
,
0100
0000
0100
0000
,
0010
0000
0000
0000
,
0001
0000
0001
0000
,
1000
0000
0000
0000
,
0010
0000
0010
0000
,
0100
0000
0000
0000
,
0001
0000
0001
0000
,
0010
0000
0000
0000
,
0100
0000
0000
0000
;
