#TITLE:The Frozen Dark;
#SUBTITLE:(Glacial Peak Future);
#ARTIST:Rainbowdragoneyes;
#TITLETRANSLIT:;
#SUBTITLETRANSLIT:;
#ARTISTTRANSLIT:;
#GENRE:The Messenger;
#CREDIT:[Ness];
#BANNER:The Messenger - The Frozen Dark (Glacial Peak Future).png;
#BACKGROUND:The Messenger - The Frozen Dark (Glacial Peak Future)-bg.png;
#LYRICSPATH:;
#CDTITLE:;
#MUSIC:The Messenger - The Frozen Dark (Glacial Peak Future).mp3;
#OFFSET:-0.055000;
#SAMPLESTART:32.010841;
#SAMPLELENGTH:12.799999;
#LASTBEATHINT:215.909760;
#SELECTABLE:YES;
#BPMS:0.000000=150.000000
;
#STOPS:
;
#BGCHANGES:;
#KEYSOUNDS:;
#ATTACKS:;

//---------------dance-single - ----------------
#NOTES:
     dance-single:
     :
     Challenge:
     9:
     0.610269,0.695994,0.156152,0.245382,0.306728,383.000000,369.000000,14.000000,22.000000,0.000000,0.000000,0.610269,0.695994,0.156152,0.245382,0.306728,383.000000,369.000000,14.000000,22.000000,0.000000,0.000000:
0000
0000
0000
0000
,
0000
0000
0000
0000
,
0000
0000
0000
0000
,
0000
0000
0000
0000
,
0002
0000
0203
0000
2300
0000
3010
0100
,
0020
2030
3002
0023
,
0230
0000
2300
0000
3001
1000
0100
0010
,
0002
0203
2300
3200
,
0310
0000
0000
0010
1000
0000
0000
1000
0001
0000
0000
0001
1000
0000
0000
1000
,
0100
0000
0000
0100
0001
0000
0000
0001
1000
0000
0000
1000
0001
0000
0000
0001
,
0100
0000
0000
0100
0010
0000
0000
0010
1000
0000
0000
1000
0100
0000
0000
0100
,
0010
0000
0000
0010
0001
0000
0000
0001
1000
0000
0000
1000
0001
0000
0000
0001
,
0100
0010
1000
0100
0010
1000
0100
0001
,
1000
0100
0000
0110
0000
1000
0001
0010
,
0001
1000
0001
0100
0010
0100
1000
0001
,
0100
1000
0000
0110
0000
1001
0001
0010
,
1000
0100
0010
0100
1000
0001
0100
0010
,
1000
0100
0000
0110
0000
0001
1000
0100
,
1000
0001
0010
1000
0001
0100
0010
1000
,
0100
0010
0000
0110
0000
1001
1000
0010
,
0001
0100
0002
0010
0013
0100
2000
0010
,
3001
0100
0010
0000
1000
0001
1000
0000
,
0100
1000
0002
1000
0103
0010
0200
0001
,
0300
1000
0010
0001
0010
1000
0100
0010
,
0010
0001
2000
0010
3010
0100
0002
1000
,
0003
0100
1000
0000
0001
1000
0100
0000
,
0010
0001
0200
0001
0310
1000
0020
0000
,
0030
0000
0200
0000
0000
0000
0301
0000
1000
0001
1000
0001
1000
0100
1000
0000
,
0010
1000
0100
1000
0001
0010
0001
0100
,
0010
0100
0010
1000
1000
0001
0100
0100
,
0010
1000
0100
1000
0001
0100
1000
0100
,
0010
0010
1000
0100
1000
0001
0100
0010
,
1000
0001
1000
0010
0001
0010
0100
0001
,
0001
1000
0100
0010
0001
1000
0100
0010
,
0100
1000
0001
1000
0010
0001
0010
0000
,
0100
0000
0000
0000
0001
0010
0001
0000
1000
0100
1000
0000
0110
0000
0000
0000
,
1000
0000
0100
1000
0100
0000
0000
0010
0001
0000
0100
0001
0100
0000
0000
0001
,
1000
0000
0010
1000
0010
0000
0000
0000
0100
0010
0100
0010
0001
1000
0001
1000
,
0100
0000
1000
0001
1000
0000
0000
0010
0100
0000
0001
0010
0001
0000
0000
0001
,
0100
0000
0001
1000
0100
0000
0000
1000
0001
0000
0010
0001
1000
0000
0000
0010
,
1000
0000
0100
1000
0010
0000
0000
0100
0001
0000
0010
0001
0100
0000
0000
0001
,
0010
0000
0100
0010
0001
0000
0000
0100
0010
1000
0010
1000
0001
0100
0001
0100
,
0010
0000
1000
0100
0010
0000
0000
0001
0100
0000
0010
1000
0100
0000
0000
0010
,
0001
0000
0010
0100
1000
0000
0000
0010
0100
0000
0001
0100
0010
0000
0000
0000
,
0011
0001
1000
0001
0100
1000
0100
0010
,
1000
0100
0000
0110
0000
1000
0001
1000
,
0010
0001
0010
0100
0001
1000
0100
0010
,
0001
0100
0000
0110
0000
1001
0001
0010
,
1000
0100
0010
0100
1000
0001
0100
0010
,
1000
0100
0000
0110
0000
1000
0001
1000
,
0001
0100
0010
1000
0100
0010
0001
1000
,
0010
0001
0000
0110
0000
1001
1000
0100
,
0001
0000
0000
0000
;

//---------------dance-single - ----------------
#NOTES:
     dance-single:
     :
     Hard:
     7:
     0.441370,0.434996,0.278844,0.234229,0.000000,277.000000,252.000000,25.000000,21.000000,0.000000,0.000000,0.441370,0.434996,0.278844,0.234229,0.000000,277.000000,252.000000,25.000000,21.000000,0.000000,0.000000:
// measure 0
0000
0000
0000
0000
,  // measure 1
0000
0000
0000
0000
,  // measure 2
0000
0000
0000
0000
,  // measure 3
0000
0000
0000
0000
,  // measure 4
1002
0000
0023
0000
0032
0000
1003
0100
,  // measure 5
0200
2300
3020
0230
,  // measure 6
0302
0000
2003
0000
3100
0010
0001
0100
,  // measure 7
0002
2003
3020
0230
,  // measure 8
0301
0001
0100
0100
,  // measure 9
1000
1000
0010
0010
,  // measure 10
0100
0001
0010
1000
,  // measure 11
0010
0001
0100
0010
,  // measure 12
2000
0000
3001
0000
0100
0001
0010
0000
,  // measure 13
0001
1000
0000
1010
0000
0110
0000
0000
,  // measure 14
0001
0100
0010
0000
2000
0000
3100
0000
,  // measure 15
0010
0001
0000
1001
0000
0101
0000
0000
,  // measure 16
2000
0000
3100
0000
0010
0001
0100
0000
,  // measure 17
0010
1000
0000
1100
0000
0011
0000
0000
,  // measure 18
0100
1000
0010
0000
0200
0000
0301
0000
,  // measure 19
1000
0001
0000
0011
0000
1010
0000
0000
,  // measure 20
0100
0010
0100
0001
0100
1000
0100
0010
,  // measure 21
0100
0000
0010
0000
0001
1000
0010
0000
,  // measure 22
0100
0001
0100
1000
0100
0010
0100
0001
,  // measure 23
0000
0000
1000
0010
0001
0000
0110
0000
,  // measure 24
0001
0100
0001
1000
0001
0010
0100
1000
,  // measure 25
0000
0000
0001
0000
1000
0100
0001
0000
,  // measure 26
0010
0001
0010
0100
0001
0100
1000
0000
,  // measure 27
0000
0001
0000
0000
1010
0000
1001
0000
,  // measure 28
0100
0001
0100
1000
0100
0001
0100
1000
,  // measure 29
0100
0000
0010
0000
1000
0100
0001
0000
,  // measure 30
0010
1000
0010
0001
0010
1000
0010
0001
,  // measure 31
0010
0000
0100
0000
1000
0001
0100
0000
,  // measure 32
0010
0001
0010
1000
0010
0001
0010
1000
,  // measure 33
0100
0000
0010
0000
0001
1000
0010
0000
,  // measure 34
0001
1000
0001
0100
0001
1000
0010
0000
,  // measure 35
0000
0100
0001
0010
,  // measure 36
0001
0010
0001
0000
1000
0000
0100
1000
,  // measure 37
0001
0100
0010
0000
0101
0000
1010
0000
,  // measure 38
1000
0001
0010
0000
0100
0010
0001
1000
,  // measure 39
0100
0010
0100
0000
1000
0010
0001
0000
,  // measure 40
1000
0001
0100
0000
0010
0000
1000
0001
,  // measure 41
0100
0010
1000
0000
0011
0000
1100
0000
,  // measure 42
0010
0001
1000
0000
0010
1000
0001
0100
,  // measure 43
0010
0100
0001
0000
1000
0010
0001
0000
,  // measure 44
0200
0000
0310
0000
1000
0001
0010
0000
,  // measure 45
0001
0100
0000
1100
0000
0101
0000
0000
,  // measure 46
1000
0001
0010
0000
0200
0000
0310
0000
,  // measure 47
0100
1000
0000
0101
0000
1100
0000
0000
,  // measure 48
0002
0000
0013
0000
0100
1000
0001
0000
,  // measure 49
1000
0010
0000
0110
0000
1001
0000
0000
,  // measure 50
0010
0100
0010
0000
0002
0000
1003
0000
,  // measure 51
0010
0100
0000
0011
0000
1010
0000
0000
,  // measure 52
1001
0000
0000
0000
;

//---------------dance-single - ----------------
#NOTES:
     dance-single:
     :
     Medium:
     5:
     0.293184,0.289997,0.011154,0.267690,0.000000,184.000000,183.000000,1.000000,24.000000,0.000000,0.000000,0.293184,0.289997,0.011154,0.267690,0.000000,184.000000,183.000000,1.000000,24.000000,0.000000,0.000000:
// measure 0
0000
0000
0000
0000
,  // measure 1
0000
0000
0000
0000
,  // measure 2
0000
0000
0000
0000
,  // measure 3
0000
0000
0000
0000
,  // measure 4
0002
0023
0032
2003
,  // measure 5
3002
0203
0320
2030
,  // measure 6
3200
0320
0230
2300
,  // measure 7
3002
0023
0230
2300
,  // measure 8
3010
0100
0010
0100
,  // measure 9
0010
0100
0010
0100
,  // measure 10
0001
0001
1000
1000
,  // measure 11
0010
0010
0100
0100
,  // measure 12
0001
0010
0100
1000
,  // measure 13
0002
0000
0000
0010
0000
0010
0003
0000
,  // measure 14
0100
0010
0001
1000
,  // measure 15
0020
0000
0000
0100
0000
0100
0030
0000
,  // measure 16
0001
0100
0010
1000
,  // measure 17
0200
0000
0000
0010
0000
0010
0300
0000
,  // measure 18
0001
1000
0010
1000
,  // measure 19
0002
0000
0000
1000
0000
0000
1003
0000
,  // measure 20
0010
0100
0001
0010
,  // measure 21
0100
0000
1000
0000
0001
1000
0001
0000
,  // measure 22
1000
0010
0100
0001
,  // measure 23
0010
0100
0010
0000
,  // measure 24
0001
1000
0010
0100
,  // measure 25
0001
0000
1000
0000
0010
0100
0010
0000
,  // measure 26
1000
0100
0010
0001
,  // measure 27
0000
1000
0001
0010
,  // measure 28
0001
1000
0010
1000
,  // measure 29
0100
0010
0100
1000
,  // measure 30
0001
0010
0100
0010
,  // measure 31
0001
1000
0010
0100
,  // measure 32
0001
0010
0100
0010
,  // measure 33
0001
1000
0010
0100
,  // measure 34
0001
1000
0001
0100
,  // measure 35
0000
0000
0000
0000
,  // measure 36
0010
1000
0010
0000
1000
0000
0001
0000
,  // measure 37
0010
0100
0010
0001
,  // measure 38
1000
0100
0010
0001
,  // measure 39
0100
0001
1000
0001
,  // measure 40
0100
0001
0100
0000
0010
0000
1000
0000
,  // measure 41
0100
0010
0100
1000
,  // measure 42
0001
0010
0100
0010
,  // measure 43
0001
1000
0010
0100
,  // measure 44
0001
0010
0100
1000
,  // measure 45
0002
0000
0000
1000
0000
1000
0003
0000
,  // measure 46
0010
0100
0001
1000
,  // measure 47
0200
0000
0000
0010
0000
0010
0300
0000
,  // measure 48
0100
1000
0001
1000
,  // measure 49
0020
0000
0000
0100
0000
0100
0030
0000
,  // measure 50
0001
0010
0100
0010
,  // measure 51
2000
0000
0000
0001
0000
0000
3001
0000
,  // measure 52
1001
0000
0000
0000
;

//---------------dance-single - ----------------
#NOTES:
     dance-single:
     :
     Easy:
     3:
     0.180053,0.202998,0.000000,0.178460,0.000000,113.000000,113.000000,0.000000,16.000000,0.000000,0.000000,0.180053,0.202998,0.000000,0.178460,0.000000,113.000000,113.000000,0.000000,16.000000,0.000000,0.000000:
// measure 0
0000
0000
0000
0000
,  // measure 1
0000
0000
0000
0000
,  // measure 2
0000
0000
0000
0000
,  // measure 3
0000
0000
0000
0000
,  // measure 4
0002
0000
0023
0000
,  // measure 5
0032
0000
2003
0000
,  // measure 6
3200
0000
0320
0000
,  // measure 7
0032
0000
2003
0000
,  // measure 8
3010
0000
0100
0000
,  // measure 9
0001
0000
1000
0000
,  // measure 10
0010
0000
0100
0000
,  // measure 11
0001
0000
1000
0000
,  // measure 12
0001
0010
0001
0000
,  // measure 13
1000
0000
0001
0000
,  // measure 14
1000
0010
1000
0000
,  // measure 15
0001
0000
1000
0000
,  // measure 16
0100
1000
0100
0000
,  // measure 17
0010
0000
0001
0000
,  // measure 18
0100
0001
0100
0000
,  // measure 19
0010
0000
1000
0000
,  // measure 20
0001
1000
0001
0000
,  // measure 21
0010
0000
0100
0000
,  // measure 22
0010
0000
0001
0000
,  // measure 23
1000
0001
0010
0000
,  // measure 24
0001
1000
0001
0000
,  // measure 25
0100
0000
0010
0000
,  // measure 26
1000
0010
1000
0000
,  // measure 27
0100
0000
0010
0000
,  // measure 28
0001
0010
0001
0000
,  // measure 29
1000
0000
0010
0000
,  // measure 30
0100
0000
0001
0000
,  // measure 31
1000
0001
0010
0000
,  // measure 32
0100
1000
0100
0000
,  // measure 33
0010
0000
0001
0000
,  // measure 34
1000
0001
1000
0000
,  // measure 35
0010
0000
0100
0000
,  // measure 36
0002
0000
0013
0000
,  // measure 37
2000
0000
3100
0000
,  // measure 38
0020
0000
0031
0000
,  // measure 39
0200
0000
0310
0000
,  // measure 40
0002
0000
1003
0000
,  // measure 41
0200
0000
1300
0000
,  // measure 42
0020
0000
0130
0000
,  // measure 43
2000
0000
3010
0000
,  // measure 44
0001
1000
0010
0000
,  // measure 45
0100
0000
0100
0000
,  // measure 46
0001
0010
0001
0000
,  // measure 47
1000
0000
0001
0000
,  // measure 48
1000
0010
1000
0000
,  // measure 49
0001
0000
1000
0000
,  // measure 50
0100
0010
0100
0000
,  // measure 51
0010
0000
0010
0000
,  // measure 52
0001
0000
0000
0000
;

//---------------dance-single - ----------------
#NOTES:
     dance-single:
     :
     Beginner:
     1:
     0.101977,0.144999,0.000000,0.144999,0.000000,64.000000,64.000000,0.000000,13.000000,0.000000,0.000000,0.101977,0.144999,0.000000,0.144999,0.000000,64.000000,64.000000,0.000000,13.000000,0.000000,0.000000:
// measure 0
0000
0000
0000
0000
,  // measure 1
0000
0000
0000
0000
,  // measure 2
0000
0000
0000
0000
,  // measure 3
0000
0000
0000
0000
,  // measure 4
0200
0000
0300
0000
,  // measure 5
0020
0000
0030
0000
,  // measure 6
0002
0000
0003
0000
,  // measure 7
2000
0000
3000
0000
,  // measure 8
0020
0000
0030
0000
,  // measure 9
0000
0000
0000
0000
,  // measure 10
0100
0000
0100
0000
,  // measure 11
0010
0000
0010
0000
,  // measure 12
2000
0000
3000
0000
,  // measure 13
0002
0000
0003
0000
,  // measure 14
2000
0000
3000
0000
,  // measure 15
0002
0000
0003
0000
,  // measure 16
0200
0000
0300
0000
,  // measure 17
0020
0000
0030
0000
,  // measure 18
0200
0000
0300
0000
,  // measure 19
0020
0000
0030
0000
,  // measure 20
1000
0000
1000
0000
,  // measure 21
0100
0000
0100
0000
,  // measure 22
0010
0000
0010
0000
,  // measure 23
0001
0000
0000
0000
,  // measure 24
0100
0000
0100
0000
,  // measure 25
0001
0000
0001
0000
,  // measure 26
1000
0000
1000
0000
,  // measure 27
0010
0000
0000
0000
,  // measure 28
1000
0000
0000
0000
,  // measure 29
0100
0000
0000
0000
,  // measure 30
0010
0000
0010
0000
,  // measure 31
0001
0000
0001
0000
,  // measure 32
0100
0000
0000
0000
,  // measure 33
0010
0000
0000
0000
,  // measure 34
1000
0000
1000
0000
,  // measure 35
0001
0000
0001
0000
,  // measure 36
0010
0000
0000
0000
,  // measure 37
0100
0000
0000
0000
,  // measure 38
1000
0000
0000
0000
,  // measure 39
0001
0000
0000
0000
,  // measure 40
0100
0000
0000
0000
,  // measure 41
0010
0000
0000
0000
,  // measure 42
1000
0000
0000
0000
,  // measure 43
0001
0000
0000
0000
,  // measure 44
0010
0000
0010
0000
,  // measure 45
0100
0000
0000
0000
,  // measure 46
1000
0000
1000
0000
,  // measure 47
0001
0000
0000
0000
,  // measure 48
0100
0000
0100
0000
,  // measure 49
0010
0000
0000
0000
,  // measure 50
1000
0000
1000
0000
,  // measure 51
0100
0000
0000
0000
,  // measure 52
0010
0000
0000
0000
;
