#VERSION:0.83;
#TITLE:The Demon's Lair;
#SUBTITLE:(Underworld Future);
#ARTIST:Rainbowdragoneyes;
#TITLETRANSLIT:;
#SUBTITLETRANSLIT:;
#ARTISTTRANSLIT:;
#GENRE:The Messenger;
#ORIGIN:;
#CREDIT:[Ness];
#BANNER:The Messenger - The Demon's Lair (Underworld Future).png;
#BACKGROUND:The Messenger - The Demon's Lair (Underworld Future)-bg.png;
#PREVIEWVID:;
#JACKET:The Messenger - The Demon's Lair (Underworld Future)-jacket.png;
#CDIMAGE:;
#DISCIMAGE:;
#LYRICSPATH:;
#CDTITLE:;
#MUSIC:The Messenger - The Demon's Lair (Underworld Future).mp3;
#OFFSET:-0.035000;
#SAMPLESTART:24.010841;
#SAMPLELENGTH:12.000000;
#SELECTABLE:YES;
#DISPLAYBPM:80.000000:160.000000;
#BPMS:0.000=160.000,
112.000=640.000,
113.000=160.000,
160.000=80.000,
176.000=160.000;
#STOPS:112.000=0.094,
112.333=0.094,
112.667=0.094;
#DELAYS:;
#WARPS:;
#TIMESIGNATURES:0.000=4=4;
#TICKCOUNTS:0.000=2;
#COMBOS:0.000=1;
#SPEEDS:0.000=1.000=0.000=0;
#SCROLLS:0.000=1.000;
#FAKES:;
#LABELS:0.000=Song Start;
#LASTSECONDHINT:75.050842;
#BGCHANGES:;
#KEYSOUNDS:;
#ATTACKS:
;

//---------------dance-single - ----------------
#NOTEDATA:;
#CHARTNAME:;
#STEPSTYPE:dance-single;
#DESCRIPTION:;
#CHARTSTYLE:;
#DIFFICULTY:Challenge;
#METER:11;
#RADARVALUES:0.746707,1.381042,0.269034,0.012811,1.473282,408.000000,387.000000,21.000000,1.000000,74.000000,0.000000,0.000000,0.000000,0.000000,0.746707,1.381042,0.269034,0.012811,1.473282,408.000000,387.000000,21.000000,1.000000,74.000000,0.000000,0.000000,0.000000,0.000000;
#CREDIT:;
#DISPLAYBPM:80.000000:160.000000;
#NOTES:
0000
0000
0000
0000
,
0000
0000
0000
0000
,
0000
0000
0000
0000
,
0000
0000
0000
0000
,
0000
0000
0000
0000
,
0000
0000
0000
0000
,
0000
0000
0000
0000
,
0000
0000
0000
0000
,
0100
0000
0001
0000
1000
0000
0010
0000
0100
000M
1000
0000
0100
0000
0010
0000
1000
0000
0100
0000
0010
M000
0001
0000
,
0100
0000
1000
0000
0100
0000
001M
0000
1000
0M00
0010
0000
0001
0000
1000
0000
0100
0000
M001
0000
0010
0000
0100
0000
,
100M
0000
0100
0000
0010
0000
0M01
0000
1000
0000
0010
0000
M100
0000
0001
0000
1000
0000
0100
0000
0010
M000
0001
0000
,
0100
0000
0001
0000
1000
0000
0100
0000
0010
M000
0001
0000
0100
0000
1000
00M0
0001
0000
0010
0000
1000
0000
0100
0000
,
0010
0000
0001
0M00
1000
0000
0010
0000
0100
000M
0010
0000
0100
0000
0001
00M0
1000
0000
0100
0000
0010
0000
0001
0000
,
0100
0000
1000
00M0
0100
0000
0001
0000
1000
0000
0001
0000
0M10
0000
0001
0000
0010
0000
010M
0000
1000
0000
0100
0000
,
0010
0001
1000
0M10
0000
0001
0M10
0000
1000
0M10
0000
0000
,
01M0
0001
1000
01M0
0100
0010
0M01
0001
1000
001M
0010
0100
,
0001
0000
0001
1M10
0000
1000
0100
0000
0100
M011
0000
1000
,
0010
0000
0010
0M01
1000
0100
0001
0000
0100
110M
0000
0010
,
0001
0000
0001
01M1
0000
1000
0010
0000
0010
M110
0000
0100
,
0001
0000
0000
1000
0000
0000
0100
0000
0000
0000
0000
0000
001M
0000
0000
0000
0000
0000
0000
0000
0100
0000
0000
0000
1000
0000
0000
0000
0100
0000
0000
0000
0010
0000
0000
0000
M001
0000
0000
0000
0000
0000
0000
0000
0001
0000
0000
0000
,
1000
0000
0100
10M1
0000
0010
0001
0000
0100
10M1
0000
0010
,
1000
0000
0110
M000
0001
0000
0010
0000
0100
00M1
0000
0010
,
1000
0000
0101
0000
1010
0000
0010
0000
1100
0000
0011
0000
,
0100
0000
0011
0000
1100
0000
1002
0000
0000
0103
0000
0000
,
100M
100M
100M
100M
0000
0100
0001
0000
0010
1000
0000
0100
,
0001
0M10
0001
0M10
1000
001M
1000
010M
1000
01M0
0001
01M0
,
0001
0000
1000
0001
1100
0000
0010
0000
1000
0001
1010
0000
,
0100
0000
0010
1000
0011
0000
1000
0000
0001
0010
0101
0000
,
M001
M001
M001
M001
0000
1000
0010
0000
0001
0100
0000
0010
,
1000
0100
1000
0M10
0000
0001
0010
0000
1000
010M
0010
0001
,
0100
0000
0001
1M00
0000
0100
0001
0000
1000
00M1
0000
0100
,
1000
0000
0001
1M00
0000
0100
0001
0100
0101
M000
0010
1000
,
1100
0000
0100
001M
0000
0010
1000
0000
1000
0M01
0000
0001
,
0010
0000
0010
M100
0000
0100
0001
0000
0001
0M10
0000
0010
,
1000
0000
1000
00M1
0000
0001
0100
0000
0100
100M
0000
1000
,
0010
0000
0010
0M01
0000
0001
1000
0000
1000
01M0
0000
0100
,
0001
0000
0001
M010
0000
0010
0100
0000
0100
100M
0000
1000
,
0010
0000
0010
0M01
0000
0001
0100
0000
0100
M010
0000
0010
,
1000
0000
1000
010M
0000
0100
0010
0000
0010
M001
0000
0001
,
1M00
0000
1000
00M1
0000
0001
1M00
0000
1000
00M1
0000
0001
,
0010
0001
0100
1000
0100
0010
1000
0100
0010
0001
0100
1000
0001
0010
1000
0100
0010
0100
0001
0100
1000
0001
0010
1000
,
0001
0100
0010
0001
1000
0001
0100
0001
0010
0100
0001
0100
1000
0100
0010
1000
0010
0001
0100
1000
0001
0010
1000
0100
,
0010
1000
0100
0001
0100
1000
0010
0100
0001
0010
0001
1000
0010
0100
1000
0100
0001
1000
0001
0010
0001
1000
0001
0100
,
0010
1000
0100
1000
0001
1000
0010
0100
1000
0100
0010
0100
0001
0010
0100
0010
0001
0010
1000
0010
0100
0010
0001
1000
,
0001
0000
0000
0000
;

//---------------dance-single - ----------------
#NOTEDATA:;
#CHARTNAME:;
#STEPSTYPE:dance-single;
#DESCRIPTION:;
#CHARTSTYLE:;
#DIFFICULTY:Hard;
#METER:9;
#RADARVALUES:0.561861,0.789167,0.204978,0.038433,0.915997,307.000000,291.000000,16.000000,3.000000,26.000000,0.000000,0.000000,0.000000,0.000000,0.561861,0.789167,0.204978,0.038433,0.915997,307.000000,291.000000,16.000000,3.000000,26.000000,0.000000,0.000000,0.000000,0.000000;
#CREDIT:;
#DISPLAYBPM:80.000000:160.000000;
#NOTES:
0000
0000
0000
0000
,
0000
0000
0000
0000
,
0000
0000
0000
0000
,
0000
0000
0000
0000
,
0000
0000
0000
0000
,
0000
0000
0000
0000
,
0000
0000
0000
0000
,
0000
0000
0000
0000
,
0001
0000
1000
0010
0000
0100
0001
0000
1000
0100
0000
0010
,
0001
0000
0100
0010
0000
1000
0100
0000
1000
0001
0000
0100
,
0010
0000
1000
0010
0000
0001
0100
0000
1000
0100
0000
0010
,
0001
0000
1000
0100
0000
0010
0001
0000
0010
1000
0000
0001
,
0010
0000
0100
0001
0000
0001
0010
0000
0100
1000
0000
1000
,
0001
0000
0100
0010
0000
0010
1000
0000
0100
0010
0000
0010
,
0001
0000
1000
0100
0000
0100
1000
0000
0001
0100
0000
0100
,
0001
1000
0001
1000
0100
1000
0001
1000
0001
0100
0000
0000
,
0010
0000
0010
100M
0000
1000
0100
0000
0100
M001
0000
0001
,
0010
0000
0010
1000
0100
0001
0100
0000
0000
0110
0000
0001
,
0010
0000
0010
100M
0000
1000
0100
0000
0100
M001
0000
0001
,
0010
0000
0000
0100
0000
0000
0010
0000
0000
0000
0000
0000
0100
0000
0000
0000
0000
0000
0000
0000
0000
0000
0000
0000
1000
0000
0000
0000
0001
0000
0000
0000
1000
0000
0000
0000
0100
0000
0000
0000
0000
0000
0000
0000
0000
0000
0000
0000
,
1000
0000
1000
01M0
0000
0100
0001
0000
0001
0M10
0000
0010
,
1000
0000
0100
M000
0001
0000
0010
0000
0000
110M
0000
0000
,
1000
0000
1001
00M0
0100
0000
1001
0000
0010
M000
0100
0000
,
0001
0000
1001
0M00
0010
0000
1001
0000
0000
01M0
0000
0000
,
0102
0000
0000
1003
0000
1000
0100
0000
0100
0010
0000
0000
,
0011
0000
0001
0000
0100
0000
10M0
0000
0100
0000
0001
0000
,
0010
0000
0001
0000
0100
0000
10M0
0000
0100
0000
0001
0000
,
0100
0000
0110
0000
1000
0000
0M01
0000
1001
0000
0100
0000
,
0120
0000
0000
0130
0000
0001
1000
0000
0100
1000
0000
0001
,
0010
0100
1000
0010
0000
0100
0001
0000
1000
0100
0000
0010
,
0001
0000
0001
0010
0000
0100
1000
0000
1000
0001
0000
1000
,
0010
0000
0100
0010
0000
1000
0001
1000
0001
0000
1000
0100
,
0010
0000
0010
0100
0000
0100
100M
0000
1000
0010
0000
0010
,
0001
0000
0001
0100
0000
0100
M010
0000
0010
1000
0000
1000
,
0001
0000
0001
1000
0000
1000
0M10
0000
0010
0100
0000
0100
,
0001
0000
0001
1000
0000
1000
00M1
0000
0001
0010
0000
0010
,
0100
0000
0100
1000
0000
1000
0M01
0000
0001
0010
0000
0010
,
0100
0000
0100
1000
0000
1000
001M
0000
0010
0100
0000
0100
,
0001
0000
0001
0010
0000
0010
M100
0000
0100
1000
0000
1000
,
00M1
0000
0001
1M00
0000
1000
00M1
0000
0001
1M00
0000
1000
,
0020
0000
0000
0100
0000
0000
0130
0000
0001
0000
1000
0000
0001
0000
0010
0100
0010
0000
0100
0000
1000
0001
1000
0000
,
0010
0000
0000
0100
0000
0000
1001
0000
0000
1000
0000
0000
0100
0000
1000
0010
1000
0000
0001
0000
0010
0001
0010
0000
,
0100
0000
0000
1000
0000
0000
1001
0000
0000
0100
0000
0000
0001
0000
1000
0010
0100
0000
0010
0000
0100
0001
1000
0000
,
0100
0000
0000
0010
0000
0000
1001
0000
0000
1000
0000
0000
0110
0000
0001
0000
1000
0000
0001
0000
0100
0000
0100
0000
,
1001
0000
0000
0000
;

//---------------dance-single - ----------------
#NOTEDATA:;
#CHARTNAME:;
#STEPSTYPE:dance-single;
#DESCRIPTION:;
#CHARTSTYLE:;
#DIFFICULTY:Medium;
#METER:7;
#RADARVALUES:0.362373,0.422768,0.064056,0.064056,0.320279,198.000000,193.000000,5.000000,5.000000,16.000000,0.000000,0.000000,0.000000,0.000000,0.362373,0.422768,0.064056,0.064056,0.320279,198.000000,193.000000,5.000000,5.000000,16.000000,0.000000,0.000000,0.000000,0.000000;
#CREDIT:;
#DISPLAYBPM:80.000000:160.000000;
#NOTES:
0000
0000
0000
0000
,
0000
0000
0000
0000
,
0000
0000
0000
0000
,
0000
0000
0000
0000
,
0000
0000
0000
0000
,
0000
0000
0000
0000
,
0000
0000
0000
0000
,
0000
0000
0000
0000
,
1000
0000
0001
0100
0000
0001
0010
0000
0000
0100
0000
0000
,
1000
0000
0001
0100
0000
0001
1000
0000
0000
0001
0000
0000
,
0010
0000
0100
1000
0000
0100
0010
0000
0000
0001
0000
0000
,
0100
0000
0001
1000
0000
0001
0010
0000
0000
0100
0000
0000
,
1000
0000
0010
0100
0000
0000
0001
0000
0100
0010
0000
0000
,
0100
0000
0001
1000
0000
0000
0100
0000
1000
0010
0000
0000
,
0100
0000
0001
0010
0000
0000
0001
0000
1000
0010
0000
0000
,
0001
0000
0100
0010
0000
1000
0100
0000
1000
0001
0000
0000
,
0110
0001
0010
0001
,
0100
0000
0000
0010
1000
0010
1000
0000
0000
1001
0000
0001
,
0010
0100
1000
0001
,
0200
0000
0000
0310
0000
0000
1000
0100
1000
0100
0000
0000
,
0010
0100
1000
0001
,
0010
0000
0001
0000
1000
0000
0100
0000
0000
0010
0000
0000
,
0100
0000
1000
0000
0001
0000
0100
0000
0010
0000
1000
0000
,
0100
0000
0001
0000
0010
0000
0100
0000
0000
1000
0000
0000
,
1002
1003
0010
0100
,
0001
0000
0001
0000
0001
0000
1000
0000
1000
0000
1000
0000
,
0100
0000
0010
0000
0100
0000
0010
0000
0001
0000
0010
0000
,
0100
0000
1000
0000
0100
0000
1000
0000
0001
0000
1000
0000
,
0020
0130
0001
0100
,
0010
1000
0100
0010
,
0001
1000
0001
0100
,
0010
0100
0001
1000
,
1100
000M
1000
0000
0001
00M0
0100
0000
,
0001
0000
0000
M000
0010
0000
0001
0000
0000
0000
0000
0000
0010
0000
0000
000M
0100
0000
0010
0000
0000
0000
0000
0000
,
0100
00M0
1000
0000
0001
M000
0100
0000
,
0010
0000
0000
000M
1000
0000
0010
0000
0000
0000
0000
0000
1000
0000
0000
0M00
0001
0000
1000
0000
0000
0000
0000
0000
,
0001
M000
0010
0000
0100
000M
1000
0000
,
0001
0000
0000
M000
0100
0000
0010
0000
0000
0000
0000
0000
1000
0000
0000
000M
0010
0000
0100
0000
0000
0000
0000
0000
,
0001
0M00
0010
0000
0100
00M0
1000
0000
,
0001
0000
0000
M000
0100
0000
0010
0000
0000
0000
0000
0000
0100
0000
0000
000M
0010
0000
1000
0000
0000
0000
0000
0000
,
0200
0000
0310
0000
0001
1000
0100
0000
,
1000
0010
0100
0001
0010
0100
1000
0000
,
0002
0000
1003
0000
0001
0100
0010
0000
,
1000
0100
0001
0100
0010
0001
0100
0000
,
1001
0000
0000
0000
;

//---------------dance-single - ----------------
#NOTEDATA:;
#CHARTNAME:;
#STEPSTYPE:dance-single;
#DESCRIPTION:;
#CHARTSTYLE:;
#DIFFICULTY:Easy;
#METER:5;
#RADARVALUES:0.312958,0.394583,0.307468,0.115300,0.000000,171.000000,147.000000,24.000000,9.000000,4.000000,0.000000,0.000000,0.000000,0.000000,0.312958,0.394583,0.307468,0.115300,0.000000,171.000000,147.000000,24.000000,9.000000,4.000000,0.000000,0.000000,0.000000,0.000000;
#CREDIT:;
#DISPLAYBPM:80.000000:160.000000;
#NOTES:
// measure 0
0000
0000
0000
0000
,  // measure 1
0000
0000
0000
0000
,  // measure 2
0000
0000
0000
0000
,  // measure 3
0000
0000
0000
0000
,  // measure 4
0000
0000
0000
0000
,  // measure 5
0000
0000
0000
0000
,  // measure 6
0000
0000
0000
0000
,  // measure 7
0000
0000
0000
0000
,  // measure 8
0001
1000
0001
0100
,  // measure 9
0001
1000
0100
0001
,  // measure 10
0010
0100
1000
0001
,  // measure 11
0100
0010
1000
0100
,  // measure 12
0001
0010
0001
1000
,  // measure 13
0100
0001
0100
1000
,  // measure 14
0001
0010
0100
1000
,  // measure 15
0010
0001
0100
1000
,  // measure 16
0001
0101
1000
1100
,  // measure 17
0001
1000
0100
1001
,  // measure 18
0010
0001
0100
1000
,  // measure 19
0202
0303
2020
3030
,  // measure 20
0001
1000
0220
0330
,  // measure 21
1000
0100
0001
0010
,  // measure 22
0100
1100
0010
0011
,  // measure 23
0001
1001
0010
0110
,  // measure 24
0200
0301
0100
0001
,  // measure 25
1000
1000
0001
0001
,  // measure 26
1000
1010
0100
0101
,  // measure 27
0010
0011
0001
1100
,  // measure 28
2000
3000
0100
0001
,  // measure 29
0110
1010
0100
0100
,  // measure 30
0101
1001
0010
0100
,  // measure 31
1100
0100
0101
0100
,  // measure 32
0110
0010
0001
0100
,  // measure 33
10M0
0001
0100
0010
,  // measure 34
1000
1001
0100
0001
,  // measure 35
M010
0100
0010
0001
,  // measure 36
0100
0110
0010
0100
,  // measure 37
100M
0010
0100
0001
,  // measure 38
0010
0110
0100
0010
,  // measure 39
1M00
0100
0010
0001
,  // measure 40
2000
0000
3100
0000
0001
1000
0100
0000
,  // measure 41
0010
0000
0001
0000
0100
0001
1000
0000
,  // measure 42
0100
0100
0010
0000
0001
0100
0001
0000
,  // measure 43
0100
0010
1000
0000
0001
1000
0100
0000
,  // measure 44
1000
0000
0000
0000
;

//---------------dance-single - ----------------
#NOTEDATA:;
#CHARTNAME:;
#STEPSTYPE:dance-single;
#DESCRIPTION:;
#CHARTSTYLE:;
#DIFFICULTY:Beginner;
#METER:2;
#RADARVALUES:0.157394,0.253661,0.038433,0.000000,0.000000,86.000000,83.000000,3.000000,0.000000,0.000000,0.000000,0.000000,0.000000,0.000000,0.157394,0.253661,0.038433,0.000000,0.000000,86.000000,83.000000,3.000000,0.000000,0.000000,0.000000,0.000000,0.000000,0.000000;
#CREDIT:;
#DISPLAYBPM:80.000000:160.000000;
#NOTES:
// measure 0
0000
0000
0000
0000
,  // measure 1
0000
0000
0000
0000
,  // measure 2
0000
0000
0000
0000
,  // measure 3
0000
0000
0000
0000
,  // measure 4
0000
0000
0000
0000
,  // measure 5
0000
0000
0000
0000
,  // measure 6
0000
0000
0000
0000
,  // measure 7
0000
0000
0000
0000
,  // measure 8
0001
0000
0010
0000
,  // measure 9
1000
0000
0010
0000
,  // measure 10
0100
0000
0001
0000
,  // measure 11
0100
0000
1000
0000
,  // measure 12
0100
0000
0010
0000
,  // measure 13
0100
0000
0010
0000
,  // measure 14
1000
0000
0001
0000
,  // measure 15
0010
0000
0000
0000
,  // measure 16
0100
0100
0100
0100
,  // measure 17
0100
0000
1001
0000
,  // measure 18
0010
0010
0010
0010
,  // measure 19
0010
0000
1001
0000
,  // measure 20
0001
0001
0001
0000
,  // measure 21
1000
1000
1000
0000
,  // measure 22
0100
0000
0010
0000
,  // measure 23
0001
0000
1000
0000
,  // measure 24
0100
0100
0000
0010
,  // measure 25
0010
0010
0000
0001
,  // measure 26
0001
0000
1000
0000
,  // measure 27
0010
0000
0001
0000
,  // measure 28
0100
0000
0000
0001
,  // measure 29
0001
0000
0000
1000
,  // measure 30
1000
0000
0100
0000
,  // measure 31
0001
0000
0100
0000
,  // measure 32
1000
0000
0010
0000
,  // measure 33
0001
0000
0100
0000
,  // measure 34
1000
0000
0010
0000
,  // measure 35
0001
0000
0100
0000
,  // measure 36
0010
0000
0001
0000
,  // measure 37
1000
0000
0100
0000
,  // measure 38
0010
0000
1000
0000
,  // measure 39
0001
0000
0100
0000
,  // measure 40
1001
0000
0100
0000
,  // measure 41
0001
0001
0001
0000
,  // measure 42
1000
1000
1000
0000
,  // measure 43
0010
0010
0010
0000
,  // measure 44
0100
0000
0000
0000
;
