#TITLE:The Demon King;
#SUBTITLE:(Forlorn Temple Boss);
#ARTIST:Rainbowdragoneyes;
#TITLETRANSLIT:;
#SUBTITLETRANSLIT:;
#ARTISTTRANSLIT:;
#GENRE:The Messenger;
#CREDIT:[Ness];
#BANNER:The Messenger - The Demon King (Forlorn Temple Boss).png;
#BACKGROUND:The Messenger - The Demon King (Forlorn Temple Boss)-bg.png;
#LYRICSPATH:;
#CDTITLE:;
#MUSIC:The Messenger - The Demon King (Forlorn Temple Boss).mp3;
#OFFSET:-0.055000;
#SAMPLESTART:7.690842;
#SAMPLELENGTH:15.360001;
#LASTBEATHINT:254.833313;
#SELECTABLE:YES;
#BPMS:0.000000=249.999985
;
#STOPS:31.000000=0.120000,
95.500000=0.120000
;
#BGCHANGES:;
#KEYSOUNDS:;
#ATTACKS:;

//---------------dance-single - ----------------
#NOTES:
     dance-single:
     :
     Challenge:
     11:
     0.903844,0.994823,0.348131,1.362253,0.136225,418.000000,395.000000,23.000000,90.000000,0.000000,0.000000,0.903844,0.994823,0.348131,1.362253,0.136225,418.000000,395.000000,23.000000,90.000000,0.000000,0.000000:
0000
0000
0000
0000
,
0000
0000
0000
0000
,
0000
0000
0000
0000
,
0000
0000
0000
0000
,
0000
0000
0000
0000
,
0000
0000
0000
0000
,
0000
0000
0000
0000
,
0000
0000
0000
0000
0000
0000
0000
1000
,
0010
1000
0100
0010
0100
2000
3002
0203
,
0320
2030
3200
0320
0032
0203
0320
1030
,
0100
1000
0001
0100
0001
2000
3200
0320
,
0032
0203
0320
2030
3002
0023
0230
1300
,
0001
0100
0001
0010
0100
0020
0032
2003
,
3002
0203
0320
2030
3200
0320
0032
0103
,
0010
0000
0100
0000
0001
0000
1000
0000
0100
0000
0020
0000
0130
1000
0100
0000
,
2000
3020
0230
0302
0203
0320
2030
3010
,
1000
0001
1000
0000
0100
0000
0010
0000
0001
0000
0200
0000
0302
0000
0023
0000
,
0130
1000
0100
0000
1000
0010
1000
0000
0002
0000
0023
0000
0230
0000
1300
0000
,
0001
0100
0001
1000
0100
2000
3020
0230
,
0302
0023
2030
3020
0032
0203
0320
1030
,
0100
0010
0001
0100
1000
0002
0023
2030
,
3200
0320
0230
2300
3002
0203
0320
1030
,
0100
1000
0001
0010
1000
0020
0032
0203
,
0320
0000
2030
0000
3002
0000
0103
0010
0100
0000
0000
0000
0000
0000
0000
0000
,
0101
0001
1000
0001
0200
0320
2030
3200
,
0320
0032
2003
3002
0023
0230
1300
0010
,
1000
0001
0100
0010
0200
0302
0023
0230
,
2300
3002
2003
3020
0230
0302
0013
0000
,
0011
1010
0110
1001
,
1001
0000
0110
0000
0101
0000
1100
0100
,
0010
0000
0001
0000
1000
0000
0001
0000
0100
0000
0010
0000
1000
0010
1000
0000
,
0001
0100
0001
0000
1000
0001
1000
0001
1000
0000
0000
0000
0100
0000
0000
0000
,
0101
0000
0010
0000
1100
0000
1000
0100
,
0010
0001
0100
1000
0100
0000
0010
1000
,
1001
0000
1000
0001
0101
0000
0001
1000
,
0100
0010
0001
1000
0010
0000
0100
0000
,
1010
0000
1000
0000
0011
0000
0001
0100
,
1000
0001
0010
1000
0100
0000
0010
0001
,
1001
0000
1000
0010
0110
0000
1000
0100
,
0010
0001
0100
0010
1000
0000
0010
1000
,
0010
0100
0010
0001
0010
1000
0010
0100
,
0010
1000
0010
0001
0010
0100
0001
0100
,
0010
0100
1000
0100
0010
0100
0001
0100
,
1000
0000
0100
0000
0010
0100
0010
0000
1000
0000
0100
0000
0010
0000
0001
0000
,
0010
0000
1000
0000
0010
0000
0100
0010
0100
0000
1000
0000
0100
0000
0010
0000
,
0100
0010
0001
0010
1000
0010
0001
0100
,
0001
1000
0001
0010
0001
0100
0010
1000
,
0100
1000
0001
1000
0100
1000
0010
1000
,
0010
0100
0010
0001
0010
1000
0010
0100
,
1000
0100
0010
0100
0001
0100
0010
1000
,
0100
0000
0010
0000
0100
1000
0100
1000
0100
0000
0010
0000
0100
0000
1000
0000
,
0001
0010
0100
0010
0001
1000
0100
0000
,
1001
0000
0000
0000
0010
0000
0001
1000
0001
0000
0100
0000
0010
0000
1000
0000
,
0100
0010
0001
0100
0001
0000
1000
0000
,
0110
0000
0001
0100
0001
0000
1000
0010
,
0100
0001
0010
0100
1000
0000
0001
0010
,
0011
0000
0000
0000
1000
0000
0100
1000
0100
0000
0010
0000
0001
0000
0100
0000
,
0101
0000
0000
0000
1000
0000
0010
0000
1001
0000
0000
0000
0010
1000
0010
0000
,
0100
0000
0001
0000
0010
0000
0100
0000
0010
0001
0010
0000
0100
0000
1000
0000
,
0001
0000
0100
0000
0001
1000
0001
0000
0100
0000
0000
0000
1100
0000
0000
0000
;

//---------------dance-single - ----------------
#NOTES:
     dance-single:
     :
     Hard:
     10:
     0.665991,0.678289,0.136225,0.121089,0.000000,308.000000,299.000000,9.000000,8.000000,0.000000,0.000000,0.665991,0.678289,0.136225,0.121089,0.000000,308.000000,299.000000,9.000000,8.000000,0.000000,0.000000:
// measure 0
0000
0000
0000
0000
,  // measure 1
0000
0000
0000
0000
,  // measure 2
0000
0000
0000
0000
,  // measure 3
0000
0000
0000
0000
,  // measure 4
0000
0000
0000
0000
,  // measure 5
0000
0000
0000
0000
,  // measure 6
0000
0000
0000
0000
,  // measure 7
0000
0000
0000
0000
0000
0000
0000
0100
,  // measure 8
1000
0001
0000
0100
0000
0001
1000
0001
,  // measure 9
0010
0001
1000
0100
1000
0001
0000
0100
,  // measure 10
0010
1000
0000
0001
0000
1000
0100
0010
,  // measure 11
0001
0100
0010
1000
0001
1000
0000
0010
,  // measure 12
0100
0001
0000
0010
0000
0001
1000
0100
,  // measure 13
0010
0100
1000
0001
1000
0100
0000
0010
,  // measure 14
0001
0100
0000
0001
0000
1000
0100
0010
,  // measure 15
0100
1000
0001
1000
0100
1000
0000
0110
,  // measure 16
0000
0001
0000
1000
0000
0001
1000
0010
,  // measure 17
0100
0010
1000
0001
0100
0010
0000
0001
,  // measure 18
0000
1100
0000
0100
0000
0010
0001
1000
,  // measure 19
0001
0010
0100
1000
0010
1000
0000
0010
,  // measure 20
0100
0001
0000
1000
0000
0001
0100
0010
,  // measure 21
1000
0100
0010
0100
1000
0001
0000
1000
,  // measure 22
0001
0100
0000
0010
0000
1000
0100
0010
,  // measure 23
0100
1000
0001
0100
0010
1000
0000
0000
,  // measure 24
1001
0000
0100
0000
1000
0100
1000
0001
,  // measure 25
0100
0001
1000
0001
0100
0000
0010
0000
,  // measure 26
1001
0000
0010
0000
0100
0001
0010
0100
,  // measure 27
1000
0010
0100
0001
1000
0000
0010
0000
,  // measure 28
1001
0100
1001
0001
,  // measure 29
1100
0000
0100
0000
1010
0000
1000
0010
,  // measure 30
1000
0000
0001
0100
0010
0000
1000
0100
,  // measure 31
1000
0001
0010
0100
1000
0000
0002
0000
,  // measure 32
0103
0000
2000
0000
3010
0000
0100
0001
,  // measure 33
1000
0000
0010
1000
0100
0000
2000
0000
,  // measure 34
3010
0000
0002
0000
0103
0000
0010
0001
,  // measure 35
1000
0000
0010
1000
0100
0000
0020
0000
,  // measure 36
0130
0000
2000
0000
3010
0000
0100
0001
,  // measure 37
1000
0000
0010
1000
0001
0000
0200
0000
,  // measure 38
0310
0000
0002
0000
1003
0000
0010
0001
,  // measure 39
0100
0000
1000
0010
1000
0000
0100
0010
,  // measure 40
0100
0010
0100
1000
0100
1000
0001
0000
,  // measure 41
1000
0000
0010
0000
0100
0000
0001
0010
,  // measure 42
0001
0010
0001
1000
0001
1000
0001
0000
,  // measure 43
0100
0000
0010
0000
1000
0000
0100
1000
,  // measure 44
0100
0010
0001
0010
0001
1000
0100
0000
,  // measure 45
0010
0000
0001
0000
1000
0000
0010
1000
,  // measure 46
0010
0100
0001
0100
0010
1000
0100
0000
,  // measure 47
1000
0000
0001
0000
0100
0000
0010
1000
,  // measure 48
0001
0100
0010
1000
0001
0100
0001
0000
,  // measure 49
0010
0000
0100
0000
1000
0000
0001
0100
,  // measure 50
0001
1000
0100
0010
0001
1000
0100
0000
,  // measure 51
0010
0000
0001
0000
1000
0000
0100
1000
,  // measure 52
0100
0000
0010
0001
0010
0000
0001
0000
,  // measure 53
1000
0000
0010
0000
0100
0000
0001
1000
,  // measure 54
0001
0000
0100
0010
0100
0000
0001
0000
,  // measure 55
1000
0000
0100
0000
0010
0000
0001
0010
,  // measure 56
0001
0000
1000
0100
1000
0000
0010
0000
,  // measure 57
0100
0000
0001
0000
1000
0000
0100
0010
,  // measure 58
0100
0000
1000
0010
1000
0000
0001
0000
,  // measure 59
0010
0100
1000
1001
;

//---------------dance-single - ----------------
#NOTES:
     dance-single:
     :
     Medium:
     7:
     0.434624,0.497412,0.257315,0.000000,0.000000,201.000000,184.000000,17.000000,0.000000,0.000000,0.000000,0.434624,0.497412,0.257315,0.000000,0.000000,201.000000,184.000000,17.000000,0.000000,0.000000,0.000000:
0000
0000
0000
0000
,
0000
0000
0000
0000
,
0000
0000
0000
0000
,
0000
0000
0000
0000
,
0000
0000
0000
0000
,
0000
0000
0000
0000
,
0000
0000
0000
0000
,
0000
0000
0000
0000
0000
0000
0000
1000
,
0000
0010
0000
1000
0000
0100
0000
0010
,
0000
0100
0000
1000
0000
0001
0000
0100
,
0000
0010
0000
0100
0000
0001
0000
0010
,
0000
0100
0000
1000
0000
0000
0000
0001
,
0000
1000
0000
0100
0000
1000
0000
0001
,
0000
0100
0000
0010
0000
1000
0000
0100
,
0000
0010
0000
0100
0000
1000
0000
0001
,
0000
0100
0000
0010
0000
0000
0000
1000
,
0000
0001
0000
0100
0000
0001
0000
1000
,
0000
0010
0000
0100
0000
0001
0000
0010
,
0000
0100
0000
0010
0000
0001
0000
1000
,
0000
0100
0000
0010
0000
0000
0000
0001
,
0000
1000
0000
0001
0000
0100
0000
0010
,
0000
1000
0000
0100
0000
1000
0000
0010
,
0000
0100
0000
0001
0000
1000
0000
0100
,
0000
1000
0000
0001
0000
0000
0000
0000
,
0100
0000
1001
0000
,
0010
1000
0001
0000
,
1100
0000
0101
0000
,
1000
0010
0100
0001
,
0001
1000
1000
0100
,
0010
0100
1000
0001
,
0000
0100
0000
0010
,
1000
0001
0000
1000
,
0100
1000
0100
1000
,
0001
1000
0000
0001
,
0100
0010
0100
0001
,
1000
0001
0000
0010
,
0001
0010
1000
0010
,
0100
0001
0000
1000
,
1000
0001
0001
0100
,
0010
1000
0100
0010
,
0100
0010
0001
1000
,
0100
1000
0001
0100
,
0010
1000
0100
0001
,
0100
1000
0010
0100
,
0001
0010
0100
1000
,
0001
1000
0100
0010
,
0001
0100
0010
1000
,
0001
1000
0100
0010
,
0001
0100
0010
1000
,
0100
0010
1000
0010
,
0001
0100
0010
0001
,
0100
1000
0100
0010
,
0011
0000
1001
0000
,
1010
0010
0100
0001
,
0101
0000
1100
0000
,
0110
0001
1000
0010
,
1010
0000
1001
0000
,
1100
0100
0010
0001
,
0101
0000
1010
0000
,
0101
0000
1010
1001
;

//---------------dance-single - ----------------
#NOTES:
     dance-single:
     :
     Easy:
     5:
     0.268126,0.361754,0.075681,0.000000,0.000000,124.000000,119.000000,5.000000,0.000000,0.000000,0.000000,0.268126,0.361754,0.075681,0.000000,0.000000,124.000000,119.000000,5.000000,0.000000,0.000000,0.000000:
0000
0000
0000
0000
,
0000
0000
0000
0000
,
0000
0000
0000
0000
,
0000
0000
0000
0000
,
0000
0000
0000
0000
,
0000
0000
0000
0000
,
0000
0000
0000
0000
,
0000
0000
0000
0000
0000
0000
0000
1000
,
0000
0000
0000
0100
0000
0000
0000
1000
,
0000
0001
0000
0100
0000
0000
0000
0010
,
0000
0000
0000
0100
0000
0000
0000
0001
,
0000
1000
0000
0100
0000
0000
0000
1000
,
0000
0000
0000
0001
0000
0000
0000
0010
,
0000
0001
0000
0100
0000
0000
0000
0001
,
0000
0000
0000
1000
0000
0000
0000
0100
,
0000
1000
0000
0010
0000
0000
0000
0100
,
0000
0000
0000
0010
0000
0000
0000
1000
,
0000
1000
0000
0100
0000
0000
0000
0010
,
0000
0000
0000
0001
0000
0000
0000
0100
,
0000
0100
0000
0001
0000
0000
0000
1000
,
0000
0000
0000
0001
0000
0000
0000
0010
,
0000
0010
0000
0100
0000
0000
0000
1000
,
0000
0000
0000
0010
0000
0000
0000
0100
,
0000
0100
0000
0001
0000
0000
0000
1000
,
0000
0000
0000
0001
,
0000
0010
0000
1000
,
0000
0100
0000
0010
,
0000
0100
0000
1000
,
0000
0001
0000
0100
,
0000
0010
0000
1000
,
0000
0100
0000
0010
,
0000
0001
0000
1000
,
0000
0001
0000
0100
,
0000
0010
0000
1000
,
0000
0100
0000
0010
,
0000
0001
0000
1000
,
0000
0001
0000
0100
,
0000
0010
0000
1000
,
0000
0100
0000
0010
,
0000
0001
0000
1000
,
0100
1000
0000
0001
,
0000
0010
0000
0100
,
0000
1000
0000
0010
,
0000
0100
0000
0001
,
0100
0001
0000
0010
,
0000
0100
0000
1000
,
0000
0010
0000
0100
,
0000
0001
0000
1000
,
0001
1000
0000
0010
,
0000
0100
0000
0001
,
0000
0010
0000
0100
,
0000
1000
0000
0010
,
0100
0010
0000
1000
,
0000
0110
0000
0010
,
0100
0010
0000
0001
,
0000
0110
0000
0100
,
0010
0100
0000
1000
,
0000
0110
0000
0100
,
0010
0100
0000
0001
,
0000
0110
0000
1001
;

//---------------dance-single - ----------------
#NOTES:
     dance-single:
     :
     Beginner:
     2:
     0.129738,0.180877,0.000000,0.000000,0.000000,60.000000,60.000000,0.000000,0.000000,0.000000,0.000000,0.129738,0.180877,0.000000,0.000000,0.000000,60.000000,60.000000,0.000000,0.000000,0.000000,0.000000:
0000
0000
0000
0000
,
0000
0000
0000
0000
,
0000
0000
0000
0000
,
0000
0000
0000
0000
,
0000
0000
0000
0000
,
0000
0000
0000
0000
,
0000
0000
0000
0000
,
0000
0000
0000
0000
,
0000
0000
0000
0000
0000
0000
0000
1000
,
0000
0000
0000
0000
0000
0000
0000
0001
,
0000
0000
0000
0000
0000
0000
0000
1000
,
0000
0000
0000
0000
0000
0000
0000
0100
,
0000
0000
0000
0000
0000
0000
0000
0010
,
0000
0000
0000
0000
0000
0000
0000
0001
,
0000
0000
0000
0000
0000
0000
0000
0100
,
0000
0000
0000
0000
0000
0000
0000
0010
,
0000
0000
0000
0000
0000
0000
0000
1000
,
0000
0000
0000
0000
0000
0000
0000
0001
,
0000
0000
0000
0000
0000
0000
0000
1000
,
0000
0000
0000
0000
0000
0000
0000
0100
,
0000
0000
0000
0000
0000
0000
0000
0010
,
0000
0000
0000
0000
0000
0000
0000
0001
,
0000
0000
0000
0000
0000
0000
0000
0100
,
0000
0000
0000
0000
0000
0000
0000
0010
,
0000
0000
0000
1000
,
0000
0000
0000
0001
,
0000
0000
0000
0010
,
0000
0000
0000
0100
,
0000
0000
0000
0010
,
0000
0000
0000
0100
,
0000
0000
0000
1000
,
0000
0000
0000
0001
,
0000
0001
0000
0001
,
0000
0000
0000
1000
,
0000
1000
0000
1000
,
0000
0000
0000
0010
,
0000
0010
0000
0010
,
0000
0000
0000
0100
,
0000
0100
0000
0100
,
0000
0000
0000
0001
,
0000
0001
0000
0001
,
0000
0000
0000
1000
,
0000
1000
0000
1000
,
0000
0000
0000
0010
,
0000
0010
0000
0010
,
0000
0000
0000
0100
,
0000
0100
0000
0100
,
0000
0000
0000
0001
,
0000
0000
0000
1000
,
0000
0000
0000
0100
,
0000
0000
0000
0010
,
0000
0000
0000
0001
,
0000
0000
0000
0001
,
0000
0000
0000
1000
,
0000
0000
0000
1000
,
0000
0000
0000
0010
,
0000
0000
0000
0001
,
0000
0000
0000
0010
,
0000
0000
0000
1000
,
0000
0000
0000
0100
;
