#TITLE:The Demon Army;
#SUBTITLE:(Underworld Past);
#ARTIST:Rainbowdragoneyes;
#TITLETRANSLIT:;
#SUBTITLETRANSLIT:;
#ARTISTTRANSLIT:;
#GENRE:The Messenger;
#CREDIT:[Ness];
#BANNER:The Messenger - The Demon Army (Underworld Past).png;
#BACKGROUND:The Messenger - The Demon Army (Underworld Past)-bg.png;
#LYRICSPATH:;
#CDTITLE:;
#MUSIC:The Messenger - The Demon Army (Underworld Past).mp3;
#OFFSET:-0.055000;
#SAMPLESTART:24.010841;
#SAMPLELENGTH:12.000000;
#LASTBEATHINT:183.891312;
#SELECTABLE:YES;
#DISPLAYBPM:80.000000:160.000000;
#BPMS:0.000000=160.000000
,112.000000=640.000000
,113.000000=160.000000
,160.000000=80.000000
,176.000000=160.000000
;
#STOPS:112.000000=0.094000,
112.333336=0.094000,
112.666664=0.094000
;
#BGCHANGES:;
#KEYSOUNDS:;
#ATTACKS:;

//---------------dance-single - ----------------
#NOTES:
     dance-single:
     :
     Challenge:
     10:
     0.724745,1.381042,0.243412,0.012811,1.434849,396.000000,377.000000,19.000000,1.000000,0.000000,0.000000,0.724745,1.381042,0.243412,0.012811,1.434849,396.000000,377.000000,19.000000,1.000000,0.000000,0.000000:
0000
0000
0000
0000
,
0000
0000
0000
0000
,
0000
0000
0000
0000
,
0000
0000
0000
0000
,
0000
0000
0000
0000
,
0000
0000
0000
0000
,
0000
0000
0000
0000
,
0000
0000
0000
0000
,
0001
0100
0010
1000
0100
1000
0100
0010
0001
1000
0001
1000
,
0010
1000
0100
0010
0100
0010
0001
1000
0010
0100
0001
0100
,
0001
0010
0001
1000
0010
1000
0001
0010
0001
1000
0010
1000
,
0001
0100
0010
1000
0100
0010
0001
0100
0010
1000
0001
1000
,
0001
0100
0010
1000
0100
0010
0100
1000
0001
0010
0100
1000
,
0010
1000
0100
0010
0001
0100
0001
0010
0100
1000
0010
0100
,
0001
1000
0100
0010
0000
0001
0010
0000
1000
0010
0000
0000
,
0100
0001
1000
0100
0010
0100
0000
0110
0000
1001
0000
0000
,
0001
0000
0001
0010
0000
1000
0100
0000
0100
0010
0000
1000
,
0010
0000
0010
0001
1000
0100
0001
0000
0001
0100
0000
0010
,
0001
0000
0001
0100
0000
1000
0010
0000
0010
0100
0000
0100
,
0001
0000
0000
0100
0000
0000
0001
0000
0000
0000
0000
0000
0010
0000
0000
0000
0000
0000
0000
0000
0100
0000
0000
0000
1000
0000
0000
0000
0100
0000
0000
0000
0010
0000
0000
0000
0001
0000
0000
0000
0000
0000
0000
0000
0001
0000
0000
0000
,
1000
0000
0100
1000
0000
0010
0001
0000
0100
0001
0000
0010
,
1000
0000
0110
0000
0001
0000
0010
0000
0100
0001
0000
0010
,
1000
0000
1100
0000
0011
0000
0010
0000
0101
0000
1010
0000
,
0100
0000
0110
0000
1001
0000
0012
0000
0000
1003
0000
0000
,
0010
0010
0010
0100
0000
0001
0010
0000
1000
0100
0000
0010
,
0001
0100
0001
0100
1000
0100
1000
0010
1000
0010
0001
0010
,
0001
0000
0101
0000
1100
0000
0100
0000
1100
0000
1010
0000
,
1000
0000
1010
0000
0011
0000
1001
0000
0011
0000
0101
0000
,
0010
0010
0010
0010
0000
1000
0100
0000
0001
0010
0000
0100
,
0001
0100
1000
0010
0000
0001
0010
0000
1000
0100
0000
0010
,
0001
0000
0001
1000
0000
0100
0001
0000
1000
0001
0000
0100
,
1000
0000
0001
0100
0000
1000
0001
0000
0100
1000
0000
0001
,
0100
0000
0100
0010
0000
0010
1000
0000
1000
0001
0000
0001
,
0010
0000
0010
0100
0000
0100
0001
0000
0001
0010
0000
0010
,
1000
0000
1000
0001
0000
0001
0100
0000
0100
1000
0000
1000
,
0010
0000
0010
0001
0000
0001
1000
0000
1000
0100
0000
0100
,
0001
0000
0001
0010
0000
0010
0100
0000
0100
1000
0000
1000
,
0010
0000
0010
0001
0000
0001
0100
0000
0100
0010
0000
0010
,
1000
0000
1000
0100
0000
0100
0010
0000
0010
0001
0000
0001
,
1000
0000
1000
0001
0000
0001
1000
0000
1000
0001
0000
0001
,
0100
0001
0100
0001
0100
0001
1000
0001
1000
0001
1000
0001
0010
0001
0010
0001
0010
0001
0010
0100
0010
0100
0010
0100
,
1000
0100
1000
0100
1000
0100
1000
0001
1000
0001
1000
0001
0100
0001
0100
0001
0100
0001
0010
0001
0010
0001
0010
0001
,
0010
0100
0010
0100
0010
0100
1000
0100
1000
0100
1000
0100
1000
0001
1000
0001
1000
0001
0100
0001
0100
0001
0100
0001
,
1000
0010
1000
0010
1000
0010
0100
0001
0100
0001
0100
0001
0010
0100
0010
0100
0010
0100
1000
0001
1000
0001
1000
0001
,
1000
0000
0000
0000
;

//---------------dance-single - ----------------
#NOTES:
     dance-single:
     :
     Hard:
     8:
     0.490484,0.620060,0.179356,0.051245,0.736641,268.000000,254.000000,14.000000,4.000000,0.000000,0.000000,0.490484,0.620060,0.179356,0.051245,0.736641,268.000000,254.000000,14.000000,4.000000,0.000000,0.000000:
// measure 0
0000
0000
0000
0000
,  // measure 1
0000
0000
0000
0000
,  // measure 2
0000
0000
0000
0000
,  // measure 3
0000
0000
0000
0000
,  // measure 4
0000
0000
0000
0000
,  // measure 5
0000
0000
0000
0000
,  // measure 6
0000
0000
0000
0000
,  // measure 7
0000
0000
0000
0000
,  // measure 8
0001
0000
0001
0010
0000
0100
1000
0000
0100
1000
0000
0001
,  // measure 9
0100
0000
0100
0010
0000
1000
0001
0000
1000
0001
0000
0100
,  // measure 10
0010
0000
0010
1000
0000
0001
0100
0000
0001
0100
0000
0010
,  // measure 11
1000
0000
1000
0100
0000
0010
0001
0000
0010
0001
0000
1000
,  // measure 12
0010
0000
0100
0001
0000
0001
0010
0000
0100
1000
0000
1000
,  // measure 13
0001
0000
0100
0010
0000
0010
1000
0000
0100
0010
0000
0010
,  // measure 14
0001
0000
1000
0100
0000
0100
1000
0000
0001
0100
0000
0100
,  // measure 15
0001
0000
0001
1000
0000
0100
0000
0010
0000
0101
0000
0000
,  // measure 16
0001
0000
0001
1000
0000
1000
0100
0000
0100
0010
0000
0010
,  // measure 17
0001
0000
0000
1000
0100
1000
0100
0000
0000
0110
0000
0000
,  // measure 18
1000
0000
1000
0010
0000
0010
0100
0000
0100
0001
0000
0001
,  // measure 19
0020
0000
0000
0130
0000
0000
1000
0001
1000
0100
0000
0000
,  // measure 20
1000
0000
1000
0001
0000
0001
0100
0000
0100
0010
0000
0010
,  // measure 21
1000
0000
0100
0000
0010
0000
0001
0000
0000
0101
0000
0000
,  // measure 22
0001
0000
1000
0000
0100
0000
1000
0000
0001
0000
0010
0000
,  // measure 23
0001
0000
0100
0000
0010
0000
1000
0000
0000
1010
0000
0000
,  // measure 24
0002
1003
0100
0110
,  // measure 25
0010
0000
0001
0000
0100
0000
1000
0000
0100
0000
0001
0000
,  // measure 26
0010
0000
0010
0000
0100
0000
1000
0000
1000
0000
0001
0000
,  // measure 27
0100
0000
0010
0000
1000
0000
0001
0000
1000
0000
0100
0000
,  // measure 28
0020
0130
1000
1001
,  // measure 29
1000
0000
0010
1000
0000
0000
0100
0000
0001
0100
0000
0000
,  // measure 30
0010
0011
0100
1001
,  // measure 31
1000
0000
1000
0010
0000
0000
0001
0000
0001
0100
0000
0000
,  // measure 32
0010
0000
0010
0100
0000
0100
0001
0000
0001
1000
0000
1000
,  // measure 33
0100
0000
0100
0010
0000
0010
0001
0000
0001
0100
0000
0100
,  // measure 34
0001
0000
0001
1000
0000
1000
0010
0000
0010
0100
0000
0100
,  // measure 35
0001
0000
0001
1000
0000
1000
0001
0000
0001
0010
0000
0010
,  // measure 36
0100
0000
0100
1000
0000
1000
0001
0000
0001
0010
0000
0010
,  // measure 37
0100
0000
0100
1000
0000
1000
0010
0000
0010
0100
0000
0100
,  // measure 38
0001
0000
0001
0010
0000
0010
0100
0000
0100
1000
0000
1000
,  // measure 39
0001
0000
0001
1000
0000
1000
0001
0000
0001
1000
0000
1000
,  // measure 40
0020
0000
0000
0130
0000
0000
0001
0010
0100
1000
0100
0010
,  // measure 41
0001
0000
0000
1000
0000
0000
1001
0000
0000
0000
0000
0000
0100
0000
1000
0000
0010
0000
0001
0000
0010
0000
1000
0000
,  // measure 42
0100
0000
0000
0010
0000
0000
0011
0000
0000
0000
0000
0000
0001
0000
1000
0000
0010
0000
1000
0000
0001
0000
0100
0000
,  // measure 43
0010
1000
1100
0000
0110
0100
0001
0101
,  // measure 44
1001
0000
0000
0000
;

//---------------dance-single - ----------------
#NOTES:
     dance-single:
     :
     Medium:
     6:
     0.318449,0.394583,0.038433,0.025622,0.147328,174.000000,171.000000,3.000000,2.000000,0.000000,0.000000,0.318449,0.394583,0.038433,0.025622,0.147328,174.000000,171.000000,3.000000,2.000000,0.000000,0.000000:
0000
0000
0000
0000
,
0000
0000
0000
0000
,
0000
0000
0000
0000
,
0000
0000
0000
0000
,
0000
0000
0000
0000
,
0000
0000
0000
0000
,
0000
0000
0000
0000
,
0000
0000
0000
0000
,
1000
0100
0010
0100
,
1000
0001
0100
0001
,
0010
0100
0010
0001
,
1000
0001
0100
0010
,
1000
0000
0010
1000
0000
0000
0001
0000
0000
0010
0000
0000
,
0100
0000
1000
0100
0000
0000
0010
0000
0000
0001
0000
0000
,
0100
0000
0001
0100
0000
0000
0001
0000
0000
1000
0000
0000
,
0001
0010
0100
1000
,
0110
0001
0010
0001
,
0100
0000
0010
0100
0000
0010
0100
0000
0000
0001
0000
0000
,
0010
0100
1000
0001
,
0100
0010
1000
0100
,
0010
0100
1000
0001
,
0010
0000
0001
0000
1000
0000
0100
0000
0000
0010
0000
0000
,
0100
0000
1000
0000
0001
0000
0100
0000
0000
0010
0000
0000
,
0100
0000
0001
0000
0010
0000
0001
0000
0000
0010
0000
0000
,
0100
1000
0010
0100
,
0001
0000
0001
0000
0001
0000
1000
0000
1000
0000
1000
0000
,
0100
0010
0001
0100
,
1000
0100
0001
0010
,
0100
1000
0001
0100
,
0010
1000
0100
0010
,
0001
1000
0001
0100
,
0010
0100
0001
1000
,
1100
1000
0001
0100
,
0001
0000
0010
0001
0000
0000
0010
0000
0100
0010
0000
0000
,
0100
1000
0001
0100
,
0010
0000
1000
0010
0000
0000
1000
0000
0001
1000
0000
0000
,
0001
0010
0100
1000
,
0001
0000
0100
0010
0000
0000
1000
0000
0010
0100
0000
0000
,
0001
0010
0100
1000
,
0001
0000
0100
0010
0000
0000
0100
0000
0010
1000
0000
0000
,
0200
0000
0310
0000
0001
1000
0100
0000
,
1000
0010
0100
0001
0010
0100
1000
0000
,
0002
0000
1003
0000
0001
0100
0010
0000
,
1000
0100
0001
0100
0010
0001
0100
0000
,
1001
0000
0000
0000
;

//---------------dance-single - ----------------
#NOTES:
     dance-single:
     :
     Easy:
     4:
     0.236091,0.253661,0.000000,0.102489,0.000000,129.000000,129.000000,0.000000,8.000000,0.000000,0.000000,0.236091,0.253661,0.000000,0.102489,0.000000,129.000000,129.000000,0.000000,8.000000,0.000000,0.000000:
0000
0000
0000
0000
,
0000
0000
0000
0000
,
0000
0000
0000
0000
,
0000
0000
0000
0000
,
0000
0000
0000
0000
,
0000
0000
0000
0000
,
0000
0000
0000
0000
,
0000
0000
0000
0000
,
0001
1000
0001
0100
,
0001
1000
0100
0000
,
0010
0100
1000
0001
,
0100
0010
1000
0000
,
0001
1000
0001
1000
,
0100
0010
0100
0010
,
0001
0010
0001
0010
,
0100
1000
0100
1000
,
0002
0003
2000
3000
,
0001
0100
0010
1000
,
0100
0010
0100
1000
,
0002
0003
2000
3000
,
0010
0100
0002
0003
,
1000
0100
0001
0010
,
0100
1000
0010
0100
,
0001
1000
0200
0300
,
0010
0001
0100
0001
,
1000
1000
0001
0001
,
1000
0010
0100
0001
,
0010
0100
0010
0100
,
1000
0000
0000
0001
,
0100
0010
0100
0001
,
0010
0100
0010
0100
,
1000
0001
1000
0100
,
0010
0010
0001
0000
,
1000
0001
0100
0010
,
1000
1000
0100
0000
,
0010
0001
1000
0001
,
0100
0100
0010
0000
,
1000
0010
0100
0001
,
0010
0010
0100
0000
,
1000
0100
0010
0001
,
2000
3000
0001
1000
,
0100
0010
0001
0100
,
0002
0003
1000
0001
,
0100
0010
1000
0100
,
1000
0000
0000
0000
;

//---------------dance-single - ----------------
#NOTES:
     dance-single:
     :
     Beginner:
     2:
     0.131772,0.140923,0.000000,0.000000,0.000000,72.000000,72.000000,0.000000,0.000000,0.000000,0.000000,0.131772,0.140923,0.000000,0.000000,0.000000,72.000000,72.000000,0.000000,0.000000,0.000000,0.000000:
0000
0000
0000
0000
,
0000
0000
0000
0000
,
0000
0000
0000
0000
,
0000
0000
0000
0000
,
0000
0000
0000
0000
,
0000
0000
0000
0000
,
0000
0000
0000
0000
,
0000
0000
0000
0000
,
0001
0000
0010
0000
,
1000
0000
0010
0000
,
0100
0000
0001
0000
,
0100
0000
1000
0000
,
0100
0000
0010
0000
,
0100
0000
0010
0000
,
1000
0000
0001
0000
,
0010
0000
0000
0000
,
0100
0000
0100
0000
,
1000
0000
0001
0000
,
0100
0000
0100
0000
,
0010
0000
1000
0000
,
0001
0000
0010
0000
,
0001
0000
0001
0000
,
1000
0000
1000
0000
,
0001
0000
0001
0000
,
0100
0000
0000
0010
,
0010
0000
0000
1000
,
1000
0000
0100
0000
,
0010
0000
0001
0000
,
0100
0000
0000
0001
,
0001
0000
0000
1000
,
1000
0000
0100
0000
,
0001
0000
0100
0000
,
1000
0000
1000
0000
,
0001
0000
0001
0000
,
1000
0000
1000
0000
,
0001
0000
0001
0000
,
0010
0000
0010
0000
,
1000
0000
1000
0000
,
0010
0000
0010
0000
,
0001
0000
0001
0000
,
0100
0000
0100
0000
,
0001
0000
0001
0000
,
1000
0000
1000
0000
,
0010
0000
0010
0000
,
0100
0000
0000
0000
;
