#VERSION:0.83;
#TITLE:The Corrupted Past;
#SUBTITLE:;
#ARTIST:Rainbowdragoneyes;
#TITLETRANSLIT:;
#SUBTITLETRANSLIT:;
#ARTISTTRANSLIT:;
#GENRE:The Messenger;
#ORIGIN:;
#CREDIT:[Ness];
#BANNER:The Messenger - The Corrupted Past.png;
#BACKGROUND:The Messenger - The Corrupted Past-bg.png;
#PREVIEWVID:;
#JACKET:The Messenger - The Corrupted Past-jacket.png;
#CDIMAGE:;
#DISCIMAGE:;
#LYRICSPATH:;
#CDTITLE:;
#MUSIC:The Messenger - The Corrupted Past.mp3;
#OFFSET:-0.035000;
#SAMPLESTART:12.810842;
#SAMPLELENGTH:17.066666;
#SELECTABLE:YES;
#BPMS:0.000=112.500;
#STOPS:;
#DELAYS:;
#WARPS:;
#TIMESIGNATURES:0.000=4=4;
#TICKCOUNTS:0.000=2;
#COMBOS:0.000=1;
#SPEEDS:0.000=1.000=0.000=0;
#SCROLLS:0.000=1.000;
#FAKES:;
#LABELS:0.000=Song Start;
#LASTSECONDHINT:110.984177;
#BGCHANGES:;
#KEYSOUNDS:;
#ATTACKS:
;

//---------------dance-single - ----------------
#NOTEDATA:;
#CHARTNAME:;
#STEPSTYPE:dance-single;
#DESCRIPTION:;
#CHARTSTYLE:;
#DIFFICULTY:Challenge;
#METER:9;
#RADARVALUES:0.519409,0.667724,0.103389,0.198163,0.667724,422.000000,410.000000,12.000000,23.000000,0.000000,0.000000,0.000000,0.000000,0.000000,0.519409,0.667724,0.103389,0.198163,0.667724,422.000000,410.000000,12.000000,23.000000,0.000000,0.000000,0.000000,0.000000,0.000000;
#CREDIT:;
#NOTES:
0000
0000
0000
0000
,
0000
0000
0000
0000
,
0000
0000
0000
0000
,
0000
0000
0000
0000
,
0010
0000
0010
0000
1000
0001
0000
0010
0000
0010
0100
0000
1000
0001
1000
0000
,
0100
0000
0100
0000
0010
0001
0000
0100
0000
0010
1000
0000
0001
0100
0001
0000
,
1000
0000
0010
0000
0100
0010
0000
1000
0000
0100
0010
0000
0001
1000
0001
0000
,
0010
0000
0001
0000
1000
0001
0000
0100
0000
0010
1000
0000
0100
1000
0100
0000
,
0010
0000
0001
0000
0100
0001
0000
1000
0000
0010
0100
0000
0001
0100
0001
0000
,
1000
0000
1000
0000
0100
1000
0000
0001
0000
1000
0100
0000
0010
0001
0100
0000
,
0001
0000
0010
0000
0001
1000
0000
0100
0000
0010
0100
0000
1000
0010
0100
0000
,
0001
0000
1000
0000
0100
0010
0000
0100
0000
1000
0001
0000
1000
0100
0010
0000
,
0001
0000
1000
0000
0001
0100
0000
0010
0000
1000
0001
0000
1000
0100
1000
0000
,
0001
0000
1000
0000
0010
1000
0000
0001
0000
0010
0100
0000
0010
0001
0010
0000
,
0001
0000
0001
0000
1000
0100
0000
1000
0000
1000
0010
0000
0100
0001
1000
0000
,
0010
0000
0100
0000
0001
1000
0000
0100
0000
0100
0010
0000
0010
0001
0100
0000
,
0001
0000
1000
0000
1000
0010
0000
1000
0000
0100
0010
0000
0010
0001
0100
0000
,
0001
0000
0010
0000
0001
1000
0000
0010
0000
0100
0001
0000
0001
0010
0100
0000
,
0100
0000
1000
0000
1000
0010
0000
0010
0000
1000
0001
0000
1000
0100
0010
0000
,
0001
0000
1000
0000
0001
0100
0000
0100
0000
0010
0100
0000
0100
0001
1000
0000
,
0100
0000
0010
0000
0001
1000
0000
1000
0000
1000
0010
0000
0010
0100
0001
0000
,
0001
0000
1000
0000
1000
0100
0000
0100
0000
0100
0010
0000
0001
1000
0001
0000
,
0101
0000
0000
0001
0200
0000
1000
0000
0000
0000
0010
0000
0000
0001
0000
0000
,
0310
0000
0000
0020
1000
0000
0200
0000
0330
0000
0110
0000
0000
0101
0000
0000
,
1001
0000
0000
1000
0200
0000
0010
0000
0000
0000
0001
0000
0000
1000
0000
0000
,
0310
0000
0000
0010
0002
0000
0200
0000
0303
0000
0101
0000
0000
1100
0000
0000
,
2002
0000
3003
0000
0202
0000
0303
0000
2002
0000
3003
0000
2200
0000
3300
0010
,
0100
0000
0000
0000
0220
0000
0000
0000
0330
0000
1000
0000
0000
0001
0000
0000
,
0010
0000
0002
2000
0000
3003
0010
1000
,
0100
0000
0000
0000
0000
0000
0201
0000
0000
0000
1000
0000
0000
0001
0000
0000
,
0310
0000
0000
0010
1000
0000
0100
0000
0000
0001
0000
0000
0010
0000
0000
1000
,
0000
0000
0100
0001
0000
0000
0010
0000
0100
0000
1000
0000
0001
0000
0100
0010
,
0000
0000
0000
1000
0200
0000
0010
0000
0300
1000
0000
0000
0001
0000
0000
0010
,
0000
0000
0001
1000
0000
0000
0010
0000
0100
0000
0001
0000
0010
0000
0100
1000
,
0100
0000
0000
1000
0000
0000
0002
0000
0000
0013
0000
0000
1000
0000
0000
0010
,
0000
0000
0100
0001
0000
0000
1000
0000
0001
0000
0010
0000
0100
0000
1000
0100
,
0000
0000
0001
0000
0000
0000
0010
0000
0000
1000
0000
0000
0100
0000
0000
0010
,
0000
0000
0001
0100
0000
0000
0010
0000
1000
0000
0100
0000
1000
0000
0001
1000
,
0001
0000
0000
0100
0000
0000
0020
0000
0000
0031
0000
0000
0100
0000
0000
0010
,
0000
0000
1000
0100
0000
0000
0010
0000
0001
0000
1000
0000
0100
0000
1000
0001
,
1000
0000
0000
0010
0000
0000
0200
0000
0000
0301
0000
0000
1000
0000
0000
0001
,
0000
0000
0010
0100
0000
0000
1000
0000
0010
0000
1000
0000
0001
0000
0100
0000
,
0010
1000
0100
0000
1000
0001
0000
1000
0100
0000
1000
0001
0000
1000
0100
0000
,
0010
0001
1000
0000
0001
0100
0000
0001
1000
0000
0001
0010
0000
0001
1000
0000
,
0001
0100
0001
0100
0001
0100
0001
0100
0001
0100
0001
0100
0001
0100
0001
0000
,
1000
0100
1000
0100
1000
0100
1000
0100
1000
0100
1000
0100
1000
0100
1000
0000
,
0001
0010
0001
0010
0001
0010
0001
0000
1000
0010
1000
0010
1000
0010
1000
0000
,
0001
0100
0001
0100
0001
0100
0001
0000
1000
0100
1000
0100
1000
0100
1000
0000
,
0010
0100
0010
0000
1000
0010
1000
0000
0001
1000
0001
0000
0010
0001
0010
0000
,
0001
1000
0001
0000
0100
0001
0100
0000
0001
1000
0001
0000
1000
0100
1000
0000
,
0100
0000
0000
0000
;

//---------------dance-single - ----------------
#NOTEDATA:;
#CHARTNAME:;
#STEPSTYPE:dance-single;
#DESCRIPTION:;
#CHARTSTYLE:;
#DIFFICULTY:Hard;
#METER:7;
#RADARVALUES:0.364325,0.409250,0.198163,0.155084,0.409250,296.000000,273.000000,23.000000,18.000000,0.000000,0.000000,0.000000,0.000000,0.000000,0.364325,0.409250,0.198163,0.155084,0.409250,296.000000,273.000000,23.000000,18.000000,0.000000,0.000000,0.000000,0.000000,0.000000;
#CREDIT:;
#DISPLAYBPM:0.000000;
#NOTES:
// measure 0
0000
0000
0000
0000
,  // measure 1
0000
0000
0000
0000
,  // measure 2
0000
0000
0000
0000
,  // measure 3
0000
0000
0000
0000
,  // measure 4
1000
0000
0000
0001
0000
0000
0101
0000
0000
0010
0000
0000
1000
0000
0100
0000
,  // measure 5
0010
0000
0000
0100
0000
0000
1100
0000
0000
1000
0000
0001
0000
0000
0100
0000
,  // measure 6
0010
0000
0000
1000
0000
0000
1001
0000
0000
0010
0000
0000
0001
0000
1000
0000
,  // measure 7
0100
0000
0000
0010
0000
0000
0110
0000
0000
0001
0000
0010
0000
0000
0100
0000
,  // measure 8
1000
0000
0000
0001
0000
0000
1100
0000
0000
0010
0000
0000
0100
0000
0001
0000
,  // measure 9
1000
0000
0000
0001
0000
0000
0101
0000
0000
0010
0000
0100
0000
0000
0001
0000
,  // measure 10
1000
0000
0000
0100
0000
0000
1001
0000
0000
0001
0000
0000
1000
0000
0010
0000
,  // measure 11
0100
0000
0000
0001
0000
0000
0011
0000
0000
1000
0000
0010
0000
0000
0100
0000
,  // measure 12
0101
0000
0000
0001
0000
0000
1001
0000
0000
1000
0000
0000
0100
0000
0000
1000
,  // measure 13
0001
0000
0010
0000
0000
0110
0000
0000
1100
0000
0000
1000
0000
0000
0001
0000
,  // measure 14
0100
0001
0100
0001
0100
0000
0010
0000
0000
1000
0000
0000
0100
0000
1000
0000
,  // measure 15
0001
0000
0000
1000
0000
0000
0010
0000
0000
0100
0000
0001
0000
0000
1000
0000
,  // measure 16
0100
0000
0000
0010
0000
0000
0100
0000
0000
1000
0000
0000
0001
0000
0010
0000
,  // measure 17
0100
0000
0000
0000
1000
0001
0000
0000
1000
0000
0010
0100
0000
0100
0010
0000
,  // measure 18
1000
0100
1000
0200
0000
0000
0000
0000
0000
0000
0000
0000
0000
0320
0000
0000
,  // measure 19
0032
0000
0000
0000
0003
1000
0200
0000
0000
0000
0000
0000
1300
0010
1000
0000
,  // measure 20
0001
0100
0010
0200
0000
0000
0000
0000
0000
0000
0000
0000
0000
0302
0000
0000
,  // measure 21
0023
0000
0000
0000
0000
0130
0010
0200
0000
0000
0000
0000
1300
0100
1000
0000
,  // measure 22
1001
0000
0000
0110
0000
0000
2002
0000
3003
0000
0010
0000
0000
0001
0000
0000
,  // measure 23
0101
0000
0000
0000
0020
0000
1000
0000
0030
0000
0100
0000
0000
0110
0000
0000
,  // measure 24
1100
0000
0000
0000
0200
0000
0001
0000
0300
0000
0010
0000
0000
0001
0000
0000
,  // measure 25
0011
0000
0000
0000
1001
0000
0020
0000
0000
0000
1030
0000
0000
0100
0000
0000
,  // measure 26
0201
0000
0000
0000
1300
0000
0000
0000
1200
0000
0000
0000
0301
0000
0000
1000
,  // measure 27
0100
0000
0000
0000
1020
0000
0000
0000
0030
0000
0001
0000
0000
0010
0000
0000
,  // measure 28
0100
0000
0002
1000
0003
0000
0100
0010
,  // measure 29
1000
0000
0000
0000
0200
0000
0010
0000
0300
0000
1000
0000
0000
0001
0000
0000
,  // measure 30
0100
0000
0000
0010
0000
0000
1000
0000
0000
0001
0000
0000
0100
0000
0000
0010
,  // measure 31
0000
0000
1000
0100
0000
0000
0010
0000
0001
0000
0010
0000
0100
0000
1000
0000
,  // measure 32
0000
0000
0000
0001
0000
0000
0100
0000
0000
0010
0000
0000
1000
0000
0000
0100
,  // measure 33
0000
0000
1000
0001
0000
0000
0100
0000
0010
0000
0100
0000
0001
0000
1000
0000
,  // measure 34
0000
0000
0000
0100
0000
0000
0010
0000
0000
0001
0000
0000
0100
0000
0000
0010
,  // measure 35
0000
0000
1000
0100
0000
0000
1000
0000
0001
0000
0010
0000
0001
0000
1000
0000
,  // measure 36
0000
0000
0000
0010
0000
0000
0100
0000
0000
0001
0000
0000
0010
0000
0000
0100
,  // measure 37
0000
0000
0010
0001
0000
0000
1000
0000
0100
0000
0001
0000
0100
0000
1000
0000
,  // measure 38
0000
0000
0000
0001
0000
0000
0100
0000
0000
0010
0000
0000
1000
0000
0000
0100
,  // measure 39
0000
0000
1000
0010
0000
0000
0100
0000
1000
0000
0100
0000
0001
0000
0100
0000
,  // measure 40
0000
0000
0000
0010
0000
0000
1000
0000
0000
0100
0000
0000
1000
0000
0000
0001
,  // measure 41
0000
0000
0010
0100
0000
0000
1000
0000
0010
0000
0100
0000
0001
0000
0010
0000
,  // measure 42
0100
0000
0100
0000
1000
0000
0000
0001
0000
0000
0100
0000
0000
0010
0000
0000
,  // measure 43
1000
0000
1000
0000
0010
0000
0000
0100
0000
0000
0001
0000
0000
0010
0000
0000
,  // measure 44
0100
0000
0100
0000
0010
0000
0000
0001
0000
0000
0100
0000
0000
1000
0000
0000
,  // measure 45
0010
0000
0010
0000
0100
0000
0000
1000
0000
0000
0100
0000
0000
0001
0000
0000
,  // measure 46
0010
0000
0000
0100
0000
0000
1000
0000
0100
0000
0000
0010
0000
0000
0001
0000
,  // measure 47
0100
0000
0000
0001
0000
0000
1000
0000
0100
0000
0000
0010
0000
0000
0100
0000
,  // measure 48
1000
0000
0000
0010
0000
0000
1000
0000
0001
0000
0000
0010
0000
0000
0001
0000
,  // measure 49
0100
0000
0000
0010
0000
0000
1000
0000
0100
0000
0000
0010
0000
0000
0100
0000
,  // measure 50
1000
0000
0000
0000
;

//---------------dance-single - ----------------
#NOTEDATA:;
#CHARTNAME:;
#STEPSTYPE:dance-single;
#DESCRIPTION:;
#CHARTSTYLE:;
#DIFFICULTY:Medium;
#METER:5;
#RADARVALUES:0.278167,0.280013,0.068926,0.000000,0.034463,226.000000,218.000000,8.000000,0.000000,0.000000,0.000000,0.000000,0.000000,0.000000,0.278167,0.280013,0.068926,0.000000,0.034463,226.000000,218.000000,8.000000,0.000000,0.000000,0.000000,0.000000,0.000000,0.000000;
#CREDIT:;
#DISPLAYBPM:0.000000;
#NOTES:
0000
0000
0000
0000
,
0000
0000
0000
0000
,
0000
0000
0000
0000
,
0000
0000
0000
0000
,
0001
0001
0010
0100
,
1000
0100
1000
0000
1000
0001
0100
0000
,
0010
0000
0010
0000
1000
0010
1000
0000
,
0001
1000
0100
0000
0010
0000
0010
0000
,
0100
0000
0100
0000
1000
0001
0100
0000
,
0010
0100
0010
0000
1000
0000
1000
0000
,
0001
0000
0010
0000
0100
1000
0001
0000
,
0100
0100
0010
0000
1000
0000
0100
0000
,
0010
0000
0100
0000
1000
0100
1000
0000
,
0001
0000
1000
0000
0010
0100
0001
0000
,
0010
0000
0100
0000
1000
0100
0001
0000
,
0100
0000
0010
0000
0001
1000
0100
0000
,
0010
0000
0100
0000
1000
0100
1000
0000
,
0001
0000
1000
0000
0010
0100
0010
0000
,
1000
0000
0001
0000
1000
0100
1000
0100
,
0010
0000
0001
0000
1000
0000
0001
0100
,
0010
1000
0100
0000
0010
0000
0100
1000
,
0001
0000
1000
0000
0010
1000
0100
0000
,
0010
0000
0001
0101
0000
0000
0000
0000
,
0010
0000
0100
1100
0000
0000
0000
0000
,
1000
0000
0010
0110
0000
0000
0000
0000
,
0001
0000
0010
0011
0000
0000
0000
0000
,
1000
1001
0010
0110
,
0001
0101
0000
1000
,
0001
0000
1001
0010
0000
0000
0100
0100
,
0010
0000
0000
1000
0000
0100
0000
0000
,
0010
0001
0100
1000
,
0100
0000
0001
0000
0010
0100
0010
0000
,
0001
0100
0010
1000
,
0100
0000
0010
0000
0001
1000
0001
0000
,
0010
0001
0010
1000
,
0100
0000
0010
0000
0001
1000
0001
1000
,
0100
0010
0100
1000
,
0001
0000
0100
0000
0010
0100
0010
0100
,
0001
0010
1000
0100
,
0010
0000
0001
0000
0100
0001
0100
0001
,
1000
0001
0010
0100
,
1000
0000
0010
0000
1000
0100
1000
0100
,
0010
0010
0010
0010
,
0001
1000
0001
0001
,
0100
0100
0100
0100
,
0010
0010
0010
0010
,
1000
0000
0000
1000
0000
0000
1000
0000
0001
0000
0000
0001
0000
0000
0001
0000
,
0010
0000
0000
0010
0000
0000
0010
0000
0100
0000
0000
0100
0000
0000
0100
0000
,
1000
0000
0000
1000
0000
0000
1000
0000
0100
0000
0000
0100
0000
0000
0100
0000
,
0010
0000
0000
0010
0000
0000
0010
0000
0001
0000
0000
0001
0000
0000
0001
0000
,
1000
0000
0000
0000
;

//---------------dance-single - ----------------
#NOTEDATA:;
#CHARTNAME:;
#STEPSTYPE:dance-single;
#DESCRIPTION:;
#CHARTSTYLE:;
#DIFFICULTY:Easy;
#METER:4;
#RADARVALUES:0.196932,0.215395,0.034463,0.249858,0.000000,160.000000,156.000000,4.000000,29.000000,0.000000,0.000000,0.000000,0.000000,0.000000,0.196932,0.215395,0.034463,0.249858,0.000000,160.000000,156.000000,4.000000,29.000000,0.000000,0.000000,0.000000,0.000000,0.000000;
#CREDIT:;
#DISPLAYBPM:0.000000;
#NOTES:
0000
0000
0000
0000
,
0000
0000
0000
0000
,
0000
0000
0000
0000
,
0000
0000
0000
0000
,
1000
1000
0100
0010
,
0100
0100
0010
0000
,
0001
0001
1000
0001
,
0100
0100
0010
0000
,
0100
0001
0100
0100
,
0001
1000
0100
0000
,
0010
0010
0100
0010
,
0100
1000
0001
0000
,
1000
1000
0001
1000
,
0010
1000
0100
0000
,
1000
0001
0010
0001
,
0100
0001
0010
0001
,
0100
0010
1000
0010
,
0100
0001
0100
0000
,
0010
1000
0100
1000
,
0001
1000
0100
1000
,
0001
0010
0001
1000
,
0001
0100
0010
1000
,
0100
0020
0030
0001
,
1000
0002
0003
1000
,
0010
0200
0300
0001
,
0010
0200
0300
1000
,
0002
1003
0020
0130
,
0002
1003
0000
0100
,
0010
0200
0300
1000
,
0001
2000
3000
0010
,
1000
0200
0300
0002
,
0003
0010
0100
1000
,
0100
0020
0030
0002
,
0003
1000
0001
0100
,
0010
2000
3000
0200
,
0300
0010
0001
0100
,
0001
0020
0030
0200
,
0300
1000
0001
0100
,
0010
2000
3000
0200
,
0300
0010
0100
1000
,
0001
0020
0030
0002
,
0003
1000
0001
0100
,
0001
0001
1000
1000
,
0100
0010
0100
0010
,
0001
0001
0001
0001
,
1000
1000
1000
1000
,
0010
1000
0001
0010
,
0100
1000
0001
0100
,
0202
0303
2002
3003
,
2200
3300
2002
3003
,
0001
0000
0000
0000
;

//---------------dance-single - ----------------
#NOTEDATA:;
#CHARTNAME:;
#STEPSTYPE:dance-single;
#DESCRIPTION:;
#CHARTSTYLE:;
#DIFFICULTY:Beginner;
#METER:1;
#RADARVALUES:0.102159,0.107697,0.000000,0.000000,0.000000,83.000000,83.000000,0.000000,0.000000,0.000000,0.000000,0.000000,0.000000,0.000000,0.102159,0.107697,0.000000,0.000000,0.000000,83.000000,83.000000,0.000000,0.000000,0.000000,0.000000,0.000000,0.000000,0.000000;
#CREDIT:;
#DISPLAYBPM:0.000000;
#NOTES:
0000
0000
0000
0000
,
0000
0000
0000
0000
,
0000
0000
0000
0000
,
0000
0000
0000
0000
,
1000
0000
1000
0000
,
0001
0000
0001
0000
,
0100
0000
0100
0000
,
0010
0000
0010
0000
,
0100
0000
0100
0000
,
0001
0000
0001
0000
,
0010
0000
0010
0000
,
0100
0000
0100
0000
,
1000
0000
1000
0000
,
0001
0000
1000
0000
,
0010
0000
1000
0000
,
0001
0000
0010
0000
,
0100
0000
1000
0000
,
0001
0000
0100
0000
,
0010
0000
0100
0000
,
0001
0000
0100
0000
,
0010
0000
1000
0000
,
0010
0000
0100
0000
,
0001
0000
0000
1000
,
1000
0000
0000
0100
,
0100
0000
0000
0010
,
0010
0000
0000
0001
,
0001
0000
1000
0000
,
0001
0000
0000
0100
,
0100
0000
0000
0010
,
0010
0000
0000
1000
,
1000
0000
0000
0000
,
0100
0000
0100
0000
,
0010
0000
0000
0000
,
0001
0000
0001
0000
,
0100
0000
0000
0000
,
0001
0000
0001
0000
,
1000
0000
0000
0000
,
0010
0000
0010
0000
,
0100
0000
0000
0000
,
0001
0000
0010
0000
,
0100
0000
0000
0000
,
1000
0000
0010
0000
,
0100
0000
0000
0000
,
0100
0000
0000
0000
,
0001
0000
0000
0000
,
0001
0000
0000
0000
,
1000
0000
0010
0000
,
0001
0000
0010
0000
,
1000
0000
0100
0000
,
0001
0000
0100
0000
,
1000
0000
0000
0000
;
