#VERSION:0.83;
#TITLE:The Corrupted Future;
#SUBTITLE:;
#ARTIST:Rainbowdragoneyes;
#TITLETRANSLIT:;
#SUBTITLETRANSLIT:;
#ARTISTTRANSLIT:;
#GENRE:The Messenger;
#ORIGIN:;
#CREDIT:[Ness];
#BANNER:The Messenger - The Corrupted Future.png;
#BACKGROUND:The Messenger - The Corrupted Future-bg.png;
#PREVIEWVID:;
#JACKET:The Messenger - The Corrupted Future-jacket.png;
#CDIMAGE:;
#DISCIMAGE:;
#LYRICSPATH:;
#CDTITLE:;
#MUSIC:The Messenger - The Corrupted Future.mp3;
#OFFSET:-0.035000;
#SAMPLESTART:12.810842;
#SAMPLELENGTH:17.066666;
#SELECTABLE:YES;
#BPMS:0.000=112.500;
#STOPS:;
#DELAYS:;
#WARPS:;
#TIMESIGNATURES:0.000=4=4;
#TICKCOUNTS:0.000=2;
#COMBOS:0.000=1;
#SPEEDS:0.000=1.000=0.000=0;
#SCROLLS:0.000=1.000;
#FAKES:;
#LABELS:0.000=Song Start;
#LASTSECONDHINT:110.984177;
#BGCHANGES:;
#KEYSOUNDS:;
#ATTACKS:
;

//---------------dance-single - ----------------
#NOTEDATA:;
#CHARTNAME:;
#STEPSTYPE:dance-single;
#DESCRIPTION:;
#CHARTSTYLE:;
#DIFFICULTY:Challenge;
#METER:11;
#RADARVALUES:0.665599,0.715798,0.216908,0.199556,1.366523,537.000000,512.000000,25.000000,23.000000,81.000000,6.000000,0.000000,0.000000,0.000000,0.665599,0.715798,0.216908,0.199556,1.366523,537.000000,512.000000,25.000000,23.000000,81.000000,6.000000,0.000000,0.000000,0.000000;
#CREDIT:;
#NOTES:
0000
0000
0000
0000
,
0000
0000
0000
0000
,
0000
0000
0000
0000
,
0000
0000
0000
0000
,
0010
0100
0010
0100
0001
0010
0000
0100
0000
1000
0001
1000
0100
0010
0100
1000
,
0001
1000
0001
0100
0010
1000
0000
0100
0000
0010
0100
0100
1000
0100
0100
1000
,
0001
0100
0010
0100
0001
1000
0000
0100
0000
0010
0100
0100
1000
0001
0001
0100
,
0010
1000
0010
0100
0001
0010
0000
0001
0000
1000
0010
0010
0100
0001
0001
1000
,
0100
0010
0001
1000
0100
0010
0000
0100
0000
1000
0010
0010
0100
0001
0001
1000
,
0100
0010
0100
1000
0001
1000
0000
0100
0000
0010
0001
0001
0100
0001
0001
1000
,
0010
0100
0010
1000
0001
1000
0000
1100
0000
1000
0100
0100
0010
0001
0001
1000
,
0010
0100
0010
1000
0001
0100
0000
0101
0000
0001
0010
0010
0100
1000
1000
0010
,
0100
0001
1000
0100
0010
0001
0000
1001
0000
1000
0010
0010
1000
0100
0100
0010
,
0001
1000
0001
0100
0010
1000
0000
0110
0000
1000
0100
0100
0010
0001
0001
1000
,
0010
1000
0010
0100
0001
0010
0000
1100
0000
0010
0001
0100
0010
0100
0001
1000
,
0100
0010
0100
1000
0010
0100
0000
1010
0000
1000
0001
1000
0100
0010
0001
0100
,
0001
0010
0100
0010
0001
1000
0000
0101
0000
1000
0100
0010
0100
1000
0010
0100
,
0010
1000
0001
1000
0100
1000
0000
0101
0000
1000
0100
0010
0100
1000
0001
1000
,
0010
0100
0010
1000
0100
0010
0000
1100
0000
0010
0001
0100
0010
1000
0001
1000
,
0010
0100
0001
0010
0100
1000
0000
0101
0000
0001
1000
0001
0010
0100
0010
0001
,
1000
0100
0010
0100
1000
0010
0000
1001
0000
0100
0010
1000
0100
0010
0001
1000
,
0001
0100
0010
1000
0100
0010
0000
1100
0000
0010
0001
0001
1000
0010
0010
0000
,
0101
0000
0000
0000
00M0
0000
0000
0000
0000
0001
0000
0000
M200
0000
0000
0000
0000
0000
1000
0000
00M0
0000
0000
0000
0000
0000
0000
0000
0000
0000
0010
0000
000M
0000
0000
0000
0000
0000
0000
0001
M000
0000
0000
0000
0000
0000
0000
0000
,
0310
0000
0000
0000
000M
0000
0000
0000
0M00
0020
0000
0000
1000
0000
0000
0000
0000
0000
0200
0000
M000
0000
0000
0000
0330
0000
0000
0000
000M
0000
0110
0000
0000
0000
0000
0000
0000
0000
0000
0101
M000
0000
0000
0000
0000
0000
0000
0000
,
10M1
0000
0000
0000
0000
0000
0000
0000
0000
1000
0000
0000
020M
0000
0000
0000
0000
0000
0010
0000
M000
0000
0000
0000
0000
0000
0000
0000
00M0
0000
0001
0000
0000
0000
0000
0000
0000
0000
0000
1000
000M
0000
0000
0000
0000
0000
0000
0000
,
0310
0000
0000
0000
M000
0000
0000
0000
0000
0010
0000
0000
0002
0000
0000
0000
00M0
0000
0200
0000
0000
0000
0000
0000
M303
0000
0000
0000
0000
0000
0101
0000
0000
0000
0000
0000
00M0
0000
0000
1100
0000
0000
0000
0000
0000
0000
0000
0000
,
2002
0000
0000
0000
0000
0000
0000
0000
0000
0000
0000
0000
0000
0000
0000
0000
0M00
0000
0000
0000
0000
0000
0000
0000
3003
0000
0000
0000
0000
0000
0000
0000
0000
0000
0000
0000
0000
0000
0000
0000
0000
0000
0000
0000
0000
0000
0000
0000
0202
0000
0000
0000
0000
0000
0000
0000
0000
0000
0000
0000
0000
0000
0000
0000
00M0
0000
0000
0000
0000
0000
0000
0000
0303
0000
0000
0000
0000
0000
0000
0000
0000
0000
0000
0000
0000
0000
0000
0000
0000
0000
0000
0000
0000
0000
0000
0000
2002
0000
0000
0000
0000
0000
0000
0000
0000
0000
0000
0000
0000
0000
0000
0000
00M0
0000
0000
0000
0000
0000
0000
0000
3003
0000
0000
0000
0000
0000
0000
0000
0000
0000
0000
0000
0000
0000
0000
0000
0000
0000
0000
0000
0000
0000
0000
0000
2200
0000
0000
0000
0000
0000
0000
0000
0000
0000
0000
0000
0000
0000
0000
0000
000M
0000
0000
0000
0000
0000
0000
0000
3300
0000
0000
0000
0000
0000
0000
0000
0000
0000
0000
0000
0010
0000
0000
0000
0000
0000
0100
0000
0000
0000
0000
0000
,
0010
0000
0000
0000
0000
0000
0000
0000
000M
0000
0000
0000
0220
0000
0000
0000
0000
0000
0000
0000
M000
0000
0000
0000
0000
0000
0000
0000
000M
0000
1000
0000
0000
0000
0000
0000
0000
0000
0000
0001
0000
0000
0000
0000
0000
0000
0000
0000
,
1330
0000
0000
0000
0000
0000
0M02
0000
0000
2000
0000
0000
00M0
0000
0000
0000
0M00
0000
0010
0000
0000
0010
0000
0000
,
3103
0000
0000
0000
0000
0000
0000
0000
00M0
0000
0000
0000
0000
0000
0000
0000
M000
0000
0201
0000
0000
0000
0000
0000
0000
0000
0000
0000
00M0
0000
1000
0000
0000
0000
0000
0000
0000
0000
0000
0001
M000
0000
0000
0000
0000
0000
0000
0000
,
0310
0000
0000
0000
000M
0000
0000
0000
0000
0010
0000
0000
1M00
0000
0000
0000
0000
0000
0100
0000
0000
0000
0000
0000
0000
0000
0000
0001
M000
0000
0000
0000
0000
0000
0000
0000
0010
0000
0000
0000
000M
0000
0000
0000
0000
1000
0000
0000
,
0000
0000
0000
0000
00M0
0000
0100
0000
0000
0001
0000
0000
0000
0000
0000
0000
M000
0000
0010
0000
0000
0000
0000
0000
0100
0000
0000
0000
000M
0000
1000
0000
0000
0000
0000
0000
00M1
0000
0000
0100
0000
0000
0000
0000
0000
0100
0000
0000
,
M010
0000
0000
0000
0000
0000
0000
0000
000M
1000
0000
0000
0200
0000
0000
0000
0000
0000
0010
0000
M000
0000
0000
0000
0300
0000
0000
1000
000M
0000
0000
0000
0000
0000
0000
0000
0M01
0000
0000
0000
0000
0000
0000
0000
M000
0010
0000
0000
,
0000
0000
0000
0000
0M00
0000
0001
0000
0000
1000
0000
0000
00M0
0000
0000
0000
0000
0000
0010
0000
M000
0000
0000
0000
0100
0000
0000
0000
0000
0000
0001
0000
M000
0000
0000
0000
0010
0000
0000
0100
0000
0000
0000
0000
000M
1000
0000
0000
,
0100
0000
0000
0000
0000
0000
0000
0000
00M0
1000
0000
0000
0000
0000
0000
0000
0M00
0000
0002
0000
0000
0000
0000
0000
M000
0000
0000
0013
0000
0000
0100
0000
0000
1000
0000
0000
0010
0000
0000
0100
0000
0000
0001
0000
M000
0010
0000
0000
,
0000
0000
0000
0000
0000
0000
0100
0000
000M
1000
0000
0000
0000
0000
0000
0000
0000
0000
1001
0000
0M00
0000
0000
0000
0001
0000
0000
0000
0000
0000
0010
0000
M000
0000
0000
0000
0100
0000
0000
0000
0000
0000
1000
0000
000M
0100
0000
0000
,
0000
0000
0000
0000
0000
0000
0001
0000
00M0
0000
0000
0000
0000
0000
0000
0000
M000
0000
0010
0000
0000
0000
0000
0000
0000
0000
0000
1000
000M
0000
0000
0000
0000
0000
0000
0000
0100
0000
0000
0000
0000
0000
0000
0000
0000
0010
0000
0000
,
0M00
0000
0000
0000
0000
0000
0001
0000
M000
0100
0000
0000
0000
0000
0000
0000
0000
0000
0010
0000
000M
0000
0000
0000
1000
0000
0000
0000
0000
0000
0100
0000
0000
0000
0000
0000
1000
0000
0000
0001
00M0
0000
0000
0000
0000
1000
0000
0000
,
0001
0000
0000
0000
0000
0000
0000
0000
0000
0100
0000
0000
M000
0000
0000
0000
0000
0000
0020
0000
0000
0000
0000
0000
0000
0000
0000
0031
0M00
0000
0000
0000
0000
0000
0000
0000
0100
0000
0000
0000
M000
0000
0000
0000
0000
0010
0000
0000
,
0000
0000
0000
0000
0000
0000
1000
0000
000M
0100
0000
0000
0000
0000
0000
0000
0000
0000
0010
0000
0000
0000
0000
0000
0M01
0000
0000
0000
0000
0000
1000
0000
0000
0000
0000
0000
01M0
0000
0000
1000
0000
0000
0000
0000
0000
0001
0000
0000
,
1000
0000
0000
0000
0M00
0000
0000
0000
0000
0010
0000
0000
0000
0000
0000
0000
M000
0000
0200
0000
0000
0000
0000
0000
0000
0000
0000
0301
00M0
0000
0000
0000
0000
0000
0000
0000
1000
0000
0000
0000
0M00
0000
0000
0000
0000
0001
0000
0000
,
M000
0000
0010
0100
000M
0000
1000
0000
0M10
0000
1000
0000
00M1
0100
0000
0001
,
1000
0100
0010
1000
0100
0010
1000
0100
0010
1000
0100
0010
1000
0100
0010
1000
,
0100
0010
1000
0100
0010
1000
0100
0010
1000
0100
0010
1000
0100
0010
1000
0100
,
0010
0001
0100
0010
0001
0100
0010
0001
0100
0010
0001
0100
0010
0001
0100
0010
,
0001
0100
0010
0001
0100
0010
0001
0100
0010
0001
0100
0010
0001
0100
0010
0001
,
0100
0010
1000
0100
0010
1000
0100
0010
0001
0100
0010
0001
0100
0010
0001
0100
,
0010
1000
0100
0010
1000
0100
0010
1000
0100
0010
0001
0100
0010
0001
0100
0010
,
1000
0100
0010
0001
0100
0010
1000
0100
0010
0001
0100
0010
1000
0100
0010
0001
,
0100
0010
0001
0100
0010
1000
0100
0010
0001
0100
0010
1000
0100
0010
0001
1000
,
0100
0000
0000
0000
;

//---------------dance-single - ----------------
#NOTEDATA:;
#CHARTNAME:;
#STEPSTYPE:dance-single;
#DESCRIPTION:;
#CHARTSTYLE:;
#DIFFICULTY:Hard;
#METER:8;
#RADARVALUES:0.417704,0.390435,0.303672,0.121469,0.338377,337.000000,300.000000,35.000000,14.000000,0.000000,2.000000,0.000000,0.000000,0.000000,0.417704,0.390435,0.303672,0.121469,0.338377,337.000000,300.000000,35.000000,14.000000,0.000000,2.000000,0.000000,0.000000,0.000000;
#CREDIT:;
#DISPLAYBPM:0.000000;
#NOTES:
0000
0000
0000
0000
,
0000
0000
0000
0000
,
0000
0000
0000
0000
,
0000
0000
0000
0000
,
0001
0000
1000
0000
0100
0000
0000
1100
0000
0000
1000
0000
0001
0000
0100
0000
,
0010
0000
1000
0000
0100
0000
0000
0110
0000
0000
0001
0000
0010
0000
1000
0000
,
0010
0000
0001
0000
0100
0000
0000
0101
0000
0000
1000
0000
0010
0000
0100
0000
,
0010
0000
1000
0000
0100
0000
0000
1001
0000
0000
1000
0000
0100
0000
0010
0000
,
0001
0000
0100
0000
0010
0000
0000
1001
0000
0000
1000
0000
0010
0000
0001
0000
,
0010
0000
0100
0000
0001
0000
0000
1001
0000
0000
1000
0000
0100
0000
0010
0000
,
0001
0000
0100
0000
0010
0000
0000
0110
0000
0000
1000
0000
0010
0000
0001
0000
,
0010
0000
0100
0000
0010
0000
0000
1100
0000
0000
1000
0000
0001
0000
0100
0000
,
0010
0000
1000
0000
0100
0000
0000
0110
0000
0000
0001
0000
1000
0000
0100
0000
,
0010
0000
0001
0000
0100
0000
0000
0101
0000
0000
1000
0000
0010
0000
0100
0000
,
0001
0000
0010
0000
0100
0000
0000
1100
0000
0000
1000
0000
0001
0000
1000
0000
,
0010
0000
1000
0000
0001
0000
0000
1100
0000
0000
1000
0000
0001
0000
0100
0000
,
0010
0000
0100
0000
0001
0000
0000
0101
0000
0000
1000
0000
0010
0000
0100
0000
,
0001
0000
0010
0000
0100
0000
0000
0110
0000
0000
1000
0000
0001
0000
1000
0000
,
0010
0000
0100
0000
0001
0000
0000
0101
0000
0000
1000
0000
0001
0000
1000
0000
,
0010
0000
1000
0000
0100
0000
0000
1100
0000
0000
1000
0000
0001
0000
0100
0000
,
0010
0000
0100
0000
0001
0000
0000
0011
0000
0000
1000
0000
0001
0000
1000
0000
,
0010
0000
0100
0000
0001
0000
0000
1100
0000
0000
0010
0000
0100
0000
0000
0000
,
1001
0000
0000
0110
0000
0000
2002
0000
3003
0000
0010
0000
0000
0001
0000
0000
,
0101
0000
0000
0000
0020
0000
1000
0000
0030
0000
0100
0000
0000
0110
0000
0000
,
1100
0000
0000
0000
0200
0000
0001
0000
0300
0000
0010
0000
0000
0001
0000
0000
,
0011
0000
0000
0000
1001
0000
0020
0000
0000
0000
1030
0000
0000
0100
0000
0000
,
0201
0000
0000
0000
1300
0000
0000
0000
1200
0000
0000
0000
0301
0000
0000
1000
,
0100
0000
0000
0000
1020
0000
0000
0000
0030
0000
0001
0000
0000
0010
0000
0000
,
0100
0000
0000
2220
3330
0000
0001
0001
,
0001
0000
0000
0000
0000
0000
0222
0000
0333
0000
1000
0000
0000
1000
0000
0000
,
0100
0000
0000
0010
0000
0000
1000
0000
0000
0001
0000
0000
0100
0000
0000
0010
,
0000
0000
1000
0100
0000
0000
0010
0000
0001
0000
0010
0000
0100
1000
0000
0100
,
1000
0000
0000
0001
0000
0000
0100
0000
0000
0010
0000
0000
1000
0000
0000
0100
,
0000
0000
1000
0001
0000
0000
0100
0000
0010
0000
0100
0000
0001
1000
0000
0001
,
1000
0000
0000
0100
0000
0000
0010
0000
0000
0001
0000
0000
0100
0000
0000
0010
,
0000
0000
1000
0100
0000
0000
1000
0000
0001
0000
0010
0000
0001
0100
0000
0010
,
1000
0000
0000
0010
0000
0000
0100
0000
0000
0001
0000
0000
0010
0000
0000
0100
,
0000
0000
0010
0001
0000
0000
1000
0000
0100
0000
0001
0000
0100
0010
0000
1000
,
0010
0000
0000
0001
0000
0000
0100
0000
0000
0010
0000
0000
1000
0000
0000
0100
,
0000
0000
1000
0010
0000
0000
0100
0000
1000
0000
0100
0000
0001
0100
0000
1000
,
0100
0000
0000
0010
0000
0000
1000
0000
0000
0100
0000
0000
1000
0000
0000
0001
,
0000
0000
0010
0100
0000
0000
1000
0000
0010
0000
0100
0000
0001
0010
0000
1000
,
0100
0000
0100
0000
1000
0000
0000
0001
0000
0000
0100
0000
0000
0010
0000
0000
,
1000
0000
1000
0000
0010
0000
0000
0100
0000
0000
0001
0000
0000
0010
0000
0000
,
0100
0000
0100
0000
0010
0000
0000
0001
0000
0000
0100
0000
0000
1000
0000
0000
,
0010
0000
0010
0000
0100
0000
0000
1000
0000
0000
0100
0000
0000
0001
0000
0000
,
0011
0000
0000
0100
0000
0000
1000
0000
1100
0000
0000
0010
0000
0000
0001
0000
,
0101
0000
0000
0001
0000
0000
1000
0000
0110
0000
0000
0010
0100
0000
0010
0000
,
1000
0000
0000
0001
0010
0000
0001
0000
1000
0000
0000
0010
0100
0000
0001
0000
,
1000
0000
0000
0100
0010
0000
0001
0000
0100
0000
0000
0010
1000
0000
0001
0000
,
0100
0000
0000
0000
;

//---------------dance-single - ----------------
#NOTEDATA:;
#CHARTNAME:;
#STEPSTYPE:dance-single;
#DESCRIPTION:;
#CHARTSTYLE:;
#DIFFICULTY:Medium;
#METER:6;
#RADARVALUES:0.290038,0.281981,0.138821,0.000000,0.034705,234.000000,218.000000,16.000000,0.000000,16.000000,0.000000,0.000000,0.000000,0.000000,0.290038,0.281981,0.138821,0.000000,0.034705,234.000000,218.000000,16.000000,0.000000,16.000000,0.000000,0.000000,0.000000,0.000000;
#CREDIT:;
#DISPLAYBPM:0.000000;
#NOTES:
0000
0000
0000
0000
,
0000
0000
0000
0000
,
0000
0000
0000
0000
,
0000
0000
0000
0000
,
1010
1000
0100
0010
,
0001
0010
0001
0000
0001
1000
0010
0000
,
0101
0000
0100
0000
0001
0100
0001
0000
,
1000
0001
0010
0000
0100
0000
0100
0000
,
0110
0000
0010
0000
0001
1000
0010
0000
,
0100
0010
0100
0000
0001
0000
0001
0000
,
1001
0000
0100
0000
0010
0001
1000
0000
,
0010
0010
0100
0000
0001
0000
0010
0000
,
1100
0000
0010
0000
0001
0010
0001
0000
,
1000
0000
0001
0000
0100
0010
1000
0000
,
0101
0000
0010
0000
0001
0010
1000
0000
,
0010
0000
0100
0000
1000
0001
0010
0000
,
1010
0000
0010
0000
0001
0010
0001
0000
,
1000
0000
0001
0000
0100
0010
0100
0000
,
0011
0000
1000
0000
0001
0010
0001
0010
,
0100
0000
1000
0000
0001
0000
1000
0010
,
0100
0001
0010
0000
0100
0000
0010
0001
,
1000
0000
0001
0000
0100
0001
0010
0000
,
0100
0000
1000
1010
0000
0000
MMMM
0000
,
0100
0000
0010
0011
0000
0000
MMMM
0000
,
0001
0000
0100
0110
0000
0000
MMMM
0000
,
1000
0000
0100
1100
0000
0000
MMMM
0000
,
0001
1001
0100
0110
,
1000
1010
0000
0001
,
1000
0000
1001
0100
0000
0000
0010
0010
,
0100
0000
0000
0001
0000
0010
0000
0000
,
0100
1000
0010
0001
,
0010
0000
1000
0000
0100
0010
0100
0000
,
1000
0010
0100
0001
,
0010
0000
0100
0000
1000
0001
1000
0000
,
0100
1000
0100
0001
,
0010
0000
0100
0000
1000
0001
1000
0001
,
0010
0100
0010
0001
,
1000
0000
0010
0000
0100
0010
0100
0010
,
1000
0100
0001
0010
,
0100
0000
1000
0000
0010
1000
0010
1000
,
0001
1000
0100
0010
,
0001
0000
0100
0000
0001
0010
0001
0010
,
0100
0100
0100
0100
,
1000
0001
1000
1000
,
0010
0010
0010
0010
,
0100
0100
0100
0100
,
0001
0000
0000
0001
0000
0000
0001
0000
1000
0000
0000
1000
0000
0000
1000
0000
,
0100
0000
0000
0100
0000
0000
0100
0000
0010
0000
0000
0010
0000
0000
0010
0000
,
0001
0000
0000
1000
0000
0000
0010
0000
0100
0000
0000
0001
0000
0000
1000
0000
,
0100
0000
0000
0010
0000
0000
0001
0000
0100
0000
0000
0001
0000
0000
1000
0000
,
0100
0000
0000
0000
;

//---------------dance-single - ----------------
#NOTEDATA:;
#CHARTNAME:;
#STEPSTYPE:dance-single;
#DESCRIPTION:;
#CHARTSTYLE:;
#DIFFICULTY:Easy;
#METER:4;
#RADARVALUES:0.198316,0.216908,0.034705,0.251614,0.000000,160.000000,156.000000,4.000000,29.000000,0.000000,0.000000,0.000000,0.000000,0.000000,0.198316,0.216908,0.034705,0.251614,0.000000,160.000000,156.000000,4.000000,29.000000,0.000000,0.000000,0.000000,0.000000,0.000000;
#CREDIT:;
#DISPLAYBPM:0.000000;
#NOTES:
// measure 0
0000
0000
0000
0000
,  // measure 1
0000
0000
0000
0000
,  // measure 2
0000
0000
0000
0000
,  // measure 3
0000
0000
0000
0000
,  // measure 4
0001
0001
0010
0100
,  // measure 5
0010
0010
0100
0000
,  // measure 6
1000
1000
0001
1000
,  // measure 7
0010
0010
0100
0000
,  // measure 8
0010
1000
0010
0010
,  // measure 9
1000
0001
0010
0000
,  // measure 10
0100
0100
0010
0100
,  // measure 11
0010
0001
1000
0000
,  // measure 12
0001
0001
1000
0001
,  // measure 13
0100
0001
0010
0000
,  // measure 14
0001
1000
0100
1000
,  // measure 15
0010
1000
0100
1000
,  // measure 16
0010
0100
0001
0100
,  // measure 17
0010
1000
0010
0000
,  // measure 18
0100
0001
0010
0001
,  // measure 19
1000
0001
0010
0001
,  // measure 20
1000
0100
1000
0001
,  // measure 21
1000
0010
0100
0001
,  // measure 22
0010
0200
0300
1000
,  // measure 23
0001
2000
3000
0001
,  // measure 24
0100
0020
0030
1000
,  // measure 25
0100
0020
0030
0001
,  // measure 26
2000
3001
0200
0310
,  // measure 27
2000
3001
0000
0010
,  // measure 28
0100
0020
0030
0001
,  // measure 29
1000
0002
0003
0100
,  // measure 30
0001
0020
0030
2000
,  // measure 31
3000
0100
0010
0001
,  // measure 32
0010
0200
0300
2000
,  // measure 33
3000
0001
1000
0010
,  // measure 34
0100
0002
0003
0020
,  // measure 35
0030
0100
1000
0010
,  // measure 36
1000
0200
0300
0020
,  // measure 37
0030
0001
1000
0010
,  // measure 38
0100
0002
0003
0020
,  // measure 39
0030
0100
0010
0001
,  // measure 40
1000
0200
0300
2000
,  // measure 41
3000
0001
1000
0010
,  // measure 42
1000
1000
0001
0001
,  // measure 43
0010
0100
0010
0100
,  // measure 44
1000
1000
1000
1000
,  // measure 45
0001
0001
0001
0001
,  // measure 46
0100
0001
1000
0100
,  // measure 47
0010
0001
1000
0010
,  // measure 48
2020
3030
2002
3003
,  // measure 49
0022
0033
2002
3003
,  // measure 50
1000
0000
0000
0000
;

//---------------dance-single - ----------------
#NOTEDATA:;
#CHARTNAME:;
#STEPSTYPE:dance-single;
#DESCRIPTION:;
#CHARTSTYLE:;
#DIFFICULTY:Beginner;
#METER:1;
#RADARVALUES:0.102877,0.108454,0.000000,0.000000,0.000000,83.000000,83.000000,0.000000,0.000000,0.000000,0.000000,0.000000,0.000000,0.000000,0.102877,0.108454,0.000000,0.000000,0.000000,83.000000,83.000000,0.000000,0.000000,0.000000,0.000000,0.000000,0.000000,0.000000;
#CREDIT:;
#DISPLAYBPM:0.000000;
#NOTES:
// measure 0
0000
0000
0000
0000
,  // measure 1
0000
0000
0000
0000
,  // measure 2
0000
0000
0000
0000
,  // measure 3
0000
0000
0000
0000
,  // measure 4
0001
0000
0001
0000
,  // measure 5
1000
0000
1000
0000
,  // measure 6
0010
0000
0010
0000
,  // measure 7
0100
0000
0100
0000
,  // measure 8
0010
0000
0010
0000
,  // measure 9
1000
0000
1000
0000
,  // measure 10
0100
0000
0100
0000
,  // measure 11
0010
0000
0010
0000
,  // measure 12
0001
0000
0001
0000
,  // measure 13
1000
0000
0001
0000
,  // measure 14
0100
0000
0001
0000
,  // measure 15
1000
0000
0100
0000
,  // measure 16
0010
0000
0001
0000
,  // measure 17
1000
0000
0010
0000
,  // measure 18
0100
0000
0010
0000
,  // measure 19
1000
0000
0010
0000
,  // measure 20
0100
0000
0001
0000
,  // measure 21
0100
0000
0010
0000
,  // measure 22
1000
0000
0000
0001
,  // measure 23
0001
0000
0000
0010
,  // measure 24
0010
0000
0000
0100
,  // measure 25
0100
0000
0000
1000
,  // measure 26
1000
0000
0001
0000
,  // measure 27
1000
0000
0000
0010
,  // measure 28
0010
0000
0000
0100
,  // measure 29
0100
0000
0000
0001
,  // measure 30
0001
0000
0000
0000
,  // measure 31
0010
0000
0010
0000
,  // measure 32
0100
0000
0000
0000
,  // measure 33
1000
0000
1000
0000
,  // measure 34
0010
0000
0000
0000
,  // measure 35
1000
0000
1000
0000
,  // measure 36
0001
0000
0000
0000
,  // measure 37
0100
0000
0100
0000
,  // measure 38
0010
0000
0000
0000
,  // measure 39
1000
0000
0100
0000
,  // measure 40
0010
0000
0000
0000
,  // measure 41
0001
0000
0100
0000
,  // measure 42
0010
0000
0000
0000
,  // measure 43
0010
0000
0000
0000
,  // measure 44
1000
0000
0000
0000
,  // measure 45
1000
0000
0000
0000
,  // measure 46
0001
0000
0100
0000
,  // measure 47
1000
0000
0100
0000
,  // measure 48
0001
0000
0010
0000
,  // measure 49
1000
0000
0010
0000
,  // measure 50
0001
0000
0000
0000
;
