#VERSION:0.83;
#TITLE:The Clockwork Concierge;
#SUBTITLE:(Elemental Skylands Boss);
#ARTIST:Rainbowdragoneyes;
#TITLETRANSLIT:;
#SUBTITLETRANSLIT:;
#ARTISTTRANSLIT:;
#GENRE:The Messenger;
#ORIGIN:;
#CREDIT:[Ness];
#BANNER:The Messenger - The Clockwork Concierge (Elemental Skylands Boss).png;
#BACKGROUND:The Messenger - The Clockwork Concierge (Elemental Skylands Boss)-bg.png;
#PREVIEWVID:;
#JACKET:The Messenger - The Clockwork Concierge (Elemental Skylands Boss)-jacket.png;
#CDIMAGE:;
#DISCIMAGE:;
#LYRICSPATH:;
#CDTITLE:;
#MUSIC:The Messenger - The Clockwork Concierge (Elemental Skylands Boss).mp3;
#OFFSET:-0.015000;
#SAMPLESTART:50.811050;
#SAMPLELENGTH:9.912235;
#SELECTABLE:YES;
#DISPLAYBPM:194.000000;
#BPMS:0.000=193.700;
#STOPS:;
#DELAYS:;
#WARPS:;
#TIMESIGNATURES:0.000=4=4;
#TICKCOUNTS:0.000=2;
#COMBOS:0.000=1;
#SPEEDS:0.000=1.000=0.000=0;
#SCROLLS:0.000=1.000;
#FAKES:;
#LABELS:0.000=Song Start;
#LASTSECONDHINT:91.739021;
#BGCHANGES:;
#KEYSOUNDS:;
#ATTACKS:
;

//---------------dance-single - ----------------
#NOTEDATA:;
#CHARTNAME:;
#STEPSTYPE:dance-single;
#DESCRIPTION:;
#CHARTSTYLE:;
#DIFFICULTY:Challenge;
#METER:10;
#RADARVALUES:1.062783,0.955140,0.021225,0.042451,2.287030,701.000000,699.000000,2.000000,4.000000,0.000000,0.000000,12.000000,0.000000,0.000000,1.062783,0.955140,0.021225,0.042451,2.287030,701.000000,699.000000,2.000000,4.000000,0.000000,0.000000,12.000000,0.000000,0.000000;
#CREDIT:;
#DISPLAYBPM:0.000000;
#NOTES:
0000
0000
0000
0000
,
0000
0000
0000
0000
,
0100
0000
0001
0010
0000
0100
1000
0000
0010
0100
0001
1000
,
0100
0000
0010
0001
0000
1000
0010
0100
0001
0010
0000
0100
,
1000
0000
0100
0010
0000
0001
0100
0000
0001
0010
0100
0010
,
0004
0040
0000
0003
0400
0030
0000
4000
0300
0000
0001
3000
,
0001
0000
0001
0100
0010
1000
0100
0000
1000
0100
0010
0001
,
0100
0001
1000
0010
0100
0010
1000
0000
0001
0010
0100
1000
,
0100
0000
0010
0001
0100
0001
0010
0000
0100
1000
0010
0100
,
0001
0010
0100
1000
0010
0001
1000
0100
0010
1000
0100
0010
,
0001
1000
0001
0100
0010
1000
0001
1000
0001
0100
0010
1000
,
0100
0010
0100
1000
0001
0010
0100
0010
0100
1000
0001
0100
,
0010
1000
0001
1000
0100
0010
0001
1000
0001
0100
0010
1000
,
0100
0010
0100
1000
0001
0010
0100
0010
0001
1000
0010
0100
,
0001
0010
0001
1000
0010
0100
0001
1000
0100
1000
0010
1000
,
0100
0010
0001
0100
0010
0100
0001
0010
0100
1000
0010
0100
,
0001
1000
0100
1000
0001
1000
0010
0100
0001
1000
0001
0100
,
0004
4000
0000
0003
0400
3000
0000
0040
0300
0000
0001
0030
,
0001
0000
0001
0100
0000
0100
0010
0000
0010
1000
0000
1000
,
0100
0000
0001
0010
0000
0100
1000
0000
0010
0100
0000
0100
,
0001
0000
0001
1000
0000
1000
0010
0000
0010
0100
0000
0100
,
0001
0000
0010
1000
0000
0100
0010
0000
0001
1000
0000
1000
,
0010
0000
0010
0001
0000
0001
0100
0000
0100
1000
0000
1000
,
0010
0000
0100
0001
0000
0010
0100
0000
1000
0010
0000
0100
,
0001
0010
0100
1000
0010
0100
0001
0010
0100
1000
0010
0100
,
0001
0100
0010
1000
0100
0010
0001
0100
0010
1000
0100
0010
,
0001
0000
1000
0001
0000
1000
0010
0000
0100
0010
0000
0100
,
0001
0000
0010
0100
0000
1000
0010
0000
0100
0001
0000
1000
,
0100
0000
1000
0001
1000
0001
0100
0000
0010
1000
0010
1000
,
0001
0000
0010
0001
0010
0001
0010
0100
1000
0100
1000
0100
,
1000
0001
1000
0001
0100
0001
0100
0010
0100
0010
1000
0010
,
1000
0100
1000
0001
0010
0100
0010
0001
0010
0001
1000
0010
,
0100
0001
0100
0010
1000
0001
1000
0100
0010
0100
1000
0001
,
1000
0100
0010
0001
0010
0100
1000
0100
0010
0001
0010
0100
,
1000
0010
0100
0001
0100
0010
1000
0010
0100
0001
0100
0010
,
1000
0100
1000
0001
0100
0001
1000
0100
1000
0001
0100
0001
,
2000
0000
0000
0000
0000
0000
0002
0000
0000
0000
0000
3003
,
1001
0000
1000
0001
0000
0010
0100
0000
1000
0010
0100
0001
,
1000
0000
0100
1000
0000
0001
0010
0100
1000
0010
0000
1000
,
0001
0000
0010
0100
0000
1000
0010
0000
0100
0001
1000
0010
,
0100
0000
0001
0010
0000
0100
1000
0010
1000
0001
0000
1000
,
0010
0000
1000
0100
0010
0001
0100
0000
0001
0100
0010
1000
,
0100
1000
0001
0010
0100
0010
0001
0000
1000
0010
0100
0001
,
0100
0000
0010
1000
0100
1000
0010
0000
0100
0001
0010
0100
,
1000
0010
0100
0001
0010
1000
0001
0100
1000
0001
0010
0100
,
1000
0001
1000
0100
0010
0001
1000
0001
1000
0100
0010
0001
,
0100
0010
0100
0001
1000
0010
0100
0010
0100
0001
1000
0100
,
0010
0001
1000
0001
0100
0010
1000
0001
1000
0100
0010
0001
,
0100
0010
0100
0001
1000
0010
0100
0010
1000
0001
0010
0100
,
1000
0010
1000
0001
0010
0100
1000
0001
0100
0001
0010
0001
,
0100
0010
1000
0100
0010
0100
1000
0010
0100
0001
0010
0100
,
1000
0001
0100
0001
1000
0001
0010
0100
1000
0001
1000
0100
,
4000
0004
0000
3000
0400
0003
0000
0040
0300
0000
1000
0030
,
1000
0000
0100
1000
0000
0100
0010
0000
0001
0010
0000
0001
,
0100
0000
1000
0010
0000
0100
0001
0000
0010
0100
0000
1000
,
0100
0000
1000
0001
0000
0010
0001
0000
0010
0100
0000
1000
,
0100
0000
0010
0001
0000
0100
0010
0000
1000
0001
0000
0010
,
0001
0000
0010
1000
0000
0100
1000
0000
0100
0001
0000
0010
,
0001
0000
0100
1000
0000
0010
0100
0000
0001
0010
0000
0100
,
1000
0001
0100
0001
1000
0100
1000
0001
0100
0001
1000
0100
,
1000
0100
0010
0001
0100
0010
1000
0100
0010
0001
0100
0010
,
1000
0000
0001
1000
0000
0001
0010
0000
0100
0010
0000
0100
,
1000
0000
0010
0100
0000
0001
0010
0000
0100
1000
0000
0001
,
0100
0000
0001
1000
0001
1000
0100
0000
0010
0001
0010
0001
,
1000
0000
0010
1000
0010
1000
0010
0100
0001
0100
0001
0100
,
0001
1000
0001
1000
0100
1000
0100
0010
0100
0010
0001
0010
,
0001
0100
0001
1000
0010
0100
0010
1000
0010
1000
0001
0010
,
0100
1000
0100
0010
0001
1000
0001
0100
0010
0100
0001
1000
,
0001
0100
0010
1000
0010
0100
0001
0100
0010
1000
0010
0100
,
0001
0010
0100
1000
0100
0010
0001
0010
0100
1000
0100
0010
,
0001
0100
0001
1000
0100
1000
0001
0100
0001
1000
0100
1000
,
0002
0000
0000
0000
0000
0000
2000
0000
0000
0000
0000
3003
,
1001
0000
0000
0000
;

//---------------dance-single - ----------------
#NOTEDATA:;
#CHARTNAME:;
#STEPSTYPE:dance-single;
#DESCRIPTION:;
#CHARTSTYLE:;
#DIFFICULTY:Hard;
#METER:8;
#RADARVALUES:0.673146,0.687701,0.445732,0.127352,0.684517,444.000000,402.000000,42.000000,12.000000,0.000000,0.000000,0.000000,0.000000,0.000000,0.673146,0.687701,0.445732,0.127352,0.684517,444.000000,402.000000,42.000000,12.000000,0.000000,0.000000,0.000000,0.000000,0.000000;
#CREDIT:;
#DISPLAYBPM:194.000000;
#NOTES:
0000
0000
0000
0000
,
0000
0000
0000
0000
,
1000
0000
0100
1000
0000
0100
1000
0000
0010
0100
0000
0000
,
0001
0000
0010
0001
0000
0010
0001
0000
1000
0010
0000
0000
,
0100
0000
0001
1000
0000
0001
1000
0000
0010
0100
0000
0000
,
0101
1100
0110
1001
,
0010
0000
0000
1000
0100
1000
0100
0000
0000
0010
0000
0000
,
0001
1000
0001
0101
,
0001
0000
0000
0010
0001
0010
0001
0000
0000
1000
0000
0000
,
0010
0110
1001
0100
,
0001
0000
0000
1000
0100
1000
0100
0000
0000
0010
0000
0000
,
0001
0110
1001
0001
,
1000
0000
0000
0001
0100
0001
0100
0000
0000
0010
0000
0000
,
1000
0110
1001
0100
,
0001
0000
0001
0010
0000
0010
1000
0000
1000
0010
0000
0010
,
0001
0000
0001
1000
0000
1000
0001
0000
0001
0100
0000
0000
,
1000
0000
1000
0100
0000
0100
0001
0000
0001
0100
0000
0100
,
1000
0000
1000
0010
0000
0010
0100
0000
0100
0001
0000
0000
,
0101
0010
0100
0010
,
1000
0000
1000
0100
0000
0100
0010
0000
0010
0001
0000
0001
,
1000
0001
0010
0100
,
1000
0010
1001
0100
,
0001
0000
0001
0010
0000
0010
0001
0000
0001
1000
0000
1000
,
0010
0000
0010
1000
0000
0000
0100
0000
0000
0010
0000
0000
,
0110
0001
0110
1000
,
2002
3003
0202
0303
,
1100
0000
1000
0100
0000
1000
0001
0000
1000
0001
0000
0100
,
0001
0000
0100
0001
0000
1000
0001
0000
1000
0001
0000
0010
,
0001
0000
1000
0001
1000
0001
1000
0000
0000
0001
1000
0001
,
1000
0110
0001
1000
,
0001
0110
1001
0110
,
0010
0000
0010
1000
0000
1000
0001
0000
0001
0100
0000
0000
,
0001
0000
0001
0010
0000
0010
0100
0000
0100
1000
0000
0000
,
0001
1000
0010
0100
,
0001
1000
0100
0010
,
0001
0000
0001
0010
0000
0010
0100
0000
0100
1000
0000
1000
,
0020
0000
0200
0330
,
0001
0000
1000
0010
0000
1000
0001
0000
1000
0010
0000
0000
,
0100
0000
0001
0010
0000
0001
0100
0000
0001
0010
0000
0000
,
0100
0000
1000
0001
0000
1000
0010
0000
0100
0001
0000
0000
,
0010
0000
0100
1000
0000
0001
0100
0000
0001
1000
0000
0000
,
0010
0000
0000
1000
0001
1000
0001
0000
0000
0010
0000
0000
,
0100
1000
0001
1100
,
0001
0000
0000
0100
0001
1000
0001
0000
0000
0010
0000
0000
,
0100
1001
1100
1000
,
0001
0000
0000
0010
0001
1000
0001
0000
0000
0100
0000
0000
,
0010
0101
1001
0010
,
1000
0000
0000
0001
0100
0010
1000
0000
0000
0100
0000
0000
,
0010
1100
0011
1000
,
0001
0000
0001
0010
0000
0010
1000
0000
1000
0010
0000
0010
,
0001
0000
0001
1000
0000
1000
0001
0000
0001
0100
0000
0000
,
1000
0000
1000
0100
0000
0100
0001
0000
0001
0100
0000
0100
,
1000
0000
1000
0010
0000
0010
0100
0000
0100
0001
0000
0000
,
0101
1000
0001
1001
,
1000
0000
1000
0100
0000
0100
0010
0000
0010
0001
0000
0001
,
1000
0001
0100
0010
,
1000
0100
0110
0001
,
0010
0000
0010
0001
0000
0001
1000
0000
1000
0100
0000
0100
,
0010
0000
0010
0001
0000
0000
1000
0000
0000
0010
0000
0000
,
1010
0001
0011
1000
,
2002
3003
0220
0330
,
1001
0000
1000
0001
0000
1000
0010
0000
1000
0010
0000
0100
,
0010
0000
0100
0010
0000
0100
0001
0000
0100
0001
0000
1000
,
0001
0000
1000
0100
1000
0100
1000
0000
0000
0001
0100
0001
,
0100
0110
1000
0001
,
0100
1001
0110
1001
,
0010
0000
0010
1000
0000
1000
0001
0000
0001
0100
0000
0000
,
0001
0000
0001
0010
0000
0010
0100
0000
0100
1000
0000
0000
,
0001
1000
0010
0100
,
0001
1000
0100
0010
,
0001
0000
0001
0010
0000
0010
0100
0000
0100
1000
0000
1000
,
0002
0000
2000
3003
,
1001
0000
0000
0000
;

//---------------dance-single - ----------------
#NOTEDATA:;
#CHARTNAME:;
#STEPSTYPE:dance-single;
#DESCRIPTION:;
#CHARTSTYLE:;
#DIFFICULTY:Medium;
#METER:5;
#RADARVALUES:0.447248,0.420262,0.233479,0.127352,0.000000,295.000000,273.000000,22.000000,12.000000,0.000000,0.000000,0.000000,0.000000,0.000000,0.447248,0.420262,0.233479,0.127352,0.000000,295.000000,273.000000,22.000000,12.000000,0.000000,0.000000,0.000000,0.000000,0.000000;
#CREDIT:;
#DISPLAYBPM:194.000000;
#NOTES:
0000
0000
0000
0000
,
0000
0000
0000
0000
,
0001
0010
0100
0010
,
0001
0100
0010
0100
,
1000
0100
0010
1000
,
0100
0010
0100
1000
,
1001
0010
0001
0010
,
1000
0100
0010
0001
,
0101
1000
0010
0100
,
0010
1000
0100
0010
,
0011
0001
1000
0001
,
0100
0010
1000
0100
,
0110
0010
0100
1000
,
0001
1000
0010
0100
,
1001
0010
0001
0010
,
1000
0100
0010
0001
,
0011
1000
0001
0100
,
0010
1000
0100
0010
,
0110
1000
0001
1000
,
0010
0001
0010
1000
,
0100
0010
0100
1000
,
0001
0010
0100
1000
,
1100
1000
0001
0100
,
0010
1000
0001
0010
,
0100
1000
0001
1000
,
0220
0330
2002
3003
,
0001
0010
0001
0100
,
1000
0100
0001
0010
,
0100
1000
0010
1000
,
0100
0010
0100
1000
,
0001
1000
0100
0010
,
0001
0100
0010
0100
,
1000
0100
0001
0100
,
0010
1000
0100
0010
,
0100
1000
0001
1000
,
0010
0001
0010
1000
,
0200
0000
0020
0330
,
1001
0010
1000
0010
,
0100
0001
0010
0100
,
1000
0001
0010
0001
,
1000
0010
0100
0001
,
0101
0010
0100
0010
,
0001
1000
0010
0100
,
1100
0001
0010
1000
,
0010
0001
1000
0010
,
0110
0100
0001
0100
,
1000
0010
0100
0001
,
1010
0010
1000
0001
,
0100
0001
0010
1000
,
0101
0010
0100
0010
,
0001
1000
0010
0100
,
0110
0001
0100
0010
,
1000
0001
0100
0001
,
1100
0001
0100
0001
,
0010
0100
0010
0001
,
1000
0010
1000
0001
,
0100
0010
1000
0001
,
1001
0001
0100
1000
,
0010
0001
0100
0010
,
1000
0001
0100
0001
,
2200
3300
0202
0303
,
0100
0010
0100
0001
,
1000
0100
0010
0100
,
1000
0001
0010
0001
,
1000
0010
1000
0001
,
0100
0001
1000
0010
,
0100
1000
0010
1000
,
0001
1000
0100
1000
,
0001
0010
1000
0010
,
1000
0001
0100
0001
,
0010
0100
0010
0001
,
2000
0000
0002
3003
,
1001
0000
0000
0000
;

//---------------dance-single - ----------------
#NOTEDATA:;
#CHARTNAME:;
#STEPSTYPE:dance-single;
#DESCRIPTION:;
#CHARTSTYLE:;
#DIFFICULTY:Easy;
#METER:4;
#RADARVALUES:0.274413,0.343851,0.010613,0.000000,0.000000,181.000000,180.000000,1.000000,0.000000,0.000000,0.000000,0.000000,0.000000,0.000000,0.274413,0.343851,0.010613,0.000000,0.000000,181.000000,180.000000,1.000000,0.000000,0.000000,0.000000,0.000000,0.000000,0.000000;
#CREDIT:;
#DISPLAYBPM:194.000000;
#NOTES:
// measure 0
0000
0000
0000
0000
,  // measure 1
0000
0000
0000
0000
,  // measure 2
0001
0000
1000
0000
,  // measure 3
0001
0000
1000
0100
,  // measure 4
1000
0000
0001
0000
,  // measure 5
0010
0100
0010
0100
,  // measure 6
0010
0000
0001
0000
,  // measure 7
1000
0001
0100
0000
,  // measure 8
0001
0000
0010
0000
,  // measure 9
0001
1000
0100
0000
,  // measure 10
0010
0000
0100
0000
,  // measure 11
1000
0001
0100
0000
,  // measure 12
0010
0000
1000
0000
,  // measure 13
0001
1000
0010
0000
,  // measure 14
0100
0000
0001
0000
,  // measure 15
0010
0001
0100
0000
,  // measure 16
0001
0000
1000
0000
,  // measure 17
0010
1000
0100
0000
,  // measure 18
0010
0000
0100
0000
,  // measure 19
0010
0001
0010
0001
,  // measure 20
0010
0000
0100
0000
,  // measure 21
1000
0000
0001
0000
,  // measure 22
0100
0010
0100
0010
,  // measure 23
1000
0000
0001
0000
,  // measure 24
0010
0000
0001
0000
,  // measure 25
1000
0000
0100
0000
,  // measure 26
0010
0100
0010
0100
,  // measure 27
0010
0000
0001
0000
,  // measure 28
0100
0000
0010
0000
,  // measure 29
1000
0000
0001
0000
,  // measure 30
0100
0010
0100
0010
,  // measure 31
1000
0000
0100
0000
,  // measure 32
0010
0000
0001
0000
,  // measure 33
1000
0001
1000
0001
,  // measure 34
1000
0001
0100
0010
,  // measure 35
1000
0000
0001
0000
,  // measure 36
0010
0000
0100
0000
,  // measure 37
0110
0000
0000
0000
,  // measure 38
1000
0000
0001
0000
,  // measure 39
0100
0000
0010
0000
,  // measure 40
1000
0000
0100
0000
,  // measure 41
0010
0000
0001
0000
,  // measure 42
1000
0001
0100
0000
,  // measure 43
0010
0000
1000
0000
,  // measure 44
0100
1000
0001
0000
,  // measure 45
0010
0000
0001
0000
,  // measure 46
0100
0010
0100
0000
,  // measure 47
0001
0000
1000
0000
,  // measure 48
0001
0010
0100
0000
,  // measure 49
1000
0000
0001
0000
,  // measure 50
1000
0010
0100
0000
,  // measure 51
0001
0000
1000
0000
,  // measure 52
0100
1000
0001
0000
,  // measure 53
0100
0000
0010
0000
,  // measure 54
0001
1000
0001
1000
,  // measure 55
0100
0010
0100
0000
,  // measure 56
0010
0000
0001
0000
,  // measure 57
1000
0001
1000
0000
,  // measure 58
0100
0000
1000
0000
,  // measure 59
0001
0000
1000
0000
,  // measure 60
0001
0000
0100
0000
,  // measure 61
0010
0100
0010
0100
,  // measure 62
0010
0000
1000
0000
,  // measure 63
0100
0000
0010
0000
,  // measure 64
0001
0000
1000
0000
,  // measure 65
0001
0100
0010
0100
,  // measure 66
0010
0000
1000
0000
,  // measure 67
0100
0000
0010
0000
,  // measure 68
0001
1000
0001
0000
,  // measure 69
0100
0010
0100
0010
,  // measure 70
1000
0100
0010
0001
,  // measure 71
1000
0000
0001
0000
,  // measure 72
0100
0000
0000
0000
;

//---------------dance-single - ----------------
#NOTEDATA:;
#CHARTNAME:;
#STEPSTYPE:dance-single;
#DESCRIPTION:;
#CHARTSTYLE:;
#DIFFICULTY:Beginner;
#METER:2;
#RADARVALUES:0.144029,0.152822,0.000000,0.000000,0.000000,95.000000,95.000000,0.000000,0.000000,0.000000,0.000000,0.000000,0.000000,0.000000,0.144029,0.152822,0.000000,0.000000,0.000000,95.000000,95.000000,0.000000,0.000000,0.000000,0.000000,0.000000,0.000000,0.000000;
#CREDIT:;
#DISPLAYBPM:194.000000;
#NOTES:
// measure 0
0000
0000
0000
0000
,  // measure 1
0000
0000
0000
0000
,  // measure 2
1000
0000
1000
0000
,  // measure 3
1000
0000
0000
0000
,  // measure 4
0001
0000
0001
0000
,  // measure 5
0001
0000
0000
0000
,  // measure 6
0100
0000
0100
0000
,  // measure 7
0100
0000
0000
0000
,  // measure 8
0010
0000
0010
0000
,  // measure 9
0010
0000
0000
0000
,  // measure 10
0100
0000
0100
0000
,  // measure 11
0100
0000
0000
0000
,  // measure 12
0010
0000
0010
0000
,  // measure 13
0010
0000
0000
0000
,  // measure 14
1000
0000
1000
0000
,  // measure 15
1000
0000
0000
0000
,  // measure 16
0001
0000
0001
0000
,  // measure 17
0001
0000
0000
0000
,  // measure 18
0010
0000
0001
0000
,  // measure 19
1000
0000
0000
0000
,  // measure 20
0010
0000
0000
0000
,  // measure 21
0100
0000
0000
0000
,  // measure 22
0010
0000
1000
0000
,  // measure 23
0001
0000
0000
0000
,  // measure 24
0100
0000
0010
0000
,  // measure 25
0100
0000
0000
0000
,  // measure 26
0001
0000
0010
0000
,  // measure 27
0100
0000
0000
0000
,  // measure 28
1000
0000
1000
0000
,  // measure 29
1000
0000
0000
0000
,  // measure 30
0000
0000
0001
0000
,  // measure 31
0100
0000
0000
0000
,  // measure 32
0010
0000
0000
0000
,  // measure 33
1000
0000
0000
0000
,  // measure 34
0001
0000
0010
0000
,  // measure 35
0100
0000
0000
0000
,  // measure 36
1000
0000
0000
0000
,  // measure 37
0001
0000
0000
0000
,  // measure 38
1000
0000
0000
0000
,  // measure 39
0001
0000
0000
0000
,  // measure 40
0100
0000
0000
0000
,  // measure 41
0010
0000
0010
0000
,  // measure 42
1000
0000
0000
0000
,  // measure 43
0001
0000
0001
0000
,  // measure 44
0010
0000
0000
0000
,  // measure 45
0100
0000
1000
0000
,  // measure 46
0100
0000
0000
0000
,  // measure 47
0010
0000
0001
0000
,  // measure 48
0010
0000
0000
0000
,  // measure 49
0100
0000
1000
0000
,  // measure 50
0001
0000
0000
0000
,  // measure 51
0100
0000
0010
0000
,  // measure 52
1000
0000
0000
0000
,  // measure 53
0001
0000
0000
0000
,  // measure 54
0010
0000
0000
0000
,  // measure 55
0100
0000
0100
0000
,  // measure 56
1000
0000
0000
0000
,  // measure 57
0001
0000
0100
0000
,  // measure 58
1000
0000
0000
0000
,  // measure 59
0100
0000
0000
0000
,  // measure 60
0010
0000
0000
0000
,  // measure 61
0001
0000
0001
0000
,  // measure 62
1000
0000
0000
0000
,  // measure 63
0010
0000
0000
0000
,  // measure 64
0100
0000
0000
0000
,  // measure 65
0000
0000
0001
0000
,  // measure 66
0010
0000
0000
0000
,  // measure 67
0100
0000
0100
0000
,  // measure 68
0100
0000
0000
0000
,  // measure 69
0000
0000
1000
0000
,  // measure 70
0010
0000
0000
0000
,  // measure 71
0100
0000
0000
0000
,  // measure 72
0001
0000
0000
0000
;
