#VERSION:0.83;
#TITLE:The Bat/The Butterfly Matriarch;
#SUBTITLE:(Riviere Turquoise Boss);
#ARTIST:Rainbowdragoneyes;
#TITLETRANSLIT:;
#SUBTITLETRANSLIT:(Riviere Turquoise Boss);
#ARTISTTRANSLIT:;
#GENRE:The Messenger;
#ORIGIN:;
#CREDIT:[Ness];
#BANNER:The Messenger - The Bat-The Butterfly Matriarch (Rivière Turquoise Boss).png;
#BACKGROUND:TransitionFuture.png;
#PREVIEWVID:;
#JACKET:The Messenger - The Bat-The Butterfly Matriarch (Rivière Turquoise Boss)-jacket.png;
#CDIMAGE:;
#DISCIMAGE:;
#LYRICSPATH:;
#CDTITLE:;
#MUSIC:The Messenger - The Bat-The Butterfly Matriarch (Rivière Turquoise Boss).mp3;
#OFFSET:-0.015000;
#SAMPLESTART:10.250840;
#SAMPLELENGTH:10.240001;
#SELECTABLE:YES;
#DISPLAYBPM:188.000000;
#BPMS:0.000=187.500,
28.000=750.000,
32.000=187.500,
92.000=93.750,
93.000=187.500,
170.000=750.000,
174.000=187.500;
#STOPS:28.000=0.240,
29.000=0.240,
30.000=0.120,
30.500=0.120,
31.000=0.120,
31.500=0.120,
93.000=0.320,
170.000=0.240,
171.000=0.240,
172.000=0.120,
172.500=0.120,
173.000=0.120,
173.500=0.120;
#DELAYS:;
#WARPS:;
#TIMESIGNATURES:0.000=4=4;
#TICKCOUNTS:0.000=2;
#COMBOS:0.000=1;
#SPEEDS:0.000=1.000=0.000=0;
#SCROLLS:0.000=1.000;
#FAKES:;
#LABELS:0.000=Song Start;
#LASTSECONDHINT:58.930851;
#BGCHANGES:2.000=TransitionFuture.png=2.000=0=0=1===FadeRight==,
15.000=TransitionPast.png=2.000=0=0=1===FadeLeft==,
31.000=TransitionFuture.png=2.000=0=0=1===FadeRight==,
47.000=TransitionPast.png=2.000=0=0=1===FadeLeft==,
63.000=TransitionFuture.png=2.000=0=0=1===FadeRight==,
79.000=TransitionPast.png=2.000=0=0=1===FadeLeft==,
92.000=TransitionPast.png=1.400=0=0=1===CrossFade_Faster=#808080=,
93.063=TransitionFuture.png=2.000=0=0=1===FadeRight==,
109.000=TransitionPast.png=2.000=0=0=1===FadeLeft==,
125.000=TransitionFuture.png=2.000=0=0=1===FadeRight==,
141.000=TransitionPast.png=2.000=0=0=1===FadeLeft==,
157.000=TransitionFuture.png=2.000=0=0=1===FadeRight==,
99999=-nosongbg-=1.000=0=0=0 // don't automatically add -songbackground-
;
#KEYSOUNDS:;
#ATTACKS:
;

//---------------dance-single - ----------------
#NOTEDATA:;
#CHARTNAME:;
#STEPSTYPE:dance-single;
#DESCRIPTION:;
#CHARTSTYLE:;
#DIFFICULTY:Challenge;
#METER:11;
#RADARVALUES:1.056979,1.167149,0.016261,0.000000,1.723689,455.000000,454.000000,1.000000,0.000000,78.000000,0.000000,0.000000,0.000000,0.000000,1.056979,1.167149,0.016261,0.000000,1.723689,455.000000,454.000000,1.000000,0.000000,78.000000,0.000000,0.000000,0.000000,0.000000;
#CREDIT:;
#DISPLAYBPM:0.000000;
#NOTES:
0000
0000
0000
0000
,
0000
0000
0000
0000
,
0000
0000
0000
0000
,
0000
0000
0000
0000
,
0001
0100
0010
1000
0001
0100
0010
1000
0001
0100
0010
1000
0001
0100
0010
1000
,
0100
1000
0001
0010
0100
1000
0001
0010
0100
1000
0001
0010
0100
1000
0001
0010
,
0001
1000
0010
0100
0001
1000
0010
0100
0001
1000
0010
0100
0001
1000
0010
0100
,
0001
0000
1000
0000
0001
0001
1000
1000
,
0100
0000
0010
0001
0100
0000
0010
1000
0100
0000
0010
0001
0100
0000
0010
1000
,
0001
0000
0010
0100
1000
0000
0010
0100
0001
0000
0010
0100
1000
0000
0010
0100
,
0001
0000
1000
0100
0010
0001
0010
0001
0010
0100
1000
0100
1000
0100
1000
0100
,
1000
0001
0100
0010
1000
0010
1000
0010
1000
0001
0100
0001
0100
0001
0100
0001
,
0100
0000
0010
1000
0001
0000
0010
0001
1000
0000
0010
1000
0001
0000
0010
0001
,
1000
0000
0010
1000
0100
0000
0010
0001
0100
0000
0010
1000
0100
0000
0010
0001
,
0100
0000
0001
1000
0010
0100
0010
0100
0010
1000
0100
1000
0100
1000
0100
1000
,
0100
0010
0001
0100
0001
0100
0001
0100
0001
0000
1000
0000
0010
0000
0100
0000
,
0001
0000
0000
1000
0100
0000
0000
0000
0000
0100
0010
0000
0000
0000
0000
0010
0001
0000
0000
0000
0000
0001
1000
0000
,
0000
0000
0000
1000
0010
0000
0000
0000
0000
0010
0100
0000
0000
0000
0000
0100
0001
0000
0000
0000
0000
0001
1000
0000
,
0000
0000
1000
0100
0010
0001
0010
0001
0010
0100
1000
0100
1000
0100
1000
0100
,
1000
0001
0100
0010
1000
0010
1000
0010
1000
0001
0100
0001
0100
0001
0100
0001
,
0100
0000
0000
0001
1000
0000
0000
0000
0000
1000
0100
0000
0000
0000
0000
0100
0001
0000
0000
0000
0000
0001
1000
0000
,
0000
0000
0000
1000
0001
0000
0000
0000
0000
0001
0010
0000
0000
0000
0000
0010
1000
0000
0000
0000
0000
1000
0001
0000
,
0000
0000
0001
0100
0010
1000
0010
1000
0010
0100
0001
0100
0001
0100
0001
0100
,
0001
0000
0000
0000
0000
0000
0000
0000
0110
0000
1000
0001
0100
0000
0010
1000
,
0100
0000
1000
0001
0010
0000
0100
1000
0010
0000
0100
0001
1000
0000
0100
0010
,
0001
0000
1000
0010
0100
0000
0010
1000
0001
0000
0010
0100
1000
0000
0001
0100
,
0010
0000
1000
0100
1000
0000
0001
0010
0100
0000
0010
0001
1000
0000
0001
0100
,
0010
0000
0100
0001
1000
0000
0001
0100
0010
0000
1000
0001
0100
0000
0001
1000
,
0001
0000
0100
0010
1000
0000
0100
1000
0100
0000
0010
0001
1000
0000
0001
0100
,
0001
0000
1000
0010
0100
0000
0010
1000
0010
0000
1000
0001
0010
0000
0100
1000
,
0001
0000
1000
0100
0010
0000
0001
0100
0010
0000
1000
0001
0100
0000
0010
1000
,
0010
0000
0000
0000
0000
0000
0100
0000
0000
0001
0000
0000
1000
0000
0000
0000
0000
0000
0100
0000
0000
0010
0000
0000
0100
0000
0000
0000
0000
0000
100M
0000
00M0
0000
000M
0000
0100
0000
0000
0000
0000
0000
10M0
0000
000M
0000
00M0
0000
,
0100
0000
0000
0001
0000
0000
0M10
M000
0M00
0001
0000
0000
0M10
M000
0M00
0001
0000
0000
0M10
M000
0M00
0001
0000
0000
,
0M10
M000
0M00
0001
0000
0000
0100
0000
00M0
M001
00M0
0000
0100
0000
0000
100M
00M0
000M
0100
0000
0000
100M
00M0
000M
,
0100
0000
0000
0010
0000
M000
0M01
M000
0000
0010
0000
0000
0001
0000
0000
1M00
00M0
0M00
0001
0000
0000
1000
00M0
0M00
,
00M1
0000
0000
0100
0000
0000
0001
0000
0000
0100
0000
00M0
100M
00M0
0000
0100
0000
000M
10M0
000M
0000
0100
00M0
000M
,
10M0
0000
0000
0100
0000
0000
001M
M000
000M
0100
0000
0000
001M
M000
000M
0100
0000
0000
001M
M000
000M
0100
0000
0000
,
0010
0000
0000
100M
0M00
000M
0010
0000
0000
1000
0000
0M00
00M1
0M00
0000
1000
0000
0M00
00M1
0M00
0000
1000
0M00
00M0
,
0M01
0000
0000
0010
0000
0000
1M00
000M
0M00
0010
0000
0000
1000
0000
0000
00M1
0M00
00M0
1000
0000
0000
00M1
0M00
00M0
,
1000
0000
0000
0000
0000
0000
0100
0000
000M
0000
00M0
0000
100M
0000
0000
0000
0000
0000
0100
0000
0000
0000
0000
0000
0010
0000
0000
0001
0000
0000
1000
0000
0000
0100
0000
0000
0010
0000
0000
0001
0000
0000
1000
0000
0000
0100
0000
0000
,
0010
0001
1000
0100
0010
0001
1000
0100
1000
0001
0100
0010
1000
0001
0100
0010
,
1000
0001
0100
0010
1000
0001
0100
0010
1000
0100
0010
0001
1000
0100
0010
0001
,
1000
0100
0010
0001
1000
0100
0010
0001
1000
0000
0000
0000
0001
0000
0000
0000
,
1000
1000
0001
0001
0100
0000
0000
0000
;

//---------------dance-single - ----------------
#NOTEDATA:;
#CHARTNAME:;
#STEPSTYPE:dance-single;
#DESCRIPTION:;
#CHARTSTYLE:;
#DIFFICULTY:Hard;
#METER:9;
#RADARVALUES:0.689940,0.636627,0.325224,0.000000,0.349616,297.000000,277.000000,20.000000,0.000000,0.000000,0.000000,0.000000,0.000000,0.000000,0.689940,0.636627,0.325224,0.000000,0.349616,297.000000,277.000000,20.000000,0.000000,0.000000,0.000000,0.000000,0.000000,0.000000;
#CREDIT:;
#DISPLAYBPM:188.000000;
#NOTES:
// measure 0
0000
0000
0000
0000
,  // measure 1
0000
0000
0000
0000
,  // measure 2
0000
0000
0000
0000
,  // measure 3
0000
0000
0000
0000
,  // measure 4
1100
0101
1100
0101
,  // measure 5
1010
0011
1010
0011
,  // measure 6
0110
1001
0110
1001
,  // measure 7
0001
0000
1000
0000
0001
0001
1000
1000
,  // measure 8
0010
0000
0000
0010
1000
0000
0000
1000
0001
0000
0000
0001
0010
0000
0000
0010
,  // measure 9
0100
0000
0000
0100
1000
0000
0000
1000
0001
0000
0000
0001
0100
0000
0000
0100
,  // measure 10
0010
1000
0100
0000
1000
0001
0100
0010
,  // measure 11
1000
0100
1000
0000
0001
0010
0100
1000
,  // measure 12
0010
0000
0000
0010
0100
0000
0000
0100
0001
0000
0000
0001
0010
0000
0000
0010
,  // measure 13
0100
0000
0000
0100
1000
0000
0000
1000
0001
0000
0000
0001
0100
0000
0000
0100
,  // measure 14
0001
0010
0100
0000
1000
0001
0100
0010
,  // measure 15
1000
0100
0010
0000
0001
0100
1000
0100
,  // measure 16
0010
1000
0100
0010
0001
1000
0001
0000
,  // measure 17
0100
0001
0010
0100
1000
0001
1000
0000
,  // measure 18
0010
1000
0001
0010
0001
0100
0010
0100
,  // measure 19
0001
1000
0100
0010
0100
1000
0001
0000
,  // measure 20
1000
0100
0010
0001
0100
0010
0100
0000
,  // measure 21
0001
0010
0100
1000
0010
0100
0001
0000
,  // measure 22
1000
0010
0001
0010
0100
0001
0100
0010
,  // measure 23
1000
0000
0000
0000
0000
0101
0000
1100
,  // measure 24
0000
0001
1000
0010
0000
1100
0000
0011
,  // measure 25
0000
1000
0010
0100
0000
1001
0000
0101
,  // measure 26
0000
1000
0100
0001
0000
0110
0000
1001
,  // measure 27
0000
0000
0001
0000
0010
0000
0100
0000
0010
0000
0001
1000
0000
0000
1000
0100
,  // measure 28
0000
0000
0100
0010
0000
0000
0010
0001
0000
0000
0001
0100
0000
0000
0100
1000
,  // measure 29
0000
0000
1000
0100
0000
0000
0100
0001
0000
0000
0001
1000
0000
0000
1000
0010
,  // measure 30
0000
0000
0010
0100
0000
0000
0100
0001
0000
0000
0001
0010
0000
0000
0010
0100
,  // measure 31
0000
0000
0100
1000
0000
0000
1000
0001
1000
0000
0100
0000
1000
0000
0100
0000
,  // measure 32
1000
0100
0010
0100
0010
0100
0010
0100
,  // measure 33
0010
0001
0100
0001
1000
0001
1000
0001
,  // measure 34
1000
0001
0100
0001
1000
0010
1000
0010
,  // measure 35
1000
0001
0010
0001
0010
0100
0010
0100
,  // measure 36
0010
0001
0100
0001
0100
0001
0100
0001
,  // measure 37
0100
0010
0100
0010
1000
0010
1000
0010
,  // measure 38
1000
0001
0100
0001
0100
0010
1000
0010
,  // measure 39
1000
0000
0100
0000
1000
0000
0100
0000
1000
0000
0000
1000
0001
0000
0000
0001
,  // measure 40
0100
0000
0000
0100
0010
0000
0000
0010
1000
0000
0000
1000
0100
0000
0000
0100
,  // measure 41
0010
0000
0000
0010
0001
0000
0000
0001
0100
0000
0000
0100
1000
0000
0000
1000
,  // measure 42
0100
0000
0000
0100
0010
0000
0000
0000
1000
0000
0000
0000
0001
0000
0000
0000
,  // measure 43
1000
1000
0001
0001
0100
0000
0000
0000
;

//---------------dance-single - ----------------
#NOTEDATA:;
#CHARTNAME:;
#STEPSTYPE:dance-single;
#DESCRIPTION:;
#CHARTSTYLE:;
#DIFFICULTY:Medium;
#METER:6;
#RADARVALUES:0.466929,0.495154,0.552881,0.178873,0.000000,201.000000,167.000000,34.000000,11.000000,0.000000,0.000000,0.000000,0.000000,0.000000,0.466929,0.495154,0.552881,0.178873,0.000000,201.000000,167.000000,34.000000,11.000000,0.000000,0.000000,0.000000,0.000000,0.000000;
#CREDIT:;
#DISPLAYBPM:188.000000;
#NOTES:
0000
0000
0000
0000
,
0000
0000
0000
0000
,
0000
0000
0000
0000
,
0000
0000
0000
0000
,
1001
1001
1001
1001
,
0100
0100
0100
0100
,
0110
0110
0110
0110
,
2002
0000
0000
3003
,
1100
1000
0101
0001
,
1010
1000
0011
0001
,
0110
0000
1000
0100
0001
0000
0001
0000
,
0110
0000
0001
0100
1000
0000
1000
0000
,
0101
0100
1010
0010
,
1100
0100
0011
0010
,
1001
0000
0100
0010
1000
0000
0100
0000
,
1001
0000
0100
0000
0001
1000
0001
0000
,
0100
0001
1000
0000
0010
0000
1001
0000
,
0100
1000
0001
0000
0100
0000
0110
0000
,
0001
0100
0001
1000
0100
0000
0100
0000
,
0010
0001
0010
0100
1000
0000
1000
0000
,
0010
1000
0001
0000
0100
0000
1001
0000
,
1000
0001
0010
0000
0100
0000
0110
0000
,
1000
0100
1000
0000
0001
0100
0001
0000
,
1100
0000
0000
0000
0000
1000
0000
0001
,
0000
1000
0000
0010
0000
0001
0000
0010
,
0000
0100
0001
0100
0000
0010
0000
1000
,
0000
0100
0000
0010
0000
0100
0000
1000
,
0000
0001
1000
0100
0000
0010
0000
0100
,
0000
0010
0000
0001
0000
0100
0000
0010
,
0000
1000
0010
1000
0000
0100
0000
0010
,
0000
0001
0000
1000
0000
0001
0000
0010
,
0000
0100
1000
0100
2000
0000
0000
0000
,
3000
0100
0020
0000
0000
0000
0000
0000
,
0030
0002
0000
0003
0200
0000
0000
0000
,
0300
0001
2000
0000
3000
0020
0000
0000
,
0030
0200
0000
0300
0001
0000
0001
0000
,
0001
0010
0100
0000
0100
0000
0100
0000
,
0100
1000
0000
1000
0010
0000
0010
0000
,
0010
1000
0001
0000
0001
0100
0000
0100
,
0000
0010
0000
0010
1000
0000
1000
0000
,
1100
0101
0100
0100
,
0110
1001
0001
1000
,
1010
0011
2002
0000
,
0000
3003
1001
0000
;

//---------------dance-single - ----------------
#NOTEDATA:;
#CHARTNAME:;
#STEPSTYPE:dance-single;
#DESCRIPTION:;
#CHARTSTYLE:;
#DIFFICULTY:Easy;
#METER:4;
#RADARVALUES:0.355424,0.318313,0.016261,0.000000,0.000000,153.000000,152.000000,1.000000,0.000000,0.000000,0.000000,0.000000,0.000000,0.000000,0.355424,0.318313,0.016261,0.000000,0.000000,153.000000,152.000000,1.000000,0.000000,0.000000,0.000000,0.000000,0.000000,0.000000;
#CREDIT:;
#DISPLAYBPM:188.000000;
#NOTES:
0000
0000
0000
0000
,
0000
0000
0000
0000
,
0000
0000
0000
0000
,
0000
0000
0000
0000
,
0001
0001
0001
0001
,
0010
0010
0010
0010
,
0100
0100
0100
0100
,
0100
0000
0000
0000
,
1000
0100
0001
0100
,
0010
0100
0001
0100
,
1000
0100
1000
0100
,
0010
0100
1000
0100
,
0010
0001
0010
0001
,
0010
1000
0010
1000
,
0010
0001
1000
0001
,
1000
0001
0100
0010
,
1000
0100
0010
0010
,
0001
0100
0010
0010
,
1000
0010
0001
0010
,
1000
0100
0010
0001
,
1000
0100
0100
0100
,
0001
0100
0100
0100
,
0010
0100
0010
0100
,
0010
0000
0001
0001
,
0001
0100
1000
0100
,
0001
0100
1000
1000
,
1000
0100
0001
0100
,
1000
0100
0001
0001
,
0001
0010
0100
0010
,
0100
1000
0100
1000
,
0100
1000
0001
1000
,
0001
1000
0010
0010
,
0010
0100
0100
0100
,
0100
0001
0001
0001
,
0001
0010
0010
0100
,
0100
1000
1000
0001
,
1000
0010
1000
0001
,
1000
0100
0010
0100
,
0010
0001
0100
1000
,
0100
0001
0010
0010
,
0010
0010
0100
0100
,
0100
0100
1000
1000
,
1000
1000
0001
0000
,
0000
0000
1001
0000
;

//---------------dance-single - ----------------
#NOTEDATA:;
#CHARTNAME:;
#STEPSTYPE:dance-single;
#DESCRIPTION:;
#CHARTSTYLE:;
#DIFFICULTY:Beginner;
#METER:2;
#RADARVALUES:0.183519,0.212209,0.016261,0.000000,0.000000,79.000000,78.000000,1.000000,0.000000,0.000000,0.000000,0.000000,0.000000,0.000000,0.183519,0.212209,0.016261,0.000000,0.000000,79.000000,78.000000,1.000000,0.000000,0.000000,0.000000,0.000000,0.000000,0.000000;
#CREDIT:;
#DISPLAYBPM:188.000000;
#NOTES:
0000
0000
0000
0000
,
0000
0000
0000
0000
,
0000
0000
0000
0000
,
0000
0000
0000
0000
,
0010
0000
0000
0000
,
0100
0000
0000
0000
,
0001
0000
0000
0000
,
0001
0000
0000
0000
,
1000
0000
1000
0000
,
0100
0000
0100
0000
,
0010
0000
0010
0000
,
0001
0000
0001
0000
,
1000
0000
1000
0000
,
0001
0000
0001
0000
,
0100
0000
0100
0000
,
0010
0000
0010
0000
,
1000
0000
1000
0000
,
0100
0000
0100
0000
,
1000
0000
1000
0000
,
0001
0000
0001
0000
,
0100
0000
0100
0000
,
0001
0000
0001
0000
,
0010
0000
0010
0000
,
0100
0000
1000
0000
,
1000
0000
0001
0000
,
0001
0000
0100
0000
,
0100
0000
0010
0000
,
0010
0010
0010
0000
,
1000
0000
0001
0000
,
1000
0000
0100
0000
,
0010
0000
0001
0000
,
0100
0100
0100
0000
,
0001
0000
0010
0000
,
0100
0000
1000
0000
,
0001
0000
1000
0000
,
0010
0010
0010
0000
,
0100
0000
0001
0000
,
1000
0000
0100
0000
,
0010
0000
0001
0000
,
1000
0000
0100
0000
,
0100
0000
0010
0000
,
0010
0000
0001
0000
,
0001
0000
1000
0000
,
0000
0000
1001
0000
;
