#TITLE:The Arcane Golem;
#SUBTITLE:(Tower of Time Boss);
#ARTIST:Rainbowdragoneyes;
#TITLETRANSLIT:;
#SUBTITLETRANSLIT:;
#ARTISTTRANSLIT:;
#GENRE:The Messenger;
#CREDIT:[Ness];
#BANNER:The Messenger - The Arcane Golem (Tower of Time Boss).png;
#BACKGROUND:The Messenger - The Arcane Golem (Tower of Time Boss)-bg.png;
#LYRICSPATH:;
#CDTITLE:;
#MUSIC:The Messenger - The Arcane Golem (Tower of Time Boss).mp3;
#OFFSET:-0.015000;
#SAMPLESTART:34.144176;
#SAMPLELENGTH:17.066666;
#LASTBEATHINT:297.984985;
#SELECTABLE:YES;
#DISPLAYBPM:225.000000;
#BPMS:0.000000=225.000000
,205.000000=450.000000
,220.000000=225.000000
;
#STOPS:92.500000=0.800000,
205.000000=0.067000,
205.500000=0.067000,
206.000000=0.067000,
206.500000=0.067000,
207.000000=0.067000,
207.500000=0.067000,
208.000000=0.067000,
208.500000=0.067000,
209.000000=0.067000,
209.500000=0.067000,
210.000000=0.067000,
210.500000=0.067000,
211.000000=0.067000,
211.500000=0.067000,
212.000000=0.067000,
212.500000=0.067000,
213.000000=0.033000,
213.250000=0.033000,
213.500000=0.067000,
214.000000=0.067000,
214.500000=0.067000,
215.000000=0.033000,
215.250000=0.033000,
215.500000=0.067000,
216.000000=0.067000,
216.500000=0.067000,
217.000000=0.033000,
217.250000=0.033000,
217.500000=0.033000,
217.750000=0.033000,
218.000000=0.067000,
218.500000=0.033000,
218.750000=0.033000,
219.000000=0.067000,
219.500000=0.033000,
219.750000=0.033000,
281.500000=0.800000
;
#BGCHANGES:;
#KEYSOUNDS:;
#ATTACKS:;

//---------------dance-single - ----------------
#NOTES:
     dance-single:
     :
     Challenge:
     10:
     0.819691,0.949378,0.573784,0.081969,0.087824,490.000000,441.000000,49.000000,7.000000,0.000000,0.000000,0.819691,0.949378,0.573784,0.081969,0.087824,490.000000,441.000000,49.000000,7.000000,0.000000,0.000000:
// measure 0
0000
0000
0000
0000
,  // measure 1
0000
0000
0000
0000
,  // measure 2
0000
0000
0000
0000
,  // measure 3
0000
0000
0000
0000
,  // measure 4
0000
0000
0000
0000
,  // measure 5
0000
0000
0000
0000
,  // measure 6
0000
0000
0000
0000
,  // measure 7
0000
0000
0000
0000
,  // measure 8
0001
0001
1000
1000
0001
0001
0100
0100
,  // measure 9
0010
0010
0100
0100
0001
0001
1000
1000
,  // measure 10
0100
0100
0010
0010
0100
0100
1000
1000
,  // measure 11
0001
0001
0100
0100
0010
0010
1000
1000
,  // measure 12
0100
0100
0010
0010
0001
0001
0100
0100
,  // measure 13
0010
0010
1000
1000
0100
0100
0010
0010
,  // measure 14
0001
0001
1000
1000
0001
0001
0100
0100
,  // measure 15
0010
0010
1000
1000
0100
0100
1000
1000
,  // measure 16
0010
1001
0010
0101
,  // measure 17
0010
1001
0010
1100
,  // measure 18
0100
1001
0100
0011
,  // measure 19
0100
0100
1001
0100
0100
0000
1010
0000
,  // measure 20
0001
1100
1000
0011
,  // measure 21
0001
1010
1000
0101
,  // measure 22
0100
1001
0010
0110
,  // measure 23
1001
1001
0100
0001
0010
0001
0100
1000
,  // measure 24
0000
1000
0100
0001
0010
0100
1000
0010
,  // measure 25
0000
0010
1000
0010
0001
0010
1000
0100
,  // measure 26
0000
0001
0100
1000
0010
1000
0100
0010
,  // measure 27
0001
0100
0001
1000
0001
1000
0001
0100
,  // measure 28
0010
1000
0001
1000
0001
1000
0010
0100
,  // measure 29
0001
0010
0100
1000
0100
1000
0001
0010
,  // measure 30
0100
1000
0010
0100
0010
0100
0001
1000
,  // measure 31
0100
0000
1100
0000
1000
0001
0200
0000
,  // measure 32
0301
0000
1000
0000
0020
0000
0000
0000
0130
0000
0001
0010
0002
0000
0000
0000
,  // measure 33
2003
0000
3010
0100
1000
0100
0010
1000
,  // measure 34
0100
0020
0000
0000
0001
0000
0130
0000
,  // measure 35
0110
0000
1000
0100
0100
0001
0100
1000
,  // measure 36
0001
1000
0010
0100
0100
0010
0001
0010
,  // measure 37
1000
0100
0010
0001
0010
0010
0001
0010
,  // measure 38
0010
0000
0001
0000
0010
0001
0010
0000
0100
1000
0100
0000
1000
0001
0100
0010
,  // measure 39
1000
0001
0101
0000
0001
0010
0100
0000
,  // measure 40
1100
0000
1010
0000
1000
0010
0001
0010
,  // measure 41
0100
0001
0200
0000
0320
0000
1030
0100
,  // measure 42
0010
0001
0001
1000
0100
0100
1000
0001
,  // measure 43
0100
0010
1000
0001
0001
1000
0100
0010
,  // measure 44
0001
0100
1000
0100
0100
0010
1000
0100
,  // measure 45
0010
0001
0100
0010
0100
0100
0010
0100
,  // measure 46
0100
0000
0010
0000
1000
0100
1000
0000
0001
0100
0001
0000
1000
0010
1000
0000
,  // measure 47
0001
0010
0001
0000
1001
0000
0001
0000
0010
0000
0001
0000
1000
0000
0010
0000
,  // measure 48
0100
0010
1000
0100
0010
0100
1000
0001
,  // measure 49
0001
0100
0010
0100
0001
0010
0001
1000
,  // measure 50
0010
0010
0100
1000
0100
0010
1000
0100
,  // measure 51
0010
0001
1000
0100
1000
0001
1000
0100
,  // measure 52
1000
1000
0001
0100
0010
0100
0001
1000
,  // measure 53
0001
0000
0100
0000
0001
0010
0001
0000
1000
0000
0100
0000
0010
0100
0010
0000
,  // measure 54
0001
0000
1000
0000
0100
1000
0001
1000
0100
0000
1000
0001
1000
0000
0001
0100
,  // measure 55
0001
1001
0101
1001
,  // measure 56
1100
1001
0101
1001
,  // measure 57
1100
0110
1100
0101
,  // measure 58
1100
0000
0100
0100
0100
0100
0100
0000
,  // measure 59
0101
0011
1010
0011
,  // measure 60
1010
0110
1010
0011
,  // measure 61
1010
0011
0110
0011
,  // measure 62
1010
0000
0010
0010
0010
0010
0010
0000
,  // measure 63
0011
0000
1001
1000
0001
0001
1000
1000
,  // measure 64
0010
0010
0100
0100
0010
0010
1000
1000
,  // measure 65
0001
0001
0010
0010
0100
0100
0010
0010
,  // measure 66
0001
0001
1000
1000
1000
1000
1000
0100
,  // measure 67
0001
0001
0010
0010
0100
0100
1000
1000
,  // measure 68
0010
0010
0100
0100
0001
0001
0010
0010
,  // measure 69
0100
0100
1000
1000
0001
0001
1000
1000
,  // measure 70
0010
0010
0100
0100
0001
0000
0000
0000
;

//---------------dance-single - ----------------
#NOTES:
     dance-single:
     :
     Hard:
     9:
     0.593858,0.701714,0.281037,0.023420,0.000000,355.000000,331.000000,24.000000,2.000000,0.000000,0.000000,0.593858,0.701714,0.281037,0.023420,0.000000,355.000000,331.000000,24.000000,2.000000,0.000000,0.000000:
0000
0000
0000
0000
,
0000
0000
0000
0000
,
0000
0000
0000
0000
,
0000
0000
0000
0000
,
0000
0000
0000
0000
,
0000
0000
0000
0000
,
0000
0000
0000
0000
,
0000
0000
0000
0000
,
0001
0100
1000
0100
,
0010
1000
0100
0010
,
0001
1000
0010
0100
,
0001
0001
1000
1000
0100
0000
0010
0000
,
0001
0100
0010
1000
,
0100
0010
0001
1000
,
0010
1000
0100
0010
,
0100
0100
1000
1000
0001
0000
0100
0000
,
0010
1001
0100
1000
,
0001
0011
0100
0010
,
0001
1001
0100
0010
,
0100
1100
1000
0001
,
0100
0101
1000
0010
,
0100
1001
0010
0100
,
0001
1001
0010
1000
,
0100
0000
0010
0001
1000
0000
0000
0001
,
0000
0100
0010
1000
0100
0000
0000
1000
,
0010
0100
0001
0100
0010
0000
0000
1000
,
0000
0001
0010
0100
1000
0100
0000
0010
,
0001
1000
0100
0010
0001
0100
0000
0001
,
0000
1000
0010
0100
0001
1000
0000
0100
,
0010
0100
1000
0001
1000
0100
0000
0010
,
0100
0010
0001
0000
0100
0010
1000
0010
,
0100
0000
1001
0000
1000
0001
0100
0000
,
0001
1000
0010
0000
1000
0010
0200
0000
,
0301
0000
0001
0100
0001
1000
0100
1000
,
0001
0020
0000
0000
0030
0000
0011
0000
,
1010
0000
0100
0010
0100
0010
0001
0100
,
0000
0100
0001
1000
0001
1000
0100
0010
,
0000
0100
1000
0000
1000
0000
0001
0100
,
0000
0100
0010
0000
0110
0000
1001
0000
,
0110
0000
0001
0000
1000
0100
0010
0000
,
0100
0000
1000
0000
0001
1000
0100
0010
,
0001
0100
0001
0000
1000
0000
0001
0100
,
0010
1000
0001
1000
0001
0010
0100
0010
,
0100
0000
1000
0000
0001
0000
0100
0001
,
0000
0001
1000
0010
0100
0000
0010
1000
,
0000
1000
0100
0000
0010
0000
0001
0100
,
0000
0010
0100
0000
1001
0000
0110
0000
,
1001
0000
0001
0010
0001
0010
0100
1000
,
0000
0001
0010
0100
0010
0100
1000
0001
,
0000
0010
0100
1000
0100
1000
0001
0010
,
0000
0100
1000
0010
1000
0010
0100
0001
,
0100
0010
1000
0001
1000
0001
1000
0001
,
1000
0001
1000
0100
1000
0100
1000
0100
,
1000
0100
0010
0001
0010
0001
0010
0001
,
0010
0001
0100
0001
0100
0001
0100
0001
,
0100
1001
0100
0010
,
0100
0001
0100
0010
,
1000
0100
0010
0100
,
1000
0000
0001
0001
1000
1000
0010
0000
,
0100
0001
0100
0010
,
1000
0100
0010
0100
,
1000
0001
1000
0100
,
0010
0000
0001
0001
0100
0100
0010
0000
,
1000
0100
1001
0010
,
1000
0100
1001
0001
,
1000
0100
1001
0010
,
0001
0000
1000
0001
0100
0001
1000
0000
,
0001
0010
1001
0010
,
0001
0100
1001
0100
,
1000
0010
0110
0001
,
1000
0100
1001
0000
;

//---------------dance-single - ----------------
#NOTES:
     dance-single:
     :
     Medium:
     7:
     0.446648,0.536605,0.011710,0.011710,0.000000,267.000000,266.000000,1.000000,1.000000,0.000000,0.000000,0.446648,0.536605,0.011710,0.011710,0.000000,267.000000,266.000000,1.000000,1.000000,0.000000,0.000000:
0000
0000
0000
0000
,
0000
0000
0000
0000
,
0000
0000
0000
0000
,
0000
0000
0000
0000
,
0000
0000
0000
0000
,
0000
0000
0000
0000
,
0000
0000
0000
0000
,
0000
0000
0000
0000
,
1000
0001
0100
0100
,
0010
0010
1000
1000
,
0001
1000
1000
0100
,
0100
0010
0100
0010
0100
0000
0010
0000
,
0001
0100
0010
0100
,
0001
1000
0100
0010
,
0001
0100
0100
0100
,
0010
1000
0010
1000
0010
0000
0100
0000
,
0001
1000
0100
0010
,
0100
1000
1000
0001
,
0010
0100
0100
0010
,
0001
1000
0001
1000
0001
0000
0100
0000
,
0010
1000
0100
0010
,
0001
0100
0001
1000
,
0010
0100
0100
0100
,
0001
0000
1000
0000
0100
0000
0000
1000
,
0000
1000
0001
0000
0100
0000
0000
0001
,
0000
0001
1000
0000
0010
0000
0000
1000
,
0000
1000
0001
0000
0010
0000
0100
0000
,
1000
0000
0001
0000
0010
0000
0000
0001
,
0000
0001
0100
0000
0010
0000
0000
0100
,
0000
0100
0001
0000
0000
1000
0000
0100
,
0000
0100
0010
0000
0100
0000
1000
0000
,
0001
1000
0100
1000
,
0100
0001
0100
0001
,
0100
0010
0001
0100
,
0010
2000
0000
0000
,
0000
3001
1000
0100
,
0010
0100
1000
1000
,
0001
0100
0010
0100
,
0010
1000
0100
0010
,
0001
1000
0001
0100
,
0010
0100
0001
0010
,
0100
1000
0100
1000
,
0100
0001
0100
1000
,
0100
0010
0001
0100
,
0100
0001
1000
0100
,
0100
1000
1000
0001
,
0001
0100
0100
0010
,
0010
1000
0001
0100
,
0010
0100
0001
0010
,
0001
0100
0010
1000
,
0100
0010
0100
1000
,
0001
0000
1000
0100
1000
0000
0001
0000
,
0100
0000
0001
0100
0001
0000
0010
0000
,
0100
0000
1000
0100
1000
0000
0010
0100
,
0010
0000
0100
0001
0100
0000
0001
1000
,
0001
0010
0010
0100
,
0100
1000
1000
0001
,
0001
1000
0100
0100
,
1000
0000
0001
0100
0001
0100
0001
0000
,
0100
0010
1000
0010
,
0010
0100
0100
0001
,
0001
0010
0001
0001
,
0010
0000
0100
1000
0100
1000
0100
0000
,
1000
0001
0001
1000
,
1000
0010
0010
0100
,
0100
0001
0100
0100
,
0100
0000
0010
1000
0010
1000
0010
0000
,
1000
0100
0010
0100
,
0010
0001
1000
0001
,
1000
0001
0010
0100
,
1000
0100
1001
0000
;

//---------------dance-single - ----------------
#NOTES:
     dance-single:
     :
     Easy:
     6:
     0.363006,0.371496,0.000000,0.000000,0.000000,217.000000,217.000000,0.000000,0.000000,0.000000,0.000000,0.363006,0.371496,0.000000,0.000000,0.000000,217.000000,217.000000,0.000000,0.000000,0.000000,0.000000:
0000
0000
0000
0000
,
0000
0000
0000
0000
,
0000
0000
0000
0000
,
0000
0000
0000
0000
,
0000
0000
0000
0000
,
0000
0000
0000
0000
,
0000
0000
0000
0000
,
0000
0000
0000
0000
,
1000
1000
0100
0000
,
0001
1000
0100
0000
,
0010
0001
0100
0000
,
0001
1000
0001
0000
,
0010
0010
0100
0000
,
0010
0001
0100
0000
,
0001
1000
0100
0000
,
1000
0001
0100
0000
,
0010
0100
0010
0000
,
1000
0010
0001
0000
,
0001
0100
1000
0000
,
1000
0100
1000
0000
,
1000
0100
0010
0000
,
0010
0001
0100
0000
,
0100
1000
0100
0000
,
0001
1000
0100
1000
,
0100
1000
0001
1000
,
0001
0100
0001
0100
,
0001
1000
0001
1000
,
0000
0001
0010
0001
,
0010
0001
1000
0001
,
1000
0010
1000
0010
,
1000
0001
1000
0001
,
0000
0010
0010
0100
,
0100
1000
1000
0001
,
0000
0100
0010
0100
,
0010
1000
0000
0000
,
0000
0001
1000
0001
,
1000
0100
0010
0100
,
0010
0001
0100
1000
,
0100
0001
0001
1000
,
0000
0010
1000
0010
,
1000
0001
1000
0001
,
1000
0001
0010
0001
,
0010
0100
1000
0100
,
0000
0010
0100
0010
,
0100
0010
0001
0010
,
0001
0100
0010
0100
,
0010
1000
0000
0000
,
0000
0001
1000
0100
,
0000
0010
0100
1000
,
0000
0001
0010
0001
,
0000
1000
0001
0100
,
0000
0010
0010
0010
,
0000
0100
0100
0100
,
0000
0001
0001
0001
,
0000
1000
1000
1000
,
0000
0100
0010
0100
,
0010
0100
0100
0010
,
0010
0100
0010
0100
,
0100
0010
0100
0010
,
0100
0010
0010
0100
,
0100
0010
0010
0100
,
0100
0010
0100
0010
,
0100
0010
0010
0100
,
0100
1000
0001
1000
,
1000
0001
1000
0001
,
0001
1000
1000
0001
,
0001
1000
0001
1000
,
1000
0001
1000
0001
,
0001
1000
1000
0001
,
0001
1000
0001
1000
,
1000
0100
0010
0000
;

//---------------dance-single - ----------------
#NOTES:
     dance-single:
     :
     Beginner:
     3:
     0.215796,0.247664,0.000000,0.000000,0.000000,129.000000,129.000000,0.000000,0.000000,0.000000,0.000000,0.215796,0.247664,0.000000,0.000000,0.000000,129.000000,129.000000,0.000000,0.000000,0.000000,0.000000:
0000
0000
0000
0000
,
0000
0000
0000
0000
,
0000
0000
0000
0000
,
0000
0000
0000
0000
,
0000
0000
0000
0000
,
0000
0000
0000
0000
,
0000
0000
0000
0000
,
0000
0000
0000
0000
,
0100
0100
0100
0000
,
0010
0000
0100
0000
,
0010
0010
0010
0000
,
0100
0000
1000
0000
,
0001
0001
0001
0000
,
1000
0000
0001
0000
,
1000
1000
1000
0000
,
0001
0000
0100
0000
,
0010
0010
0010
0000
,
0100
0000
0010
0000
,
0100
0100
0100
0000
,
0001
0000
1000
0000
,
0100
0100
0100
0000
,
0010
0000
0100
0000
,
0010
0000
0001
0000
,
0100
0100
0000
0000
,
0000
1000
0000
0000
,
0000
0100
0000
0000
,
0000
0001
0000
0010
,
0000
0100
0000
0000
,
0000
1000
0000
0000
,
0000
0001
0000
0000
,
0000
0010
0000
0000
,
0000
0001
0000
0001
,
0000
1000
0000
1000
,
0000
0100
0000
0010
,
0000
0100
0000
0010
,
0000
0001
0000
0100
,
0000
0010
0000
1000
,
0000
0100
0000
0100
,
0000
0010
0000
0010
,
0000
0001
0000
1000
,
0000
0001
0000
1000
,
0000
0001
0000
0100
,
0000
0010
0000
1000
,
0000
0100
0000
0010
,
0000
0100
0000
0010
,
0000
0001
0000
1000
,
0000
0100
0000
0010
,
0000
0001
0000
0100
,
0000
1000
0000
0100
,
0000
0001
0000
0100
,
0000
1000
0000
0100
,
0000
0001
0000
0100
,
0000
1000
0000
0100
,
0000
0001
0000
0100
,
0000
1000
0000
0100
,
0000
0001
0000
0001
,
0000
1000
0000
0001
,
0000
1000
0000
0001
,
0000
1000
0000
1000
,
0000
0001
0000
1000
,
0000
0001
0000
1000
,
0000
0001
0000
1000
,
0000
0001
0000
0001
,
0000
0100
0100
0100
,
0000
0010
0000
0100
,
0000
0001
0000
0010
,
0000
0100
0000
1000
,
0000
0010
0010
0010
,
0000
0100
0000
0001
,
0000
1000
0000
0100
,
0000
0010
0010
0000
;
