#TITLE:Ruxxtin the Great;
#SUBTITLE:(Catacombs Boss);
#ARTIST:Rainbowdragoneyes;
#TITLETRANSLIT:;
#SUBTITLETRANSLIT:;
#ARTISTTRANSLIT:;
#GENRE:The Messenger;
#CREDIT:[Ness];
#BANNER:The Messenger - Ruxxtin the Great (Catacombs Boss).png;
#BACKGROUND:The Messenger - Ruxxtin the Great (Catacombs Boss)-bg.png;
#LYRICSPATH:;
#CDTITLE:;
#MUSIC:The Messenger - Ruxxtin the Great (Catacombs Boss).mp3;
#OFFSET:-0.015000;
#SAMPLESTART:3.507325;
#SAMPLELENGTH:13.186813;
#LASTBEATHINT:288.000000;
#SELECTABLE:YES;
#BPMS:0.000000=273.000000
;
#STOPS:
;
#BGCHANGES:;
#KEYSOUNDS:;
#ATTACKS:;

//---------------dance-single - Necromancer----------------
#NOTES:
     dance-single:
     :
     Edit:
     20:
     2.223699,1.677707,0.000000,0.000000,3.708300,1041.000000,1041.000000,0.000000,0.000000,0.000000,0.000000,2.223699,1.677707,0.000000,0.000000,3.708300,1041.000000,1041.000000,0.000000,0.000000,0.000000,0.000000:
1000
1000
0100
0100
1000
1000
0001
0001
,
0010
0010
0001
0001
1000
1000
0001
0001
,
0010
0010
0100
0100
0010
0010
0001
0001
,
1000
1000
1000
0001
0001
0001
1000
0001
,
0010
0001
1000
0001
0100
0010
0100
0001
1000
0010
0100
0010
1000
0100
0010
0100
,
1000
0001
1000
0100
0010
0001
0010
0100
1000
0001
1000
0100
0010
0001
0100
0010
,
0100
0001
1000
0010
0100
0010
1000
0100
1000
0001
0010
0001
0100
0010
0100
0001
,
1000
0100
0010
0100
1000
0001
0010
0001
0100
0010
0100
0001
1000
0001
0100
0010
,
1000
0100
0010
0100
1000
0001
0010
0001
0100
0001
1000
0001
0010
0100
0010
0001
,
1000
0100
1000
0010
1000
0100
0010
0001
0100
0001
0010
0100
1000
0010
0100
0001
,
0010
0100
0010
0001
1000
0001
0100
0010
1000
0100
0010
0001
1000
0001
0100
0010
,
1000
0100
0010
0001
1000
0001
0100
0010
1000
0100
0010
0001
1000
0001
0100
0010
,
1000
0100
0010
0100
1000
0001
1000
0100
0010
0001
0100
0001
0010
0100
0010
0001
,
1000
0001
0100
0010
0100
0001
0010
0001
1000
0001
0100
0010
1000
0100
0010
0100
,
1000
0010
1000
0100
0010
0001
1000
0001
0100
0010
1000
0100
0010
0001
1000
0001
,
0010
0100
0010
0001
1000
0001
0100
0010
1000
0100
0010
0001
1000
0001
0100
0010
,
1000
0100
1000
0001
0010
0100
1000
0100
0010
0001
1000
0100
0010
0001
0010
0100
,
1000
0001
1000
0100
0010
0001
0100
0010
0100
0001
0010
0100
1000
0001
0010
0001
,
1000
0010
0100
0001
0100
0010
1000
0001
1000
0100
0010
0100
1000
0001
0010
0100
,
1000
0010
1000
0001
1000
0100
0010
0001
0100
0001
0010
0100
1000
0001
0100
0001
,
1000
0100
0010
0100
1000
0001
1000
0100
0010
0001
0010
0100
1000
0001
1000
0010
,
1000
0001
0100
0010
0100
0001
0010
0100
1000
0001
0100
0010
1000
0100
0010
0001
,
1000
0001
0100
0001
1000
0100
0010
0001
1000
0001
0100
0010
1000
0100
0010
0001
,
0100
0010
0100
0001
0010
0001
1000
0010
0100
0010
1000
0100
0010
0100
1000
0001
,
1000
0100
0010
0001
0100
0001
1000
0100
0010
0001
0010
0100
1000
0001
0100
0010
,
1000
0001
1000
0100
0010
0001
0100
0010
0100
0001
0100
0010
1000
0001
0100
0010
,
1000
0100
0010
0100
1000
0001
0010
0001
1000
0100
0010
0100
1000
0100
1000
0001
,
0100
0010
0100
0001
0100
0001
1000
0100
0010
0100
0010
0001
1000
0001
1000
0010
,
0100
0001
0100
0010
1000
0001
0100
0010
0100
0001
1000
0100
0010
0001
1000
0100
,
1000
0001
0010
0100
1000
0100
0010
0001
1000
0100
1000
0001
0010
0100
1000
0001
,
0100
0001
1000
0001
0100
0010
1000
0010
0100
0001
0010
0001
1000
0100
0010
0001
,
1000
0100
1000
0001
0100
0010
0100
0001
1000
0010
1000
0001
0100
0010
1000
0001
,
0100
0010
0100
0001
0010
0001
0100
0010
0100
0001
0010
0100
1000
0010
1000
0100
,
0010
0001
1000
0001
0100
0010
1000
0100
0010
0001
1000
0001
0100
0010
1000
0100
,
1000
0001
0010
0100
1000
0100
0010
0001
1000
0100
0010
0001
1000
0001
0100
0010
,
1000
0001
1000
0001
1000
0001
1000
0001
,
1000
0001
0010
0001
0100
0010
0100
0001
1000
0010
0100
0010
1000
0100
0010
0100
,
1000
0001
1000
0100
0010
0001
0010
0100
1000
0001
1000
0100
0010
0001
0100
0010
,
0100
0001
1000
0010
0100
0010
1000
0100
1000
0001
0010
0001
0100
0010
0100
0001
,
1000
0100
0010
0100
1000
0001
0010
0001
0100
0010
0100
0001
1000
0001
0100
0010
,
1000
0100
0010
0100
1000
0001
0010
0001
0100
0001
1000
0001
0010
0100
0010
0001
,
1000
0100
1000
0010
1000
0100
0010
0001
0100
0001
0010
0100
1000
0010
0100
0001
,
0010
0100
0010
0001
1000
0001
0100
0010
1000
0100
0010
0001
1000
0001
0100
0010
,
1000
0100
0010
0001
1000
0001
0100
0010
1000
0100
0010
0001
1000
0001
0100
0010
,
1000
0100
0010
0100
1000
0001
1000
0100
0010
0001
0100
0001
0010
0100
0010
0001
,
1000
0001
0100
0010
0100
0001
0010
0001
1000
0001
0100
0010
1000
0100
0010
0100
,
1000
0010
1000
0100
0010
0001
1000
0001
0100
0010
1000
0100
0010
0001
1000
0001
,
0010
0100
0010
0001
1000
0001
0100
0010
1000
0100
0010
0001
1000
0001
0100
0010
,
1000
0100
1000
0001
0010
0100
1000
0100
0010
0001
1000
0100
0010
0001
0010
0100
,
1000
0001
1000
0100
0010
0001
0100
0010
0100
0001
0010
0100
1000
0001
0010
0001
,
1000
0010
0100
0001
0100
0010
1000
0001
1000
0100
0010
0100
1000
0001
0010
0100
,
1000
0010
1000
0001
1000
0100
0010
0001
0100
0001
0010
0100
1000
0001
0100
0001
,
1000
0100
0010
0100
1000
0001
1000
0100
0010
0001
0010
0100
1000
0001
1000
0010
,
1000
0001
0100
0010
0100
0001
0010
0100
1000
0001
0100
0010
1000
0100
0010
0001
,
1000
0001
0100
0001
1000
0100
0010
0001
1000
0001
0100
0010
1000
0100
0010
0001
,
0100
0010
0100
0001
0010
0001
1000
0010
0100
0010
1000
0100
0010
0100
1000
0001
,
1000
0100
0010
0001
0100
0001
1000
0100
0010
0001
0010
0100
1000
0001
0100
0010
,
1000
0001
1000
0100
0010
0001
0100
0010
0100
0001
0100
0010
1000
0001
0100
0010
,
1000
0100
0010
0100
1000
0001
0010
0001
1000
0100
0010
0100
1000
0100
1000
0001
,
0100
0010
0100
0001
0100
0001
1000
0100
0010
0100
0010
0001
1000
0001
1000
0010
,
0100
0001
0100
0010
1000
0001
0100
0010
0100
0001
1000
0100
0010
0001
1000
0100
,
1000
0001
0010
0100
1000
0100
0010
0001
1000
0100
1000
0001
0010
0100
1000
0001
,
0100
0001
1000
0001
0100
0010
1000
0010
0100
0001
0010
0001
1000
0100
0010
0001
,
1000
0100
1000
0001
0100
0010
0100
0001
1000
0010
1000
0001
0100
0010
1000
0001
,
0100
0010
0100
0001
0010
0001
0100
0010
0100
0001
0010
0100
1000
0010
1000
0100
,
0010
0001
1000
0001
0100
0010
1000
0100
0010
0001
1000
0001
0100
0010
1000
0100
,
1000
0001
0010
0100
1000
0100
0010
0001
1000
0100
0010
0001
1000
0001
0100
0010
,
1000
0001
1000
0001
1000
0001
1000
0001
,
0100
0000
0000
0000
;

//---------------dance-single - ----------------
#NOTES:
     dance-single:
     :
     Challenge:
     13:
     1.095828,0.864273,0.000000,0.000000,0.000000,513.000000,513.000000,0.000000,0.000000,0.000000,0.000000,1.095828,0.864273,0.000000,0.000000,0.000000,513.000000,513.000000,0.000000,0.000000,0.000000,0.000000:
// measure 0
0000
0000
0000
0000
,  // measure 1
0000
0000
0000
0000
,  // measure 2
0000
0000
0000
0000
,  // measure 3
0000
0000
0000
0000
,  // measure 4
0001
0010
0001
1000
0001
0100
0001
0010
,  // measure 5
0001
1000
0001
0100
0001
1000
0001
1000
,  // measure 6
0100
1000
0001
1000
0010
1000
0100
1000
,  // measure 7
0001
1000
0010
1000
0001
1000
0001
1000
,  // measure 8
0010
1000
0100
1000
0001
1000
0010
1000
,  // measure 9
0100
1000
0001
1000
0010
1000
0010
1000
,  // measure 10
0010
0100
0001
0100
1000
0100
0010
0100
,  // measure 11
0001
0100
1000
0100
0010
0100
0010
0100
,  // measure 12
0001
1000
0010
0100
0001
1000
0001
1000
,  // measure 13
0010
0100
0001
1000
0001
1000
0001
1000
,  // measure 14
0100
0010
0001
1000
0100
0010
0100
0010
,  // measure 15
0001
1000
0100
0010
0100
0010
0001
1000
,  // measure 16
0001
0100
0010
1000
0100
1000
0001
0100
,  // measure 17
0010
1000
0100
1000
0001
0100
0010
1000
,  // measure 18
0001
0010
0100
1000
0001
1000
0001
0010
,  // measure 19
0100
1000
0001
1000
0001
0010
0100
1000
,  // measure 20
0010
1000
0001
0100
0010
0100
0010
1000
,  // measure 21
0001
0100
0010
0100
0010
1000
0001
1000
,  // measure 22
0010
0100
0001
0010
0100
1000
0010
0100
,  // measure 23
0001
0010
0100
1000
0010
0100
0001
0010
,  // measure 24
0100
1000
0001
1000
0010
0100
0001
1000
,  // measure 25
0001
0010
0100
1000
0001
1000
0010
0100
,  // measure 26
0001
1000
0001
0010
0100
1000
0001
1000
,  // measure 27
0010
1000
0100
1000
0001
0010
0100
1000
,  // measure 28
0010
0100
0001
1000
0010
0100
0010
0100
,  // measure 29
0001
1000
0010
0100
0010
0100
0001
1000
,  // measure 30
0001
0010
0100
1000
0001
0100
0001
0010
,  // measure 31
0100
1000
0001
0100
0001
0010
0100
1000
,  // measure 32
0010
1000
0100
0010
0001
1000
0010
1000
,  // measure 33
0100
0010
0001
1000
0010
1000
0100
0010
,  // measure 34
0001
0100
0010
1000
0001
0100
0010
1000
,  // measure 35
0001
0001
1000
1000
0001
0001
0010
0100
,  // measure 36
1000
0100
1000
0001
1000
0010
1000
0100
,  // measure 37
1000
0001
1000
0010
1000
0001
1000
0001
,  // measure 38
0010
0001
1000
0001
0100
0001
0010
0001
,  // measure 39
1000
0001
0100
0001
1000
0001
1000
0001
,  // measure 40
0100
0001
0010
0001
1000
0001
0100
0001
,  // measure 41
0010
0001
1000
0001
0100
0001
0100
0001
,  // measure 42
0100
0010
1000
0010
0001
0010
0100
0010
,  // measure 43
1000
0010
0001
0010
0100
0010
0100
0010
,  // measure 44
1000
0001
0100
0010
1000
0001
1000
0001
,  // measure 45
0100
0010
1000
0001
1000
0001
1000
0001
,  // measure 46
0010
0100
1000
0001
0010
0100
0010
0100
,  // measure 47
1000
0001
0010
0100
0010
0100
1000
0001
,  // measure 48
1000
0010
0100
0001
0010
0001
1000
0010
,  // measure 49
0100
0001
0010
0001
1000
0010
0100
0001
,  // measure 50
1000
0100
0010
0001
1000
0001
1000
0100
,  // measure 51
0010
0001
1000
0001
1000
0100
0010
0001
,  // measure 52
0100
0001
1000
0010
0100
0010
0100
0001
,  // measure 53
1000
0010
0100
0010
0100
0001
1000
0001
,  // measure 54
0100
0010
1000
0100
0010
0001
0100
0010
,  // measure 55
1000
0100
0010
0001
0100
0010
1000
0100
,  // measure 56
0010
0001
1000
0001
0100
0010
1000
0001
,  // measure 57
1000
0100
0010
0001
1000
0001
0100
0010
,  // measure 58
1000
0001
1000
0100
0010
0001
1000
0001
,  // measure 59
0100
0001
0010
0001
1000
0100
0010
0001
,  // measure 60
0100
0010
1000
0001
0100
0010
0100
0010
,  // measure 61
1000
0001
0100
0010
0100
0010
1000
0001
,  // measure 62
1000
0100
0010
0001
1000
0010
1000
0100
,  // measure 63
0010
0001
1000
0010
1000
0100
0010
0001
,  // measure 64
0100
0001
0010
0100
1000
0001
0100
0001
,  // measure 65
0010
0100
1000
0001
0100
0001
0010
0100
,  // measure 66
1000
0010
0100
0001
1000
0010
0100
0001
,  // measure 67
0010
0010
0100
0100
1000
1000
0001
0001
,  // measure 68
0100
0000
0000
0000
;

//---------------dance-single - ----------------
#NOTES:
     dance-single:
     :
     Hard:
     10:
     0.570343,0.541666,0.014953,0.000000,0.000000,267.000000,266.000000,1.000000,0.000000,0.000000,0.000000,0.570343,0.541666,0.014953,0.000000,0.000000,267.000000,266.000000,1.000000,0.000000,0.000000,0.000000:
0000
0000
0000
0000
,
0000
0000
0000
0000
,
0000
0000
0000
0000
,
0000
0000
0000
0000
,
1001
0000
1000
0010
0100
0000
0001
0000
,
0001
0010
0100
0000
1000
0001
0100
0000
,
0010
0000
1000
0100
0010
0000
0100
0000
,
1000
0001
0100
0000
0010
0100
0001
0000
,
0010
0000
0001
1000
0010
0000
0100
0000
,
0100
0001
0010
0000
0010
0100
1000
0000
,
0001
0000
1000
0100
0010
0000
0100
0000
,
1000
0001
0100
0000
0010
1000
0100
0000
,
1000
0000
0001
1000
0010
0000
0100
0000
,
0100
0001
0010
0000
0010
0100
1000
0000
,
0001
0000
1000
0010
1000
0000
0100
0000
,
0100
0010
0001
0000
1000
0001
0100
0000
,
0010
0000
1000
0100
0010
0000
0001
0000
,
0001
1000
0010
0000
0100
0001
0010
0000
,
0001
0000
1000
0010
0100
0000
0100
0000
,
0001
1000
0100
0000
0010
0001
0100
0000
,
0001
0000
1000
0010
0100
0000
0100
0000
,
0001
1000
0001
0000
0010
0001
0100
0000
,
0001
0000
0010
0100
1000
0000
0100
0000
,
1000
0100
0010
0000
0100
1000
0001
0000
,
1000
0000
0010
0100
0001
0000
1000
0000
,
0100
1000
0001
0000
0100
0010
0100
0000
,
0001
0000
1000
0010
0100
0000
0001
0000
,
0001
0010
0100
0000
0010
0001
1000
0000
,
0001
0000
0001
0100
0010
0000
1000
0000
,
1000
0100
0010
0000
0100
1000
0001
0000
,
1000
0000
0010
0100
0001
0000
1000
0000
,
1000
0100
0010
0000
0010
0100
1000
0000
,
0001
0000
1000
0100
0010
0000
0001
0000
,
0001
0100
0010
0000
1000
0001
1000
0000
,
0010
0000
0010
0100
0001
0000
1000
0000
,
0001
1000
0001
1000
0001
1000
0001
1000
,
0100
0000
0010
0001
0100
0000
0010
0000
,
1000
0001
0100
0000
0001
0100
0010
0000
,
1000
0000
0001
0010
0100
0000
1000
0000
,
0010
0100
0001
0000
1000
0100
0010
0000
,
0001
0000
0100
0010
1000
0000
0100
0000
,
1000
0001
0010
0000
0001
0100
0001
0000
,
1000
0000
1000
0010
0100
0000
0010
0000
,
0010
1000
0100
0000
1000
0001
0010
0000
,
0100
0000
0010
0001
0100
0000
0001
0000
,
1000
0100
0010
0000
0001
1000
0100
0000
,
1000
0000
0010
0100
0001
0000
1000
0000
,
0001
0100
0010
0000
1000
0100
1000
0000
,
0001
0000
0010
0100
1000
0000
0010
0000
,
0100
0001
1000
0000
0001
0100
0010
0000
,
1000
0000
0100
1000
0001
0000
1000
0000
,
0010
0100
0001
0000
1000
0100
1000
0000
;

//---------------dance-single - ----------------
#NOTES:
     dance-single:
     :
     Medium:
     7:
     0.510532,0.508396,0.493443,0.000000,0.000000,239.000000,206.000000,33.000000,0.000000,0.000000,0.000000,0.510532,0.508396,0.493443,0.000000,0.000000,239.000000,206.000000,33.000000,0.000000,0.000000,0.000000:
0000
0000
0000
0000
,
0000
0000
0000
0000
,
0000
0000
0000
0000
,
0000
0000
0000
0000
,
0001
0100
0000
0010
,
1000
0010
0100
0001
,
0010
0100
0000
0010
,
0001
1000
0100
0010
,
0100
1000
0000
0010
,
1000
0001
0010
0001
,
1000
0001
0000
0100
,
0010
0100
0001
0010
,
0001
1000
0000
0001
,
0100
0010
1000
0100
,
1000
0001
0000
1000
,
0010
0100
0001
0010
,
0100
1000
0000
0001
,
0010
0100
1000
0010
,
0100
0001
0000
0010
,
0100
1000
0001
0000
,
1100
0000
0101
0000
,
1100
0000
0101
0000
,
1000
0001
1000
0001
,
0100
0010
0100
0010
,
1010
0000
0011
0000
,
1010
0000
0011
0000
,
0001
1000
0001
1000
,
0010
0100
0010
0100
,
1001
0000
0110
0000
,
1001
0000
0110
0000
,
0001
0100
1000
0100
,
0001
0100
1000
0100
,
1001
0000
0110
0000
,
1001
0000
0110
0000
,
0001
0010
0100
1000
,
0010
0100
0001
0000
,
1000
0100
0000
0001
,
0100
1000
0010
0100
,
0001
0010
0000
0001
,
0100
0010
1000
0100
,
0010
0100
0000
1000
,
0010
1000
0100
0010
,
0001
0100
0000
0001
,
1000
0001
0100
0010
,
1000
0100
0000
0010
,
0100
1000
0001
1000
,
0010
0100
0000
0001
,
0010
0001
1000
0010
,
0100
0001
0000
0010
,
0001
1000
0100
0010
,
0100
1000
0000
0001
,
0100
0010
1000
0100
,
1100
0000
0110
0000
,
0011
0000
1001
0000
,
0001
0100
0010
0100
,
0001
1000
0100
0010
,
0011
0000
0110
0000
,
1010
0000
0110
0000
,
0001
0100
0010
1000
,
0100
0010
0001
1000
,
1100
0000
0110
0000
,
1001
0000
0110
0000
,
0001
0100
1000
0100
,
0001
0100
1000
0100
,
0011
0000
1010
0000
,
0110
0000
0101
0000
,
1000
0100
0010
0001
,
0100
0010
1000
0000
,
1001
0000
0000
0000
;

//---------------dance-single - ----------------
#NOTES:
     dance-single:
     :
     Easy:
     4:
     0.275559,0.254198,0.000000,0.000000,0.000000,129.000000,129.000000,0.000000,0.000000,0.000000,0.000000,0.275559,0.254198,0.000000,0.000000,0.000000,129.000000,129.000000,0.000000,0.000000,0.000000,0.000000:
0000
0000
0000
0000
,
0000
0000
0000
0000
,
0000
0000
0000
0000
,
0000
0000
0000
0000
,
0001
0000
0001
0000
,
0010
0000
0100
0000
,
1000
0000
1000
0000
,
0100
0000
0010
0000
,
0001
0000
0100
0000
,
1000
0000
1000
0000
,
1000
0000
0010
0000
,
0100
0000
0100
0000
,
0001
0000
1000
0000
,
0100
0000
1000
0000
,
0001
0000
0100
0000
,
0010
0000
0100
0000
,
0001
0000
0010
0000
,
0100
0000
0100
0000
,
1000
0000
0100
0000
,
0001
0000
0100
0000
,
0010
0000
0010
0000
,
0010
0000
0010
0000
,
0100
0000
1000
0000
,
0100
0000
0001
0000
,
0100
0000
0100
0000
,
0100
0000
0100
0000
,
0010
0000
0001
0000
,
0010
0000
1000
0000
,
0010
0000
0001
0000
,
1000
0000
0001
0000
,
1000
0000
0100
0000
,
0001
0000
0100
0000
,
1000
0000
0001
0000
,
1000
0000
0001
0000
,
1000
0000
0010
0000
,
0100
0000
0001
0000
,
0010
0000
0100
0000
,
0010
0000
0010
0000
,
0001
0000
0100
0000
,
0001
0000
0001
0000
,
1000
0000
0100
0000
,
1000
0000
1000
0000
,
0010
0000
1000
0000
,
0010
0000
0010
0000
,
0100
0000
0001
0000
,
0010
0000
0100
0000
,
1000
0000
0100
0000
,
0001
0000
0100
0000
,
1000
0000
0010
0000
,
0100
0000
0001
0000
,
0010
0000
0100
0000
,
0010
0000
0001
0000
,
1000
0000
1000
0000
,
1000
0000
1000
0000
,
0100
0000
0010
0000
,
0001
0000
0100
0000
,
0001
0000
0001
0000
,
0001
0000
0001
0000
,
0010
0000
0100
0000
,
1000
0000
0010
0000
,
1000
0000
0100
0000
,
0001
0000
0100
0000
,
1000
0000
0010
0000
,
0100
0000
0001
0000
,
0010
0000
1000
0000
,
0010
0000
0001
0000
,
0100
0000
0010
0000
,
1000
0000
0100
0000
,
0010
0000
0000
0000
;

//---------------dance-single - ----------------
#NOTES:
     dance-single:
     :
     Beginner:
     1:
     0.104670,0.152519,0.000000,0.000000,0.000000,49.000000,49.000000,0.000000,0.000000,0.000000,0.000000,0.104670,0.152519,0.000000,0.000000,0.000000,49.000000,49.000000,0.000000,0.000000,0.000000,0.000000:
0000
0000
0000
0000
,
0000
0000
0000
0000
,
0000
0000
0000
0000
,
0000
0000
0000
0000
,
0001
0000
0000
0000
,
0000
0000
0000
0000
,
0100
0000
0000
0000
,
0000
0000
0000
0000
,
0010
0000
0000
0000
,
0000
0000
0000
0000
,
1000
0000
0000
0000
,
0000
0000
0000
0000
,
0100
0000
0000
0000
,
0000
0000
0000
0000
,
0010
0000
0000
0000
,
0000
0000
0000
0000
,
0100
0000
0000
0000
,
0000
0000
0000
0000
,
0010
0000
0000
0000
,
0000
0000
0000
0000
,
0001
0000
0000
0000
,
0001
0000
0000
0000
,
1000
0000
0000
0000
,
1000
0000
0000
0000
,
0001
0000
0000
0000
,
0001
0000
0000
0000
,
1000
0000
0000
0000
,
1000
0000
0000
0000
,
0100
0000
0000
0000
,
0100
0000
0000
0000
,
0010
0000
0000
0000
,
0010
0000
0000
0000
,
0100
0000
0000
0000
,
0100
0000
0000
0000
,
0010
0000
0000
0000
,
0010
0000
0000
0000
,
0001
0000
0000
0000
,
0000
0000
0000
0000
,
0100
0000
0000
0000
,
0000
0000
0000
0000
,
0010
0000
0000
0000
,
0000
0000
0000
0000
,
1000
0000
0000
0000
,
0000
0000
0000
0000
,
0100
0000
0000
0000
,
0000
0000
0000
0000
,
0010
0000
0000
0000
,
0000
0000
0000
0000
,
0001
0000
0000
0000
,
0000
0000
0000
0000
,
1000
0000
0000
0000
,
0000
0000
0000
0000
,
0100
0000
0000
0000
,
0100
0000
0000
0000
,
0010
0000
0000
0000
,
0010
0000
0000
0000
,
0001
0000
0000
0000
,
0001
0000
0000
0000
,
1000
0000
0000
0000
,
1000
0000
0000
0000
,
0001
0000
0000
0000
,
0001
0000
0000
0000
,
0100
0000
0000
0000
,
0100
0000
0000
0000
,
0010
0000
0000
0000
,
0010
0000
0000
0000
,
1000
0000
0000
0000
,
1000
0000
0000
0000
,
0100
0000
0000
0000
;
