#VERSION:0.83;
#TITLE:Return to the Depths;
#SUBTITLE:(Catacombs Future);
#ARTIST:Rainbowdragoneyes;
#TITLETRANSLIT:;
#SUBTITLETRANSLIT:;
#ARTISTTRANSLIT:;
#GENRE:The Messenger;
#ORIGIN:;
#CREDIT:[Ness];
#BANNER:The Messenger - Return to the Depths (Catacombs Future).png;
#BACKGROUND:The Messenger - Return to the Depths (Catacombs Future)-bg.png;
#PREVIEWVID:;
#JACKET:The Messenger - Return to the Depths (Catacombs Future)-jacket.png;
#CDIMAGE:;
#DISCIMAGE:;
#LYRICSPATH:;
#CDTITLE:;
#MUSIC:The Messenger - Return to the Depths (Catacombs Future).mp3;
#OFFSET:-0.015000;
#SAMPLESTART:12.810842;
#SAMPLELENGTH:12.800000;
#SELECTABLE:YES;
#BPMS:0.000=150.000;
#STOPS:;
#DELAYS:;
#WARPS:;
#TIMESIGNATURES:0.000=4=4;
#TICKCOUNTS:0.000=2;
#COMBOS:0.000=1;
#SPEEDS:0.000=1.000=0.000=0;
#SCROLLS:0.000=1.000;
#FAKES:;
#LABELS:0.000=Song Start;
#LASTSECONDHINT:105.650841;
#BGCHANGES:;
#KEYSOUNDS:;
#ATTACKS:
;

//---------------dance-single - ----------------
#NOTEDATA:;
#CHARTNAME:;
#STEPSTYPE:dance-single;
#DESCRIPTION:;
#CHARTSTYLE:;
#DIFFICULTY:Challenge;
#METER:12;
#RADARVALUES:1.024945,0.970089,0.064305,0.137797,1.483611,781.000000,774.000000,7.000000,15.000000,42.000000,0.000000,0.000000,0.000000,0.000000,1.024945,0.970089,0.064305,0.137797,1.483611,781.000000,774.000000,7.000000,15.000000,42.000000,0.000000,0.000000,0.000000,0.000000;
#CREDIT:;
#NOTES:
0000
0000
0000
0000
,
0000
0000
0000
0000
,
0000
0000
0000
0000
,
0000
0000
0000
0000
,
0020
0000
0030
0002
0000
0003
1000
0000
,
0020
0000
0030
0200
0000
0300
0001
0000
,
0100
0010
1000
0001
2000
0000
0000
0000
3000
0000
0001
1000
0100
0010
0001
0100
,
0002
0000
0000
0000
0000
0000
0000
0000
0013
0100
1000
0010
0100
0001
1000
0100
,
0010
0001
1M00
0001
0010
0001
0010
0001
1M00
0001
0010
0001
1M00
0001
0010
0001
,
0100
0010
100M
0010
0100
0010
0100
0010
100M
0010
0100
0010
100M
0010
0100
0010
,
1000
0100
001M
0100
1000
0100
1000
0100
001M
0100
1000
0100
001M
0100
1000
0100
,
0010
0001
1MM0
0001
1MM0
0001
1MM0
0001
0010
0001
1MM0
0001
1MM0
0001
1MM0
0001
,
0100
0001
M010
0001
0100
0001
0100
0001
M010
0001
0100
0001
M010
0001
0100
0001
,
0010
0100
100M
0100
0010
0100
0010
0100
100M
0100
0010
0100
100M
0100
0010
0100
,
0010
0001
1M00
0001
0010
0001
0010
0001
1M00
0001
0010
0001
1M00
0001
0010
0001
,
0200
0010
0320
1000
2030
0001
3002
0010
,
0013
0001
1000
0001
0100
0001
0010
0001
1000
0100
1000
0001
0010
0001
0100
0001
,
0010
0100
1000
0001
0100
0010
0100
0001
1000
0100
0010
0001
0100
0010
0100
0001
,
1000
0010
0100
0001
0010
0001
1000
0010
0100
0001
1000
0001
0010
0100
1000
0010
,
0100
0001
1MM0
0001
1MM0
0001
1MM0
0001
0100
0001
1MM0
0001
1MM0
0001
1MM0
0001
,
0010
0001
1000
0001
0010
0100
1000
0001
0100
0001
0010
0100
1000
0001
0100
0010
,
1000
0010
0100
0001
1000
0001
0010
0100
0010
0001
1000
0010
0100
0001
1000
0010
,
0100
0001
1000
0001
0100
0001
0100
0001
1000
0001
0100
0001
1000
0001
0100
0001
,
0010
0100
1000
0001
0010
0100
1000
0001
0010
0100
1000
0001
0010
0100
1000
0000
,
0101
0000
0001
1000
0010
0100
0001
0000
1000
0100
1000
0000
0001
0100
0001
0000
,
0010
0000
0100
1000
0010
0100
0001
0000
0001
1000
0001
0000
0010
0001
0010
0000
,
0100
0000
0010
0001
0100
0010
1000
0000
1000
0100
1000
0000
0010
0001
0010
0000
,
0001
0000
1000
0100
0010
0001
0100
0000
0001
0100
0001
0000
0001
0010
0001
0000
,
0100
0000
0010
1000
0100
1000
0001
0000
0001
1000
0100
0000
0010
0100
1000
0000
,
0010
1000
0010
0100
0001
0100
0001
1000
0010
1000
0010
0100
0001
0010
0100
1000
,
0010
0100
0001
1000
0001
0010
0001
1000
0100
0010
0100
1000
0001
0010
0001
0100
,
0020
0000
2030
0100
3200
0001
0301
0100
,
1000
0000
0001
0010
0100
0000
0010
0000
0001
0100
1000
0000
1000
0100
0001
0000
,
0010
0000
0100
1000
0010
0000
0100
0000
1000
0100
0001
0000
0001
0010
0100
0000
,
0010
0000
0001
1000
0010
0000
0100
0000
0010
1000
0001
0000
0001
0010
1000
0000
,
0010
0000
0100
1000
0100
0010
0100
0010
0001
0100
0001
0100
0010
1000
0010
1000
,
0100
1000
0100
1000
0001
0010
0001
0010
0100
1000
0100
1000
0001
1000
0001
1000
,
0001
0100
0010
0100
0001
1000
0001
0100
0010
1000
0010
0100
0001
1000
0001
0010
,
0100
1000
0100
0010
0100
1000
0001
0010
0100
0010
0001
0010
0100
1000
0001
0010
,
0100
1000
0100
0010
0100
0010
0001
0100
0001
0100
0010
1000
0010
0100
0001
0100
,
0001
1000
0100
1000
0001
1000
0001
1000
0100
1000
0001
1000
0100
1000
0001
1000
,
0010
0100
0001
0100
0010
0100
0010
0100
0001
0100
0010
0100
0001
0100
0010
0100
,
0001
0010
0100
0010
0001
0010
0001
0010
0100
0010
0001
0010
0100
0010
0001
0010
,
0001
0100
0010
1000
0100
0010
0001
0100
0010
1000
0100
0010
0001
0100
0010
1000
,
0100
1000
0010
1000
0100
1000
0100
1000
0010
1000
0100
1000
0010
1000
0100
1000
,
0001
0100
0010
0100
0001
0100
0001
0100
0010
0100
0001
0100
0010
0100
0001
0100
,
0010
1000
0100
1000
0010
1000
0010
1000
0100
1000
0010
1000
0100
1000
0010
1000
,
0010
0100
0001
1000
0001
1000
0100
1000
0001
0100
0001
1000
0010
1000
0001
1000
,
0100
0000
0010
0001
1000
0000
0100
0000
0000
0000
1000
0100
0010
0000
0001
0000
,
0100
0000
0001
0010
0100
0000
0010
0000
0001
1000
0010
0100
0001
0000
0100
0000
,
1001
0000
0001
1000
0010
0000
0000
0000
0100
0001
0010
0100
1000
0010
0100
0001
,
1000
0000
0010
1000
0100
0000
0000
0000
1000
0100
0010
0001
0010
0100
0001
0100
,
1000
0000
0010
1000
0001
0000
0100
0000
0000
0000
0010
0100
0010
0000
1000
0000
,
0001
0000
0010
0100
1000
0000
0100
0000
0010
0000
0001
1000
0010
0000
0100
0000
,
0001
0000
0010
0001
1000
0000
0010
0000
0000
0000
1000
0100
1000
0000
0001
0000
,
0010
0000
0100
1000
0001
0000
1000
0010
0100
0000
0001
1000
0010
0000
0100
0001
,
0010
0000
0000
0000
0110
0000
0001
1000
0010
0000
0000
0000
0110
0000
1000
0100
,
0010
0001
1000
0001
0100
0010
1000
0000
,
0001
0000
0000
0000
1000
0001
0010
0100
1000
0000
0010
0000
0100
0000
0010
0000
,
1000
0000
0001
0100
0010
0000
1000
0000
0100
0000
0010
0000
0001
0000
0100
0000
,
0101
0000
0000
0000
1001
0000
0010
0000
0100
0010
1000
0100
1000
0000
0001
1000
,
0010
0100
0001
0010
0100
1000
0100
0010
0001
0100
0010
0001
0010
0100
0001
1000
,
0200
0000
0000
0000
0310
0100
1000
0001
0100
0010
1000
0010
0100
1000
0100
0010
,
2000
0000
0000
0000
0100
0100
0100
3100
,
0101
0000
0000
0000
;

//---------------dance-single - ----------------
#NOTEDATA:;
#CHARTNAME:;
#STEPSTYPE:dance-single;
#DESCRIPTION:;
#CHARTSTYLE:;
#DIFFICULTY:Hard;
#METER:7;
#RADARVALUES:0.514441,0.558536,0.486882,0.376644,0.133203,392.000000,339.000000,53.000000,41.000000,0.000000,0.000000,0.000000,0.000000,0.000000,0.514441,0.558536,0.486882,0.376644,0.133203,392.000000,339.000000,53.000000,41.000000,0.000000,0.000000,0.000000,0.000000,0.000000;
#CREDIT:;
#DISPLAYBPM:0.000000;
#NOTES:
0000
0000
0000
0000
,
0000
0000
0000
0000
,
0000
0000
0000
0000
,
0000
0000
0000
0000
,
2000
0000
3000
0002
0000
0003
0010
0000
,
0200
0000
0300
2000
0000
3000
0001
0000
,
1000
0000
0010
0000
0200
0000
0000
0000
0300
0000
0001
0100
0001
0000
1000
0000
,
0200
0000
0000
0000
0310
0001
1000
0001
,
1000
0101
0000
0001
1100
0000
1001
0000
,
1000
0011
0000
0001
1010
0000
1001
0000
,
0001
1100
0000
0010
0101
0000
0110
0000
,
0001
1000
0002
0000
0100
0000
0003
0000
1000
0001
2000
0000
0010
0000
3000
0000
,
1000
0100
0000
0001
0010
0000
0110
0000
,
0010
0101
0000
1000
1010
0000
1001
0000
,
1000
0011
0000
1000
1100
0000
0011
0000
,
2001
3020
0230
0302
,
0013
0001
0000
0001
0100
0000
1100
0000
,
0100
1000
0000
1000
0010
0000
0011
0000
,
1000
0001
0000
0010
1000
0000
1001
0000
,
0010
0100
0020
0000
1000
0000
0030
0000
0100
0010
0200
0000
0001
0000
0300
0000
,
0001
1000
0000
0100
0001
0000
1100
0000
,
0001
1000
0000
0010
0001
0000
1010
0000
,
0001
1000
0000
0010
0100
0000
1001
0000
,
0001
0010
0002
0000
0100
0000
0003
0000
1000
0010
2000
0000
0100
0000
3000
0000
,
1001
0000
1000
0001
0020
0000
0130
0000
,
2000
0000
0000
0000
3001
0000
0000
0000
0100
0000
0010
0100
0001
0000
0100
0000
,
0020
0000
1030
0000
1000
0001
0200
0000
,
0302
0000
1003
0001
0100
0010
1000
0000
,
1100
0000
0100
1000
0020
0000
0130
0000
,
0002
0013
2000
3100
,
0001
1001
0100
1001
,
0010
0000
0100
0001
1000
0100
0010
0001
,
0100
2100
0010
3100
,
0002
0000
0000
0000
1003
0000
0000
0000
0020
0000
0000
0130
0000
0000
0001
0000
,
0020
0031
0002
1003
,
0010
0000
0000
0010
1000
0000
0000
1000
0001
0000
0000
0001
0100
0000
0000
0000
,
0001
0100
0001
0000
1000
0000
0000
0000
1000
0010
1000
0000
0100
0000
0000
0000
,
0010
0000
0001
0000
1000
0000
0000
0000
0001
0000
0100
0010
0100
0000
0001
0000
,
2000
0000
0000
0000
3100
0000
0000
0000
0002
0000
0000
0000
1003
0000
0001
0100
,
0001
0100
0000
0000
0000
0000
0001
1000
0000
0000
0100
0000
1000
0100
1000
0100
,
1000
0101
0000
0000
1001
0000
1010
0000
,
0000
1100
0000
0000
0110
0000
0011
0000
,
0000
1010
0000
0000
0110
0000
1001
0000
,
0010
1000
0020
0000
0100
0000
0030
0000
0001
0100
0002
0000
0010
0000
0003
0000
,
0000
1010
0000
0000
0101
0000
1100
0000
,
0000
0110
0000
0000
0011
0000
1100
0000
,
0000
1001
0000
0000
0101
0000
1010
0000
,
0100
1000
0200
0000
0010
0000
0300
0000
0001
0010
0002
0000
1000
0000
0003
0000
,
0010
0100
0001
1000
0000
0001
0010
0100
,
1000
0000
0000
0000
0002
0000
0000
0000
0103
0000
0010
1000
0010
0000
0100
0000
,
0001
0000
0101
0000
1000
0100
0001
0100
,
2000
0000
3001
0000
0100
0010
0100
0000
,
0010
1000
0100
1000
0000
0001
0100
1000
,
0100
0110
0001
1001
,
0020
0001
0130
0101
,
0001
1000
0100
0000
1000
0001
0100
0010
,
2000
0000
0000
0000
3000
0000
0001
1000
0020
0000
0000
0000
0030
0000
0100
0001
,
0010
0001
1000
0001
0100
0010
1000
0000
,
0001
0000
0000
0000
1000
0100
1000
0000
0100
0000
0010
0000
0001
0000
0100
0000
,
0001
1000
0010
1000
0100
0010
0001
0100
,
0101
0000
0000
0000
0001
0000
1000
0000
0010
0100
0010
0000
1000
0000
0100
0000
,
1000
0001
1000
0010
0100
0001
0010
0100
,
1000
0000
0001
0100
1000
0010
0100
0100
,
0002
1000
0103
0110
,
1001
0000
0000
0000
;

//---------------dance-single - ----------------
#NOTEDATA:;
#CHARTNAME:;
#STEPSTYPE:dance-single;
#DESCRIPTION:;
#CHARTSTYLE:;
#DIFFICULTY:Medium;
#METER:5;
#RADARVALUES:0.362209,0.411553,0.211288,0.220475,0.000000,276.000000,253.000000,23.000000,24.000000,0.000000,0.000000,0.000000,0.000000,0.000000,0.362209,0.411553,0.211288,0.220475,0.000000,276.000000,253.000000,23.000000,24.000000,0.000000,0.000000,0.000000,0.000000,0.000000;
#CREDIT:;
#DISPLAYBPM:0.000000;
#NOTES:
0000
0000
0000
0000
,
0000
0000
0000
0000
,
0000
0000
0000
0000
,
0000
0000
0000
0000
,
0100
0000
0000
0001
0000
0000
1000
0000
,
0010
0000
0000
1000
0000
0000
0001
0000
,
0010
0000
0000
0100
0000
0000
1000
0000
,
0002
0000
1003
0001
,
0000
1000
0000
0000
0001
0000
1001
0000
,
0000
0010
0000
0000
0100
0000
1001
0000
,
0000
0001
0000
0100
0000
0000
1010
0000
,
1000
1000
1000
0000
0001
0001
0001
0000
,
0000
0010
0000
0000
0100
0000
1001
0000
,
0000
1000
0000
0000
0001
0000
0011
0000
,
0000
0001
0000
0000
0100
0000
1010
0000
,
0002
0013
2000
3100
,
0000
1000
0000
0001
0010
0000
0110
0000
,
0000
0100
0000
1000
0001
0000
1001
0000
,
0000
0010
0000
1000
0100
0000
1001
0000
,
0100
0100
0100
0000
0010
0010
0010
0000
,
0000
0001
0000
1000
0010
0000
1010
0000
,
0000
0001
0000
1000
0100
0000
0110
0000
,
0000
1000
0000
0001
0010
0000
1001
0000
,
1000
0100
1000
0000
0001
0010
0001
0000
,
1001
0000
0001
1000
0200
0000
0310
0000
,
0002
0000
1003
0000
0010
0000
0100
0001
,
2000
3001
0020
0130
,
1000
0001
0010
0100
,
1000
0000
0001
0100
0020
0000
1030
0000
,
0200
0310
0002
0103
,
0010
1000
0001
0100
,
0010
0000
1000
0100
1000
0000
0001
0010
,
0200
1300
0002
0103
,
0010
0000
1000
0000
0001
0000
0010
0100
,
2000
3001
0200
0310
,
1000
0100
0010
0001
,
1000
0020
0230
0301
,
2000
0000
3002
0000
0013
0000
0100
1000
,
0002
0013
2000
3001
,
0000
0100
0100
0000
0010
0000
0110
0000
,
0000
1000
0000
0000
0001
0000
0101
0000
,
0000
0001
0000
0000
0010
0000
1100
0000
,
0000
0100
0000
0000
0010
0000
1001
0000
,
0001
0100
1000
0000
1000
0100
0001
0000
,
0000
0100
0000
0000
0010
0000
0011
0000
,
0000
1000
0000
0000
0001
0000
0101
0000
,
0000
0100
0000
0000
0010
0000
1001
0000
,
0010
0001
0100
0000
0010
1000
0100
0000
,
0000
0010
0000
0001
0000
1000
0000
0010
,
0100
0000
0001
0000
0010
0000
0100
1000
,
0020
0000
0130
0000
1000
0001
1000
0000
,
0010
0000
0100
0000
0001
1000
0001
0000
,
0000
0100
0000
0001
0000
0010
0000
0100
,
2000
3010
0200
0301
,
0020
0100
0130
0110
,
1000
0010
0001
0010
,
0100
0000
0000
1000
0010
0000
0000
0100
,
0001
0000
1000
0000
0010
0100
0010
0000
,
1000
0000
0001
0010
0001
0000
1000
0000
,
0010
1000
0100
0000
0001
1000
0100
0000
,
0010
0000
0001
0010
0001
0000
0100
0000
,
0010
1000
0100
0000
0010
0001
1000
0000
,
0001
0000
1000
0010
0000
0001
0010
0000
,
1000
0100
0001
0101
,
1001
0000
0000
0000
;

//---------------dance-single - ----------------
#NOTEDATA:;
#CHARTNAME:;
#STEPSTYPE:dance-single;
#DESCRIPTION:;
#CHARTSTYLE:;
#DIFFICULTY:Easy;
#METER:3;
#RADARVALUES:0.203414,0.264570,0.009186,0.303153,0.000000,155.000000,154.000000,1.000000,33.000000,0.000000,0.000000,0.000000,0.000000,0.000000,0.203414,0.264570,0.009186,0.303153,0.000000,155.000000,154.000000,1.000000,33.000000,0.000000,0.000000,0.000000,0.000000,0.000000;
#CREDIT:;
#DISPLAYBPM:0.000000;
#NOTES:
// measure 0
0000
0000
0000
0000
,  // measure 1
0000
0000
0000
0000
,  // measure 2
0000
0000
0000
0000
,  // measure 3
0000
0000
0000
0000
,  // measure 4
0200
0000
0300
0001
,  // measure 5
0020
0000
0030
0100
,  // measure 6
2000
0000
3000
0001
,  // measure 7
0020
0000
0030
0000
,  // measure 8
0100
0000
1000
1000
,  // measure 9
0001
0000
0010
0010
,  // measure 10
1000
0000
0001
0001
,  // measure 11
0200
0300
0020
0030
,  // measure 12
1000
0000
0100
0100
,  // measure 13
0010
0000
0001
0001
,  // measure 14
1000
0000
0010
0010
,  // measure 15
0100
0100
0010
0010
,  // measure 16
1001
0000
0001
0001
,  // measure 17
1000
0000
0100
0100
,  // measure 18
0010
0000
0001
0001
,  // measure 19
2000
3000
0002
0003
,  // measure 20
1000
0000
0010
0010
,  // measure 21
0100
0000
0001
0001
,  // measure 22
0010
0000
1000
1000
,  // measure 23
0200
0300
0020
0030
,  // measure 24
0002
0003
0002
0003
,  // measure 25
2000
3000
2000
3000
,  // measure 26
0010
0000
0100
0000
,  // measure 27
0001
0000
1000
0000
,  // measure 28
0200
0300
0020
0030
,  // measure 29
0200
0300
0020
0030
,  // measure 30
0001
0000
1000
0000
,  // measure 31
0010
0000
0100
0000
,  // measure 32
0002
0003
0200
0300
,  // measure 33
0020
0030
2000
3000
,  // measure 34
0200
0300
0020
0030
,  // measure 35
0002
0003
2000
3000
,  // measure 36
0100
1000
0100
0000
,  // measure 37
0010
0001
0010
0000
,  // measure 38
0002
0003
2000
3000
,  // measure 39
0020
0000
0030
0000
,  // measure 40
0100
0000
0001
0001
,  // measure 41
0010
0000
1000
1000
,  // measure 42
0001
0000
1000
1000
,  // measure 43
0020
0030
0200
0300
,  // measure 44
0001
0000
1000
1000
,  // measure 45
0100
0000
0010
0010
,  // measure 46
0001
0000
0010
0010
,  // measure 47
0200
0300
2000
3000
,  // measure 48
0001
0000
1000
0000
,  // measure 49
0010
0000
0100
0000
,  // measure 50
0001
0100
0010
1000
,  // measure 51
0001
0000
1000
0000
,  // measure 52
0100
0000
0001
0000
,  // measure 53
0100
0000
1000
0000
,  // measure 54
0010
0000
0100
0001
,  // measure 55
0010
0100
1000
0000
,  // measure 56
0001
1000
0001
0000
,  // measure 57
1000
0010
1000
0000
,  // measure 58
0001
0000
1000
0000
,  // measure 59
0001
0100
0001
0000
,  // measure 60
0010
0000
0100
0000
,  // measure 61
0010
0100
0010
0100
,  // measure 62
1000
0010
0001
0010
,  // measure 63
1000
0100
0010
0001
,  // measure 64
1000
0000
0000
0000
;

//---------------dance-single - ----------------
#NOTEDATA:;
#CHARTNAME:;
#STEPSTYPE:dance-single;
#DESCRIPTION:;
#CHARTSTYLE:;
#DIFFICULTY:Beginner;
#METER:1;
#RADARVALUES:0.095802,0.146983,0.000000,0.000000,0.000000,73.000000,73.000000,0.000000,0.000000,0.000000,0.000000,0.000000,0.000000,0.000000,0.095802,0.146983,0.000000,0.000000,0.000000,73.000000,73.000000,0.000000,0.000000,0.000000,0.000000,0.000000,0.000000,0.000000;
#CREDIT:;
#DISPLAYBPM:0.000000;
#NOTES:
// measure 0
0000
0000
0000
0000
,  // measure 1
0000
0000
0000
0000
,  // measure 2
0000
0000
0000
0000
,  // measure 3
0000
0000
0000
0000
,  // measure 4
0100
0000
0000
0000
,  // measure 5
1000
0000
0000
0000
,  // measure 6
0001
0000
0000
0000
,  // measure 7
0000
0000
0000
0000
,  // measure 8
0010
0000
0000
0000
,  // measure 9
0100
0000
0000
0000
,  // measure 10
1000
0000
0000
0000
,  // measure 11
0001
0000
0000
0000
,  // measure 12
0100
0000
0000
0000
,  // measure 13
0010
0000
0000
0000
,  // measure 14
1000
0000
0000
0000
,  // measure 15
0100
0000
0100
0000
,  // measure 16
0010
0000
0000
0000
,  // measure 17
0001
0000
0000
0000
,  // measure 18
1000
0000
0000
0000
,  // measure 19
0000
0000
0000
0000
,  // measure 20
0100
0000
0000
0000
,  // measure 21
1000
0000
0000
0000
,  // measure 22
0010
0000
0000
0000
,  // measure 23
0000
0000
0000
0000
,  // measure 24
0100
0000
0100
0000
,  // measure 25
0001
0000
0001
0000
,  // measure 26
0010
0000
0000
0000
,  // measure 27
0100
0000
0000
0000
,  // measure 28
1000
0000
1000
0000
,  // measure 29
0001
0000
0001
0000
,  // measure 30
0010
0000
0000
0000
,  // measure 31
0100
0000
0000
0000
,  // measure 32
1000
0000
0000
0000
,  // measure 33
0100
0000
0000
0000
,  // measure 34
0001
0000
0000
0000
,  // measure 35
0100
0000
0000
0000
,  // measure 36
0010
0000
0000
0000
,  // measure 37
1000
0000
0000
0000
,  // measure 38
0010
0000
0000
0000
,  // measure 39
0001
0000
0000
0000
,  // measure 40
0010
0000
0000
0000
,  // measure 41
0100
0000
0000
0000
,  // measure 42
0001
0000
0000
0000
,  // measure 43
1000
0000
0001
0000
,  // measure 44
1000
0000
0000
0000
,  // measure 45
1000
0000
0000
0000
,  // measure 46
0100
0000
0000
0000
,  // measure 47
0100
0000
0010
0000
,  // measure 48
0001
0000
0000
0000
,  // measure 49
0001
0000
0000
0000
,  // measure 50
1000
0000
0000
0000
,  // measure 51
1000
0000
0000
0000
,  // measure 52
0010
0000
0100
0000
,  // measure 53
0010
0000
0100
0000
,  // measure 54
0010
0000
0000
0000
,  // measure 55
1000
0000
0001
0000
,  // measure 56
0010
0000
0000
0000
,  // measure 57
0100
0000
0100
0000
,  // measure 58
0100
0000
0000
0000
,  // measure 59
1000
0000
1000
0000
,  // measure 60
0010
0000
0000
0000
,  // measure 61
0001
0000
0100
0000
,  // measure 62
1000
0000
1000
0000
,  // measure 63
0001
0000
0010
0000
,  // measure 64
0100
0000
0000
0000
;
