#VERSION:0.83;
#TITLE:Remembered and Forgotten;
#SUBTITLE:(Forlorn Temple Future);
#ARTIST:Rainbowdragoneyes;
#TITLETRANSLIT:;
#SUBTITLETRANSLIT:;
#ARTISTTRANSLIT:;
#GENRE:The Messenger;
#ORIGIN:;
#CREDIT:[Ness];
#BANNER:The Messenger - Remembered and Forgotten (Forlorn Temple Future).png;
#BACKGROUND:The Messenger - Remembered and Forgotten (Forlorn Temple Future)-bg.png;
#PREVIEWVID:;
#JACKET:The Messenger - Remembered and Forgotten (Forlorn Temple Future)-jacket.png;
#CDIMAGE:;
#DISCIMAGE:;
#LYRICSPATH:;
#CDTITLE:;
#MUSIC:The Messenger - Remembered and Forgotten (Forlorn Temple Future).mp3;
#OFFSET:-0.015000;
#SAMPLESTART:0.000000;
#SAMPLELENGTH:19.200001;
#SELECTABLE:YES;
#DISPLAYBPM:150.000000;
#BPMS:0.000=150.000,
143.000=600.000,
144.000=150.000;
#STOPS:143.000=0.075,
143.250=0.075,
143.500=0.075,
143.750=0.075,
150.000=0.400;
#DELAYS:;
#WARPS:;
#TIMESIGNATURES:0.000=4=4;
#TICKCOUNTS:0.000=2;
#COMBOS:0.000=1;
#SPEEDS:0.000=1.000=0.000=0;
#SCROLLS:0.000=1.000;
#FAKES:;
#LABELS:0.000=Song Start;
#LASTSECONDHINT:130.046951;
#BGCHANGES:;
#KEYSOUNDS:;
#ATTACKS:
;

//---------------dance-single - ----------------
#NOTEDATA:;
#CHARTNAME:;
#STEPSTYPE:dance-single;
#DESCRIPTION:;
#CHARTSTYLE:;
#DIFFICULTY:Challenge;
#METER:11;
#RADARVALUES:0.823267,1.055754,0.200582,0.154294,1.234349,747.000000,721.000000,26.000000,20.000000,93.000000,0.000000,20.000000,0.000000,0.000000,0.823267,1.055754,0.200582,0.154294,1.234349,747.000000,721.000000,26.000000,20.000000,93.000000,0.000000,20.000000,0.000000,0.000000;
#CREDIT:;
#DISPLAYBPM:150.000000;
#NOTES:
// measure 0
0000
0000
0000
0000
,  // measure 1
0000
0000
0000
0000
,  // measure 2
0000
0000
0000
0000
,  // measure 3
0000
0000
0000
0000
,  // measure 4
1001
0000
1000
0000
0001
0100
0001
0100
0010
0000
1000
0000
0001
0000
1000
0000
,  // measure 5
0010
0100
0010
0100
0010
0000
1000
0100
1000
0000
1000
0000
0001
0000
0010
0000
,  // measure 6
0100
1000
0100
0000
1000
0001
1000
0000
1100
0000
1000
0000
0010
0000
0001
0000
,  // measure 7
0010
0100
0010
0100
0001
0100
0001
0100
0001
0000
0100
0000
1000
0000
0100
0000
,  // measure 8
0001
0000
0000
0000
0000
0000
1000
0100
1000
0000
0000
0000
0010
0000
0000
0000
0000
0000
0100
0001
0100
0000
0000
0000
,  // measure 9
0001
1000
0100
0010
0001
0001
0100
0010
,  // measure 10
1000
0000
0000
0000
0000
0000
0010
0100
0010
0000
0000
0000
1000
0000
0000
0000
0000
0000
0001
0100
0001
0000
0000
0000
,  // measure 11
0040
0400
0000
0000
0000
0000
0000
0000
0000
0030
0300
0000
4000
0004
0000
0000
0000
0000
0000
0000
0000
3000
0003
0000
,  // measure 12
1000
0000
0000
0100
0000
0000
1000
0100
0010
0001
0000
0000
0100
0000
0000
0001
0000
0000
0010
0100
1000
0001
0000
0000
,  // measure 13
1000
0001
0100
0010
0110
0001
1000
0010
,  // measure 14
0100
0000
0000
0001
0000
0000
1000
0100
0010
0001
0000
0000
0010
0000
0000
0100
0000
0000
1000
0010
0100
0001
0000
0000
,  // measure 15
4000
0400
0000
0000
0000
0000
0000
0000
0000
3000
0300
0000
0040
0004
0000
0000
0000
0000
0000
0000
0000
0030
0003
0000
,  // measure 16
0010
0000
0000
0100
0000
0000
1000
0001
0100
0001
0000
0000
1001
0000
0000
0010
0000
0000
0100
0001
0010
0100
0000
0000
,  // measure 17
0010
0000
0100
1000
0010
0000
0100
0000
0001
0000
1000
0000
0100
0000
0100
0000
,  // measure 18
2100
0000
0000
0000
0000
0000
0000
0000
0000
3000
0000
0000
0012
0000
0000
0000
0000
0000
0000
0000
0000
0003
0000
0000
0100
0000
0000
0000
0000
0000
0010
0000
0000
0000
0000
0000
1000
0000
0001
0000
1000
0000
0100
0000
0000
0000
0000
0000
,  // measure 19
0040
0400
0000
0000
0000
0000
0000
0000
0000
0030
0300
0000
4000
0004
0000
0000
0000
0000
0000
0000
0000
3000
0003
0000
,  // measure 20
2000
0000
0000
0000
0000
0000
0000
0000
0000
0000
0000
0000
3001
0000
0010
0000
0100
0000
1000
0000
0000
0100
0000
0000
0020
0000
0000
0000
0000
0000
0000
0000
0000
0000
0000
0000
0130
0000
1000
0000
0001
0000
0100
0000
0000
0000
0000
0000
,  // measure 21
0001
0000
0100
0010
1000
0001
0010
0100
0000
0000
1020
0000
0000
0000
0030
0000
,  // measure 22
0201
0000
0000
0000
0000
0000
0310
1000
0010
0100
0000
0000
1001
0000
0000
0000
0000
0000
0001
0010
0001
1000
0000
0000
,  // measure 23
0400
4000
0000
0000
0000
0000
0000
0000
0000
0300
3000
0000
0004
0400
0000
0000
0000
0000
0000
0000
0000
0003
0300
0000
,  // measure 24
0001
0010
0001
1000
0010
0100
0001
1000
0001
0010
0001
1000
0100
0010
0001
1000
,  // measure 25
0001
0100
0001
1000
0010
0100
0001
1000
0001
0010
0001
1000
0100
0010
0001
1000
,  // measure 26
0001
0100
0010
0100
1000
0100
0010
0100
0001
1000
0010
0100
0001
0010
0100
0010
,  // measure 27
0001
0010
0001
0000
0010
0100
1000
0000
1000
0010
0100
0000
0100
0001
0010
0000
,  // measure 28
0011
0010
0100
1000
0001
0010
0001
1000
0001
0010
0100
1000
0001
0010
0001
1000
,  // measure 29
0001
0100
0010
1000
0100
1000
0001
0100
0010
1000
0100
0010
0001
0100
0010
1000
,  // measure 30
0100
0010
0100
1000
0010
0100
0001
1000
0010
0100
0010
1000
0010
0100
0001
1000
,  // measure 31
0100
0010
0100
0000
0010
0000
1100
0000
1000
0000
0101
0000
0100
0000
0001
0010
,  // measure 32
0002
0000
0000
0000
0103
0000
0000
0000
1000
0100
1000
0000
0010
0000
0000
0000
0200
0000
0000
0000
0301
0000
0000
0000
0010
0100
0010
0000
0100
0000
0000
0000
,  // measure 33
2000
3001
0020
1030
0200
0301
2000
3100
,  // measure 34
0010
0000
0000
0000
0000
0000
0000
0000
0000
0000
0000
0000
0000
0000
0000
0000
0000
0000
0000
0000
0000
0000
0000
0000
0001
0000
0000
0000
0000
0000
0000
0000
0000
0000
0000
0000
0000
0000
0000
0000
0000
0000
0000
0000
0000
0000
0000
0000
1000
0000
0000
0000
0000
0000
0010
0000
0000
0000
0000
0000
1000
0000
0000
0000
0000
0000
0000
0000
0000
0000
0000
0000
0001
0000
0000
0000
0000
0000
0000
0000
0000
0000
0000
0000
0000
0000
0000
0000
0000
0000
0000
0000
0000
0000
0000
0000
0000
0000
0000
0000
0000
0000
0000
0000
0000
0000
0000
0000
0000
0000
0000
0000
0000
0000
0000
0000
0000
0000
0000
0000
1010
0000
0000
0000
0000
0000
0000
0000
0000
0000
0000
0000
0000
0000
0000
0000
0000
0000
0000
0000
0000
0000
0000
0000
0001
0000
0000
0000
0000
0000
0000
0000
0000
0000
0000
0000
0000
0000
0000
0000
0000
0000
0000
0000
0000
0000
0000
0000
4000
0000
0000
0000
0040
0000
0000
0000
0000
0000
0000
0000
0000
0000
0000
0000
0000
0000
0000
0000
0000
0000
0000
0000
,  // measure 35
0000
0000
0000
0000
0000
0000
0000
0000
3000
0000
0030
0000
0000
0000
0000
0000
0000
0000
0000
0000
0000
0000
0000
0000
0400
0000
0004
0000
0000
0000
0000
0000
0300
0000
0003
0000
1000
0000
0000
0100
0000
0000
0010
0000
0000
0001
0000
0000
,  // measure 36
1000
0100
0001
1000
0010
0001
0100
0010
,  // measure 37
1000
0000
0001
0100
0010
1000
0100
0001
0000
0000
0002
0000
0013
0000
0100
0000
,  // measure 38
1000
0000
0000
0000
0000
0000
0000
0000
0010
0000
0000
0000
0000
0000
0000
0000
0100
0000
0000
0000
0000
0000
0000
0000
0010
0000
0000
0000
0000
0000
0000
0000
0000
0000
0000
0000
0000
0000
0000
0000
0000
0000
0000
0000
0000
0000
0000
0000
0100
0000
0000
0000
0000
0000
0000
0000
0000
0000
0000
0000
0001
0000
0000
0000
0000
0000
0000
0000
0000
0000
0000
0000
0010
0000
0000
0000
0000
0000
0000
0000
0000
0000
0000
0000
0100
0000
0000
0000
0000
0000
0000
0000
0000
0000
0000
0000
1000
0000
0000
0000
0000
0000
0000
0000
0000
0000
0000
0000
0001
0000
0000
0000
0000
0000
0000
0000
0000
0000
0000
0000
0100
0000
0000
0000
0000
0000
0010
0000
0000
0000
0000
0000
0100
0000
0000
0000
0000
0000
0000
0000
0000
0000
0000
0000
0000
0000
0000
0000
0000
0000
0000
0000
0000
0000
0000
0000
0000
0000
0000
0000
0000
0000
0000
0000
0000
0000
0000
0000
0001
0000
0000
0000
0000
0000
0100
0000
0000
0000
0000
0000
0001
0000
0000
0000
0000
0000
0000
0000
0000
0000
0000
0000
,  // measure 39
0000
0000
0000
0000
0010
0001
0010
0000
0000
0000
0000
0000
0100
0010
0100
0000
0000
0000
0000
0000
1000
0000
0000
0000
2100
0000
0000
0000
0000
0000
0000
0000
,  // measure 40
0000
0000
3001
0100
0010
1000
0100
0001
,  // measure 41
1000
0010
0001
0100
0010
0100
1000
0102
,  // measure 42
0000
0003
0011
0100
1000
0001
0000
1000
,  // measure 43
0010
0001
1000
0100
0001
0010
0100
1000
,  // measure 44
0010
0000
0001
0000
1000
0000
0100
0000
0001
0000
1000
0100
0010
0000
0100
0000
,  // measure 45
1000
0001
0010
0100
0001
0100
0010
0001
,  // measure 46
0100
0010
0001
0010
0100
1000
0100
0001
,  // measure 47
1000
0000
0000
0000
0010
0000
0000
0000
1000
0000
0000
0000
0100
0000
0000
0000
0010
0000
0000
0000
0001
0000
1000
0001
0100
0000
0000
0000
0000
0000
0000
0000
,  // measure 48
2010
0000
0001
0000
3100
0000
0012
0000
0000
0000
1003
0000
0100
0010
0001
0100
,  // measure 49
0010
1000
0100
0010
0001
0000
1000
0001
0100
0010
1000
0000
0100
0000
0010
0000
,  // measure 50
1000
0100
0000
0021
0000
0030
1100
0000
,  // measure 51
1000
0000
0000
0001
0000
0000
0100
0000
0000
2000
0000
0000
0000
0000
0000
3100
0000
0000
0010
0000
000M
0000
0M00
0000
,  // measure 52
M000
0000
00M0
0000
0M00
0000
100M
0000
00M0
0001
0M00
0000
M010
0000
000M
0100
M000
0000
00M1
0000
0M00
0000
M000
0000
,  // measure 53
00M0
000M
0M00
00M0
M000
0M00
000M
00M0
M000
001M
0M00
M000
,  // measure 54
000M
0000
00M0
0000
M000
0000
01M0
0000
M000
0001
0M00
0000
10M0
0000
000M
0010
0M00
0000
M001
0000
00M0
0000
0M00
0000
,  // measure 55
M000
000M
0MM0
000M
0M00
M000
00M0
0M00
M000
001M
0M00
M000
,  // measure 56
00M0
0000
000M
0000
M000
0000
0M01
0000
00M0
1000
0M00
0000
001M
0000
M000
0100
000M
0000
10M0
0000
000M
0000
0M00
0000
,  // measure 57
M000
00M0
0M00
M000
000M
00M0
0M00
M000
00M0
010M
M000
00M0
,  // measure 58
0M00
0000
000M
0000
M000
0000
00M1
0000
0M00
1000
00M0
0000
010M
0000
M000
0001
00M0
0000
1M00
0000
00M0
0000
000M
0000
,  // measure 59
0M00
0000
M000
0000
00M0
0000
0M00
0000
000M
0000
M000
0000
0000
0000
0000
0000
0000
0000
1001
0000
0000
1000
0000
0000
,  // measure 60
0001
0100
0000
0001
1000
0010
0100
0001
0000
0000
0010
0000
0100
0000
1000
0000
,  // measure 61
0010
0100
0000
0010
1000
0100
0010
0001
0100
0001
0010
0100
0000
1000
0010
0000
,  // measure 62
0100
0001
0000
0010
0100
1000
0001
0000
0100
0001
0000
0010
0100
1000
0100
0000
,  // measure 63
0010
0001
0000
1000
0010
0100
0001
0000
0100
0010
0000
1000
0100
0010
0001
0000
,  // measure 64
1000
0010
0000
0100
0001
0100
0010
1000
0000
0100
0010
0000
0001
0100
0001
0000
,  // measure 65
0010
0100
0000
1000
0001
0100
0001
0010
0100
0000
0010
0001
0000
0010
0100
0000
,  // measure 66
1000
0010
0000
0100
0000
0001
0010
0000
0100
1000
0000
0001
1000
0100
0010
0000
,  // measure 67
0001
0100
0000
0010
1000
0000
0100
0000
0010
0001
1000
0100
0010
0000
0001
0000
,  // measure 68
1000
0100
0000
0100
0010
0001
1000
0100
0000
0010
0001
0100
0001
0000
1000
0001
,  // measure 69
0100
0010
0000
1000
0010
1000
0001
0100
0010
0100
0001
1000
0000
0010
0100
0000
,  // measure 70
0001
0010
0000
0100
1000
0001
0100
0000
0010
1000
0000
0001
0100
0010
1000
0000
,  // measure 71
0001
0010
0000
0100
1000
0100
0010
0000
0001
1000
0000
0100
1000
0010
0100
0000
,  // measure 72
0010
1000
0000
0100
0010
0001
0100
0010
0000
1000
0001
0000
0100
0010
1000
0000
,  // measure 73
0001
0010
0000
0100
1000
0001
0100
0010
1000
0000
0001
0010
0000
0100
1000
0000
,  // measure 74
0010
0100
0000
0001
0000
1000
0100
0000
0010
0001
0000
0100
0010
1000
0001
0000
,  // measure 75
0010
0000
0000
0100
0000
0000
0000
0000
0000
1000
0000
0000
0010
0000
0000
0000
0100
0000
0000
0000
0101
0000
0000
0000
0000
0000
0000
0000
0001
0000
0000
0000
1000
0000
0000
0000
0100
0000
0000
1000
0000
0000
0001
0000
0000
0000
0000
0000
,  // measure 76
0010
0100
0000
0100
1000
0010
0100
0000
0001
0010
0000
0001
0100
0010
1000
0000
,  // measure 77
0100
0010
0000
0001
1000
0010
0100
0000
0001
0010
0000
0100
1000
0000
1100
0000
,  // measure 78
0100
0000
0101
0000
0001
0000
0011
0000
0010
0000
1010
0000
0100
0001
0010
0100
,  // measure 79
1000
0010
0001
0010
0100
0001
1000
0100
0001
0100
1000
0100
0020
0000
0000
0000
,  // measure 80
0000
0000
0030
0000
;

//---------------dance-single - ----------------
#NOTEDATA:;
#CHARTNAME:;
#STEPSTYPE:dance-single;
#DESCRIPTION:;
#CHARTSTYLE:;
#DIFFICULTY:Hard;
#METER:9;
#RADARVALUES:0.607256,0.714187,0.146579,0.169723,0.605602,551.000000,532.000000,19.000000,22.000000,47.000000,0.000000,0.000000,0.000000,0.000000,0.607256,0.714187,0.146579,0.169723,0.605602,551.000000,532.000000,19.000000,22.000000,47.000000,0.000000,0.000000,0.000000,0.000000;
#CREDIT:;
#DISPLAYBPM:150.000000;
#NOTES:
// measure 0
0000
0000
0000
0000
,  // measure 1
0000
0000
0000
0000
,  // measure 2
0000
0000
0000
0000
,  // measure 3
0000
0000
0000
0000
,  // measure 4
2002
0000
3003
0000
1010
1000
0001
1000
,  // measure 5
0020
0000
0030
0000
1001
0001
0100
0010
,  // measure 6
0200
0000
0300
0000
0101
0001
0010
1000
,  // measure 7
0200
0000
0320
0000
0031
0100
0010
1000
,  // measure 8
0100
0000
0000
0000
0001
0100
0000
0000
0100
0000
0000
0000
1000
0010
0000
0000
,  // measure 9
0100
0001
1000
0100
0100
1000
0001
0100
,  // measure 10
0100
0000
0000
0000
1000
0100
0000
0000
0100
0000
0000
0000
0001
0010
0000
0000
,  // measure 11
0010
0100
1000
0000
0001
0000
0000
0000
1000
0001
0010
0000
0100
0000
0000
0000
,  // measure 12
0010
0000
0000
0000
0001
0100
0001
0000
1000
0000
0010
0000
0100
0001
0010
0000
,  // measure 13
0200
0000
0000
0000
1300
0000
0100
0010
,  // measure 14
0001
0000
0000
0000
0010
0001
1000
0000
0010
0000
0100
0000
0001
1000
0100
0000
,  // measure 15
0010
0001
0100
0000
0001
0000
0000
0000
1000
0010
0100
0000
0010
0000
0000
0000
,  // measure 16
1100
0000
0000
0000
1000
0001
0100
0000
0001
0000
1000
0000
0010
0100
0001
0000
,  // measure 17
0200
0000
0301
0000
0001
1000
0100
1000
,  // measure 18
0001
0000
0000
0000
0100
0001
0010
0000
0100
0000
1000
0000
0010
0100
0001
0000
,  // measure 19
1000
0010
0100
0000
0001
0000
0000
0000
1000
0100
0010
0000
0001
0000
0000
0000
,  // measure 20
0102
0000
0000
0000
1003
0001
1000
0000
0020
0000
0000
0000
0130
0001
0100
0000
,  // measure 21
0001
0000
0010
0100
1000
0000
1000
0001
0000
0000
0101
0000
0000
0000
0000
0000
,  // measure 22
2010
0000
0000
0000
3001
1000
0100
0000
2000
0000
0000
0000
3010
1000
0001
0000
,  // measure 23
1000
0100
0010
0000
0001
0000
0000
0000
0100
0001
1000
0000
0010
0000
0000
0000
,  // measure 24
1001
0000
0000
0001
0100
0000
0000
0100
0010
0000
0000
0010
1000
0000
0000
0100
,  // measure 25
1000
0100
1000
0001
0200
0000
0310
0000
,  // measure 26
1000
0000
0000
1000
0010
0000
0000
0010
0100
0000
0000
0001
1000
0000
0000
0000
,  // measure 27
0001
1000
0001
0000
0010
0000
0010
0000
0100
0000
0100
0000
1000
0000
1000
0000
,  // measure 28
0001
0000
0000
0001
0100
0000
0000
0100
1000
0000
0000
0010
0100
0000
0000
0001
,  // measure 29
0010
0000
0000
0010
1000
0000
0000
1000
0001
0000
0000
0001
0010
0000
0000
1000
,  // measure 30
0100
0000
0000
0100
1000
0000
0000
0100
0001
0000
0000
0100
0001
0000
0000
0000
,  // measure 31
1000
0001
1000
0000
0001
0000
0001
0000
0100
0000
0100
0000
0010
0000
0010
0000
,  // measure 32
1000
0000
0000
1000
0100
0010
0000
0000
0001
0000
0000
0001
0100
0010
0000
0000
,  // measure 33
1000
0010
0100
0001
0001
0010
0100
1000
,  // measure 34
0100
0000
0000
0001
0100
0010
0000
0000
1000
0000
0000
1000
0100
0010
0000
0000
,  // measure 35
0001
0200
0000
0000
0310
0000
0000
0000
1000
0200
0000
0000
1300
0001
1000
0001
,  // measure 36
1000
0100
0001
0010
1000
0001
0100
1000
,  // measure 37
0100
0010
1001
0101
,  // measure 38
0001
0000
1000
0000
0100
0000
1000
0000
0001
0000
0100
0001
0000
0000
0001
1000
,  // measure 39
0000
0000
1000
0010
0000
0000
0010
0001
0000
0000
0100
0000
1001
0000
0000
0000
,  // measure 40
0010
0000
0100
1000
0010
0001
0010
1000
,  // measure 41
0100
0010
0001
0100
0100
0010
1000
1001
,  // measure 42
0000
0000
0000
0000
0001
0000
0100
0000
0010
0000
0001
0000
0100
0010
1000
0000
,  // measure 43
0100
0000
0100
0000
0010
0001
1000
0000
0010
0000
0100
0000
0002
0000
0000
0000
,  // measure 44
1003
0010
1010
0000
0001
0000
1000
0100
,  // measure 45
0010
0001
0200
0000
1000
0000
0301
0000
,  // measure 46
0010
0000
0001
0000
1001
0000
0000
0000
0010
0000
0100
0000
0010
0000
0000
0010
,  // measure 47
1000
0000
0000
1000
0100
0000
0000
0100
0010
0000
0000
0001
0200
0000
0000
0000
,  // measure 48
0010
0000
0000
0000
0301
0000
0020
0000
0000
0000
1000
0000
0130
0000
0000
0100
,  // measure 49
0001
0000
0000
0001
1000
0000
0000
1000
0010
0000
0100
0000
0001
0000
1000
0000
,  // measure 50
0001
1100
0000
0011
0000
0000
0200
0000
,  // measure 51
0320
0000
0000
0000
0000
0000
1030
0000
0000
0001
0000
0000
1000
0000
0000
0000
0000
0000
1100
0000
0000
0000
000M
0000
,  // measure 52
0000
0000
00M0
0000
0000
0000
100M
0000
0000
0010
0M00
0000
0001
0000
M000
0100
0000
0000
001M
0000
0000
0000
0M00
0000
,  // measure 53
0000
M000
0000
00M0
0000
000M
0000
0M00
0000
00M1
0000
M000
,  // measure 54
0000
0000
0M00
0000
0000
0000
100M
0000
0000
0100
00M0
0000
0001
0000
M000
0100
0000
0000
10M0
0000
0000
0000
000M
0000
,  // measure 55
0000
0M00
0000
00M0
0000
M000
0000
000M
0000
M100
0000
00M0
,  // measure 56
0000
0000
000M
0000
0000
0000
0M10
0000
0000
0001
M000
0000
0010
0000
0M00
1000
0000
0000
001M
0000
0000
0000
M000
0000
,  // measure 57
0000
00M0
0000
000M
0000
M000
0000
000M
0000
0100
M000
0000
,  // measure 58
00M0
0000
0000
0000
000M
0000
0010
0000
M000
0001
0000
0000
01M0
0000
0000
0010
000M
0000
1000
0000
0M00
0000
0000
0000
,  // measure 59
00M0
0000
M000
0000
0M00
0000
000M
0000
M000
0001
0000
0000
,  // measure 60
1000
0000
0000
0000
0010
0000
0000
0100
0000
0000
0100
0000
0001
0000
0000
0000
,  // measure 61
1000
0000
0000
0000
0100
0000
0000
0010
0000
0000
0010
0000
0001
0000
0000
1000
,  // measure 62
0000
0000
1000
0000
0010
0000
0000
0100
0000
0000
0100
0000
0001
0000
0000
0000
,  // measure 63
1000
0000
0000
0000
0100
0000
1000
0000
0001
0000
0100
0000
0100
0000
0000
0010
,  // measure 64
0000
0000
1000
0000
0100
0000
0000
0001
0000
0000
0100
0000
1000
0000
0000
0001
,  // measure 65
0000
0000
0100
0000
0100
0001
0000
0001
1000
0000
0100
0000
0010
0000
0000
0100
,  // measure 66
0000
0000
0010
0000
0001
0000
0000
1000
0000
0000
0010
0000
0100
0000
0000
0001
,  // measure 67
0000
0000
0100
0000
0010
0000
1000
0100
0000
1000
0100
0000
0001
0000
0100
0010
,  // measure 68
0000
0100
0010
0000
1000
0000
0001
1000
0000
0001
1000
0000
0100
0000
0010
0001
,  // measure 69
0000
0010
0001
0000
1000
0000
0010
0100
0000
0001
0100
0000
0010
0000
1000
0100
,  // measure 70
0000
0010
0001
0000
0100
0000
0001
1000
0000
1000
0010
0000
0100
0000
0001
0010
,  // measure 71
0000
0100
0010
0000
0001
0000
1000
0000
1000
0100
0000
0100
0010
0000
0001
1000
,  // measure 72
0000
0001
1000
0000
0001
0000
0100
0001
0000
0100
0001
0000
1000
0000
0010
0100
,  // measure 73
0000
0010
0100
0000
0001
1000
0000
1000
0100
0000
0010
0000
0010
0000
1000
0010
,  // measure 74
0000
0001
0010
0000
0100
0000
1000
0001
0000
1000
0100
0000
0010
0000
0001
0100
,  // measure 75
0000
0000
0000
1000
0000
0000
0100
0000
0000
0000
0000
0000
0001
0000
0000
0000
0010
0000
0000
0000
0001
0000
0000
0000
0000
0000
0000
0000
1000
0000
0000
0000
0100
0000
0000
0000
1000
0000
0000
0000
0000
0000
0000
0000
0000
0000
0000
0000
,  // measure 76
0101
0000
0010
1000
0100
0100
0010
0001
,  // measure 77
1000
1000
0001
0100
0010
0010
1000
0001
,  // measure 78
1000
0000
0010
0000
1000
0000
0100
0000
0010
0000
0001
0000
0100
0010
0100
0000
,  // measure 79
0001
0100
0001
0000
1000
0001
1000
0100
1000
0001
0100
0001
0020
0000
0000
0000
,  // measure 80
0000
0000
0030
0000
;

//---------------dance-single - ----------------
#NOTEDATA:;
#CHARTNAME:;
#STEPSTYPE:dance-single;
#DESCRIPTION:;
#CHARTSTYLE:;
#DIFFICULTY:Medium;
#METER:6;
#RADARVALUES:0.428716,0.558929,0.270014,0.239155,0.007715,389.000000,354.000000,35.000000,31.000000,0.000000,0.000000,0.000000,0.000000,0.000000,0.428716,0.558929,0.270014,0.239155,0.007715,389.000000,354.000000,35.000000,31.000000,0.000000,0.000000,0.000000,0.000000,0.000000;
#CREDIT:;
#DISPLAYBPM:150.000000;
#NOTES:
// measure 0
0000
0000
0000
0000
,  // measure 1
0000
0000
0000
0000
,  // measure 2
0000
0000
0000
0000
,  // measure 3
0000
0000
0000
0000
,  // measure 4
2200
0000
3300
0000
1000
0010
1000
0001
,  // measure 5
0200
0000
0300
0000
0001
0010
0001
1000
,  // measure 6
0002
0000
0003
0000
1000
0100
0010
0001
,  // measure 7
0100
0000
0010
0000
1000
0001
0100
0010
,  // measure 8
0200
0301
2000
3100
,  // measure 9
0010
0100
1000
0000
0010
1000
0100
0000
,  // measure 10
0002
1003
0020
0130
,  // measure 11
1000
1000
1000
0000
0001
0001
0001
0000
,  // measure 12
2000
3100
0002
0013
,  // measure 13
0100
1000
0001
0000
0100
0010
1000
0000
,  // measure 14
0002
0103
0020
0130
,  // measure 15
0001
0001
0001
0000
1000
1000
1000
0000
,  // measure 16
0002
0013
2000
3010
,  // measure 17
0100
0001
0100
0000
0010
1000
0100
0000
,  // measure 18
2000
3100
0002
0013
,  // measure 19
0100
0100
0100
0000
0010
0010
0010
0000
,  // measure 20
1001
0000
0010
0001
0100
0000
0001
0000
,  // measure 21
1000
0100
0010
0000
0001
0000
1000
0000
,  // measure 22
0010
1000
0100
0000
0001
0100
0010
0000
,  // measure 23
1000
0000
0001
0000
0010
0100
0010
0000
,  // measure 24
0220
0330
2002
3003
,  // measure 25
0001
0010
0001
1000
0100
0000
0100
0000
,  // measure 26
0010
0001
1000
0001
0010
0000
0010
0000
,  // measure 27
0100
0000
1000
0001
1000
0000
0110
0000
,  // measure 28
2020
3030
2200
3300
,  // measure 29
1000
0100
0001
0100
0010
0000
0010
0000
,  // measure 30
0001
0100
0010
0000
1000
0010
0100
0000
,  // measure 31
0110
0000
0001
0100
0001
0000
1000
0000
,  // measure 32
0100
1001
0010
0101
,  // measure 33
0001
0100
1000
0000
1000
0100
0010
0000
,  // measure 34
0001
1010
0100
0101
,  // measure 35
1000
1000
2000
0000
3001
0001
0002
0000
,  // measure 36
0103
1000
0010
0001
,  // measure 37
0100
1000
0010
1000
,  // measure 38
0100
0000
0001
0000
0010
0100
0000
1001
,  // measure 39
0000
0010
0000
0110
0000
0100
1001
0000
,  // measure 40
0000
0000
1000
0001
1000
0001
0010
0000
,  // measure 41
0100
0000
1000
0000
0001
0000
0100
0010
,  // measure 42
1000
0000
0001
0000
1000
0000
0100
0010
,  // measure 43
0100
0000
0001
1000
0001
0000
0202
0000
,  // measure 44
0303
0000
2020
0000
3030
0000
1000
0100
,  // measure 45
1000
0001
0010
0000
0100
0000
0010
0000
,  // measure 46
0001
1001
0000
0010
,  // measure 47
0001
1000
0001
0110
,  // measure 48
1000
0000
0110
0000
0001
0000
1000
0100
,  // measure 49
1000
0001
0100
0000
0010
0000
1000
0000
,  // measure 50
1001
0010
0110
0001
,  // measure 51
0010
0100
0010
0000
0110
0000
1001
0000
,  // measure 52
0000
0000
0001
1000
0010
0100
0001
0000
,  // measure 53
0000
0000
0000
0010
,  // measure 54
0000
0000
0001
1000
0100
0010
0001
0000
,  // measure 55
0000
0000
0000
1000
,  // measure 56
0000
0000
0010
0100
0001
1000
0100
0000
,  // measure 57
0000
0000
0000
0010
,  // measure 58
0000
0000
0001
1000
0010
0100
0001
0000
,  // measure 59
0000
0000
0000
0100
,  // measure 60
1001
0000
0010
0001
1000
0001
0010
0000
,  // measure 61
0001
0100
0001
1000
,  // measure 62
0100
0000
0010
0100
1000
0100
0010
0000
,  // measure 63
0100
1000
0001
0100
,  // measure 64
0010
0000
1000
0100
0010
0100
1000
0000
,  // measure 65
0001
0100
0010
0100
,  // measure 66
0001
0000
0010
0001
0100
0001
0010
0000
,  // measure 67
0100
1000
0001
0100
,  // measure 68
0010
0000
1000
0100
1000
0001
0100
0000
,  // measure 69
0010
1000
0001
0010
,  // measure 70
0100
0000
0010
0001
1000
0001
0010
0000
,  // measure 71
0100
1000
0010
0100
,  // measure 72
0001
0000
1000
0010
0100
0001
0010
0000
,  // measure 73
0001
1000
0001
0100
,  // measure 74
0010
1000
0100
0010
,  // measure 75
0001
0000
0000
1000
0000
1000
0000
1000
0000
1000
0000
0000
,  // measure 76
0001
1100
0101
0110
,  // measure 77
1010
0011
0011
1001
,  // measure 78
0110
0000
1001
0000
0110
0000
0001
1000
,  // measure 79
0001
1000
0010
0100
0010
0100
0020
0000
,  // measure 80
0000
0000
0030
0000
;

//---------------dance-single - ----------------
#NOTEDATA:;
#CHARTNAME:;
#STEPSTYPE:dance-single;
#DESCRIPTION:;
#CHARTSTYLE:;
#DIFFICULTY:Easy;
#METER:4;
#RADARVALUES:0.284341,0.465774,0.115720,0.385734,0.000000,258.000000,243.000000,15.000000,50.000000,0.000000,0.000000,0.000000,0.000000,0.000000,0.284341,0.465774,0.115720,0.385734,0.000000,258.000000,243.000000,15.000000,50.000000,0.000000,0.000000,0.000000,0.000000,0.000000;
#CREDIT:;
#DISPLAYBPM:150.000000;
#NOTES:
// measure 0
0000
0000
0000
0000
,  // measure 1
0000
0000
0000
0000
,  // measure 2
0000
0000
0000
0000
,  // measure 3
0000
0000
0000
0000
,  // measure 4
2000
3000
0010
1000
,  // measure 5
0002
0003
0010
0100
,  // measure 6
2000
3000
0100
0001
,  // measure 7
0010
1000
0200
0300
,  // measure 8
0010
0010
0001
0001
,  // measure 9
0200
0300
0020
0030
,  // measure 10
1000
1000
0001
0001
,  // measure 11
2000
3000
0200
0300
,  // measure 12
0010
0100
0010
0100
,  // measure 13
0020
0000
0030
0000
,  // measure 14
0000
0001
0100
0010
,  // measure 15
0200
0300
0002
0003
,  // measure 16
1000
0001
0100
0010
,  // measure 17
2000
0000
3001
0000
,  // measure 18
0010
0001
1000
0010
,  // measure 19
0200
0300
0020
0030
,  // measure 20
1000
0100
0010
0000
,  // measure 21
0000
0001
1000
0000
,  // measure 22
0001
0100
0010
1000
,  // measure 23
0200
0300
0020
0030
,  // measure 24
0001
0010
0001
0010
,  // measure 25
1000
0010
1000
0010
,  // measure 26
0001
1000
0001
1000
,  // measure 27
0001
0100
0010
1000
,  // measure 28
0100
0100
0010
0010
,  // measure 29
0100
0100
0010
0010
,  // measure 30
0001
0100
0010
1000
,  // measure 31
0100
0010
0001
1000
,  // measure 32
0200
0300
2000
3000
,  // measure 33
0002
0003
0200
0300
,  // measure 34
0010
1000
0100
0010
,  // measure 35
0200
0300
0020
0030
,  // measure 36
0001
0001
1000
1000
,  // measure 37
0200
0300
0010
0001
,  // measure 38
0001
0100
0100
0020
,  // measure 39
0030
2000
3000
0100
,  // measure 40
0001
0100
1000
0020
,  // measure 41
0030
0200
0300
0010
,  // measure 42
1000
0010
0001
0200
,  // measure 43
0300
0020
0030
1000
,  // measure 44
0100
1000
0100
0001
,  // measure 45
0100
0001
0100
1000
,  // measure 46
0100
1000
0100
0010
,  // measure 47
0001
0100
0010
1000
,  // measure 48
1000
0001
0001
0100
,  // measure 49
0100
0010
0010
1000
,  // measure 50
0100
0010
0001
1000
,  // measure 51
0001
1000
0001
0020
,  // measure 52
0030
0100
1000
0002
,  // measure 53
0003
2000
3000
0002
,  // measure 54
0003
0010
0001
0200
,  // measure 55
0300
0020
0030
2000
,  // measure 56
3000
0001
1000
0200
,  // measure 57
0300
0020
0030
0002
,  // measure 58
0003
0100
0010
2000
,  // measure 59
3000
0200
0300
0001
,  // measure 60
0001
1000
0001
0100
,  // measure 61
0000
0100
0000
1000
,  // measure 62
1000
0001
1000
0100
,  // measure 63
0000
0010
0000
1000
,  // measure 64
1000
0010
1000
0100
,  // measure 65
0000
0001
0000
0010
,  // measure 66
0010
0100
0010
0001
,  // measure 67
0000
1000
0000
1001
,  // measure 68
0010
1000
0001
0100
,  // measure 69
0010
1000
0100
1001
,  // measure 70
0100
1000
0001
0010
,  // measure 71
0100
0010
0001
1001
,  // measure 72
0001
0100
0010
1000
,  // measure 73
0001
0010
0100
1001
,  // measure 74
0001
0100
0010
1000
,  // measure 75
0100
1100
0000
0202
,  // measure 76
0303
2002
3003
0220
,  // measure 77
0330
2020
3030
0011
,  // measure 78
0010
1001
1000
1100
,  // measure 79
0101
0011
1010
0020
,  // measure 80
0000
0000
0030
0000
;

//---------------dance-single - ----------------
#NOTEDATA:;
#CHARTNAME:;
#STEPSTYPE:dance-single;
#DESCRIPTION:;
#CHARTSTYLE:;
#DIFFICULTY:Beginner;
#METER:2;
#RADARVALUES:0.175233,0.403671,0.046288,0.084861,0.000000,159.000000,153.000000,6.000000,11.000000,0.000000,0.000000,0.000000,0.000000,0.000000,0.175233,0.403671,0.046288,0.084861,0.000000,159.000000,153.000000,6.000000,11.000000,0.000000,0.000000,0.000000,0.000000,0.000000;
#CREDIT:;
#DISPLAYBPM:150.000000;
#NOTES:
// measure 0
0000
0000
0000
0000
,  // measure 1
0000
0000
0000
0000
,  // measure 2
0000
0000
0000
0000
,  // measure 3
0000
0000
0000
0000
,  // measure 4
0001
0000
0100
0000
,  // measure 5
1000
0000
0100
0000
,  // measure 6
0010
0000
0001
0000
,  // measure 7
1000
0000
0010
0000
,  // measure 8
0100
0100
0000
0001
,  // measure 9
0000
0000
0000
0000
,  // measure 10
0000
1000
0000
0100
,  // measure 11
0200
0300
0200
0300
,  // measure 12
0000
0010
0000
0010
,  // measure 13
0000
0000
0000
0000
,  // measure 14
0000
0001
0000
1000
,  // measure 15
2000
3000
2000
3000
,  // measure 16
0000
0010
0000
0100
,  // measure 17
0000
0000
0000
0000
,  // measure 18
0000
1000
0000
0001
,  // measure 19
0002
0003
0002
0003
,  // measure 20
0010
0000
0100
0000
,  // measure 21
0000
0010
0010
0000
,  // measure 22
0100
0000
1000
0000
,  // measure 23
0020
0030
0020
0030
,  // measure 24
0100
0000
0100
0000
,  // measure 25
0001
0000
0001
0000
,  // measure 26
1000
0000
1000
0000
,  // measure 27
0100
0000
0010
0000
,  // measure 28
0100
0000
1000
0000
,  // measure 29
0001
0000
0100
0000
,  // measure 30
0010
0000
1000
0000
,  // measure 31
0001
0000
0010
0000
,  // measure 32
0001
0000
0001
0000
,  // measure 33
1000
0000
1000
0000
,  // measure 34
0010
0000
0010
0000
,  // measure 35
0200
0300
0200
0300
,  // measure 36
0001
0000
0001
0000
,  // measure 37
0010
0000
0000
1000
,  // measure 38
0000
1000
0000
0010
,  // measure 39
0000
0010
0000
0100
,  // measure 40
0000
0001
0000
0010
,  // measure 41
0000
1000
0000
0010
,  // measure 42
0000
0100
0000
0001
,  // measure 43
0000
1000
0000
0100
,  // measure 44
0100
0100
0000
0010
,  // measure 45
0010
0010
0000
0001
,  // measure 46
0000
0010
0000
1000
,  // measure 47
0000
0010
0000
0100
,  // measure 48
0000
0100
0000
1000
,  // measure 49
0000
1000
0000
0001
,  // measure 50
0000
0001
0000
0100
,  // measure 51
0000
0010
0000
1000
,  // measure 52
0000
1000
1000
1000
,  // measure 53
0000
0000
0000
0001
,  // measure 54
0000
0001
0001
0001
,  // measure 55
0000
0000
0000
0100
,  // measure 56
0000
0100
0100
0100
,  // measure 57
0000
0000
0000
0010
,  // measure 58
0000
0010
0010
0010
,  // measure 59
0000
0000
0000
1000
,  // measure 60
0000
1000
0000
0001
,  // measure 61
0000
0001
0000
0010
,  // measure 62
0000
0010
0000
0100
,  // measure 63
0000
0100
0000
1000
,  // measure 64
0000
1000
0000
0100
,  // measure 65
0000
0100
0000
0010
,  // measure 66
0000
0010
0000
0001
,  // measure 67
0000
0001
0000
1000
,  // measure 68
0000
0001
0000
0010
,  // measure 69
0000
0100
0000
1000
,  // measure 70
0000
0010
0000
0100
,  // measure 71
0000
0001
0000
1000
,  // measure 72
0000
0100
0000
0010
,  // measure 73
0000
0100
0000
1000
,  // measure 74
0000
0001
0000
0010
,  // measure 75
0000
0100
0000
0100
,  // measure 76
0100
0100
0000
0010
,  // measure 77
0010
0010
0000
0110
,  // measure 78
0110
0110
0000
1001
,  // measure 79
1001
1001
0000
0200
,  // measure 80
0000
0000
0300
0000
;
