#TITLE:Quillshroom's Horrors;
#SUBTITLE:(Quillshroom Marsh Past);
#ARTIST:Rainbowdragoneyes;
#TITLETRANSLIT:;
#SUBTITLETRANSLIT:;
#ARTISTTRANSLIT:;
#GENRE:The Messenger;
#CREDIT:[Ness];
#BANNER:The Messenger - Quillshroom's Horrors (Quillshroom Marsh Past).png;
#BACKGROUND:The Messenger - Quillshroom's Horrors (Quillshroom Marsh Past)-bg.png;
#LYRICSPATH:;
#CDTITLE:;
#MUSIC:The Messenger - Quillshroom's Horrors (Quillshroom Marsh Past).mp3;
#OFFSET:-0.015000;
#SAMPLESTART:14.411201;
#SAMPLELENGTH:14.400359;
#LASTBEATHINT:276.000000;
#SELECTABLE:YES;
#DISPLAYBPM:133.000000;
#BPMS:0.000000=133.330002
,228.000000=399.989990
,232.000000=266.660004
,233.333328=177.772995
,236.000000=133.330002
;
#STOPS:
;
#BGCHANGES:;
#KEYSOUNDS:;
#ATTACKS:;

//---------------dance-single - ----------------
#NOTES:
     dance-single:
     :
     Challenge:
     10:
     0.715412,0.743259,0.110934,0.253564,1.509497,632.000000,618.000000,14.000000,32.000000,0.000000,0.000000,0.715412,0.743259,0.110934,0.253564,1.509497,632.000000,618.000000,14.000000,32.000000,0.000000,0.000000:
0000
0000
0000
0000
,
0000
0000
0000
0000
,
0000
0000
0000
0000
,
0000
0000
0000
0000
,
1001
0000
0010
0000
0001
0000
1000
0000
0001
0000
1000
0000
,
0100
0000
0010
0000
0100
0000
1000
0000
0001
0000
0100
0010
,
1000
0000
0100
0000
0010
0000
0001
0000
1000
0000
0001
0000
,
0100
0000
1000
0000
0010
0100
0001
0010
0001
1000
0100
0010
,
0001
0000
0000
0000
0001
0000
0010
0000
0000
0000
0010
0000
0100
1000
0100
0000
1000
0000
0100
0000
0000
0000
0100
0000
,
1000
0000
0000
0000
1000
0000
0010
0000
0000
0000
0010
0000
0100
0001
0100
0000
0001
0000
0100
0000
0000
0000
0100
0000
,
0010
0000
0000
0000
0010
0000
1000
0000
0000
0000
1000
0000
0001
1000
0001
0000
1000
0000
0010
0000
0000
0000
0010
0000
,
0100
0000
0000
0000
0100
0000
0001
0000
0000
0000
0001
0000
0010
0100
0010
0000
0100
0000
0010
0000
0100
0000
1000
0000
,
0001
0000
0000
0000
0001
0000
1000
0000
0000
0000
1000
0000
0010
1000
0010
0000
0100
0000
0001
0000
0000
0000
0001
0000
,
0010
0000
0000
0000
0010
0000
0100
0000
0000
0000
0100
0000
1000
0100
1000
0000
0001
0000
0100
0000
0000
0000
0100
0000
,
0010
0000
0000
0000
0010
0000
1000
0000
0000
0000
1000
0000
0100
0010
0100
0000
1000
0000
0001
0000
0000
0000
0001
0000
,
0010
0100
1000
0010
0100
1000
0010
0000
0000
0110
0100
0001
,
0100
0000
0100
0010
0000
0010
1000
0100
1000
0001
0000
0001
,
1000
0010
0100
0001
0010
0001
0100
1000
0100
0001
1000
0100
,
0010
0000
0010
0001
0000
0001
1000
0010
0100
0001
0010
1000
,
0001
0100
1000
0001
0010
1000
0001
0100
0010
0001
0100
0001
,
1000
0000
1000
0100
0000
0100
0010
0001
1000
0010
0000
0010
,
0100
0001
1000
0100
0010
0001
0100
0001
1000
0100
1000
0001
,
1000
0000
1000
0010
0000
0010
0100
0001
0100
0010
1000
0100
,
1000
0001
0010
0100
1000
0001
0100
0010
1000
0100
0010
0100
,
0020
0000
0031
0200
0000
0301
0020
0000
0230
0000
2300
0000
,
3020
0000
0130
0002
0000
0013
0200
0000
1300
0020
0000
0130
,
0002
0000
1003
0200
0000
0310
0001
0100
0010
1000
0100
0010
,
0001
0010
0100
1000
0010
0100
0001
0100
1000
0100
0010
1000
,
0200
0000
1300
0002
0000
0103
0020
0000
2030
0000
3200
0000
,
0320
0000
0031
0100
0010
1000
0200
0000
0310
0002
0000
0103
,
0020
0000
1030
0002
0000
1003
0200
0000
0310
0002
0000
1003
,
0200
0000
0310
0200
0000
0310
0100
1000
0001
0101
0000
0000
,
0001
0000
0000
0000
0001
0000
1000
0000
0000
0000
1000
0000
0010
1000
0010
0000
0100
0000
0001
0000
0000
0000
0001
0000
,
1000
0100
1000
0000
0001
0000
0010
0000
0000
0000
0100
0000
1000
0010
1000
0000
0001
0000
0010
0000
0100
0000
1000
0000
,
0010
0000
0100
0000
0010
0000
1000
0000
0100
0000
0010
0000
0001
0100
0001
0000
1000
0000
0010
0000
0000
0000
0010
0000
,
0100
0000
0000
0000
0100
0000
0001
0000
0000
0000
0001
0000
1000
0100
1000
0000
0010
0000
0100
0000
0001
0000
1000
0000
,
0001
0100
0001
1000
0001
0010
0001
0000
0001
0010
0100
1000
,
0100
0000
0100
0001
0100
1000
0010
1000
0001
1000
0100
0010
,
0001
0000
0001
0100
0010
1000
0100
0000
0001
0100
0010
1000
,
0100
0010
0001
0100
0010
1000
0100
0010
0100
0110
0000
0000
,
1001
0000
1000
0001
0000
0001
0010
0000
0010
0100
1000
0001
,
0100
0001
0100
0000
0010
0000
1000
0100
1000
0000
0001
0000
0010
0001
0010
0000
0100
0000
1000
0000
0010
0000
0001
0000
,
0010
0100
0001
0100
0010
0100
1000
0100
0010
0100
0001
1000
,
0010
0100
0001
0010
0100
1000
0010
0100
0001
1000
0100
0010
,
0001
0000
0001
0010
0000
0010
0100
1000
0100
0010
0100
0001
,
0100
0000
0100
1000
0000
1000
0010
0100
0010
0001
0010
0100
,
0001
0000
0001
1000
0000
1000
0010
0100
0010
0001
0010
0100
,
0001
0000
0001
1000
0000
1000
0100
0010
0001
0100
0010
1000
,
0100
0000
0100
0001
0000
0001
0100
0000
0100
1000
0001
0100
,
0010
0000
0010
1000
0000
1000
0010
0000
0010
0100
0001
1000
,
0001
0000
0001
0010
1000
0010
0001
1000
0010
0100
0001
1000
,
0100
0000
0100
0010
0000
0010
0001
0000
0001
1000
0000
1000
,
0010
0000
0010
0100
0001
1000
0100
0000
0100
0010
0001
1000
,
0010
0100
0001
0010
0100
1000
0020
0000
0000
0130
0000
0000
,
0001
0000
0001
1000
0000
1000
0100
0010
0100
0001
0100
0010
,
0001
0000
0000
1000
0000
0001
0100
0000
0000
0110
0000
1000
,
0010
0000
0011
0000
1010
0000
0110
0000
0101
0000
1100
0000
,
2000
3002
2003
0000
,
3002
0000
0000
0000
0203
0000
0000
0000
0320
0000
0000
0000
,
1030
0100
0010
0100
1000
0100
0001
0100
1000
0100
0010
0100
,
1000
0100
0010
0100
1000
0100
0010
0100
1000
0001
0010
0100
,
1000
0010
1000
0001
1000
0100
1000
0001
1000
0100
1000
0001
,
0010
0001
1000
0100
1000
0001
1000
0010
0100
0001
0010
0100
,
1000
0010
0100
0010
0001
0010
1000
0010
0001
0010
0100
0010
,
1000
0010
0001
0010
1000
0001
1000
0010
0100
0001
0010
0100
,
1000
1000
0100
0010
0010
0001
0100
0100
0010
1000
1000
0001
,
0010
0100
1000
0001
0100
0010
0100
0000
1100
0000
0101
0000
,
1001
0000
0000
0000
;

//---------------dance-single - ----------------
#NOTES:
     dance-single:
     :
     Hard:
     8:
     0.478828,0.477809,0.277335,0.174325,0.693338,423.000000,388.000000,35.000000,22.000000,0.000000,0.000000,0.478828,0.477809,0.277335,0.174325,0.693338,423.000000,388.000000,35.000000,22.000000,0.000000,0.000000:
0000
0000
0000
0000
,
0000
0000
0000
0000
,
0000
0000
0000
0000
,
0000
0000
0000
0000
,
0100
0000
0100
0020
0000
0000
1000
0000
0100
0000
1000
0000
,
0230
0000
0000
0300
0001
0010
0001
0000
0000
1000
0100
1000
,
0100
0010
0001
1000
,
0010
0000
0000
0100
0000
0100
0001
0000
0001
1000
0000
0000
,
1001
0000
0000
1100
0000
0000
1001
0000
0001
0000
0100
0001
,
1000
0000
0000
0001
0100
0001
0100
0000
0000
0101
0000
0000
,
1001
0000
0000
0011
0000
0000
1001
0000
0001
0000
0010
0001
,
1000
0000
0000
0010
0000
1000
0100
0000
0001
0100
0000
0000
,
0110
0000
0000
0101
0000
0000
0110
0000
1000
0000
0001
1000
,
0010
0000
0000
0100
0001
1000
0100
0000
0000
0011
0000
0000
,
0110
1010
0110
1001
,
0001
0010
0100
1000
0000
0001
0100
0000
0000
1001
0000
0000
,
0020
0000
0000
1030
0000
0000
0100
1000
0100
1000
0000
0000
,
0001
0000
0001
1000
0000
1000
0010
0100
0010
0100
0000
0000
,
0002
0000
0000
1003
0000
0000
0001
0100
0001
0100
0000
0000
,
0010
0000
0000
1000
0000
0000
0001
1000
0001
0100
0000
0000
,
0002
0000
0000
1003
0000
0000
0010
0100
0010
1000
0000
0000
,
0100
0000
0100
0010
0000
0010
0001
0010
0001
1000
0000
0000
,
0020
0000
0000
0130
0000
0000
0001
1000
0001
0100
0000
0000
,
0010
0000
0010
1000
0000
1000
0100
1000
0100
1000
0000
0000
,
1001
0000
0000
0010
0000
0000
1000
0000
0001
0000
0100
0000
,
0001
0000
0001
0010
0000
0010
0100
0000
0100
1000
0000
1000
,
0100
0000
0100
0001
0000
0001
0100
0000
0100
1000
0000
1000
,
0010
0000
0010
0100
0000
0100
0001
0000
0001
1000
0000
0000
,
1100
0000
0000
0001
0000
0000
0100
0000
0001
0000
1000
0000
,
0100
0000
0100
1000
0000
1000
0010
0000
0010
0100
0000
0100
,
0001
0000
0001
0010
0000
0010
0100
0000
0100
1000
0000
1000
,
0010
0000
0010
0100
0000
0100
0001
1000
0001
1000
0000
0000
,
0201
0000
0000
0320
0000
0000
1030
0100
1000
0000
1000
0100
,
1000
0101
0001
1100
,
0010
0000
1000
0000
0001
0000
1000
0000
0100
0000
0010
0000
,
0001
0000
0000
1001
0000
0000
1000
0001
0100
0001
0000
0000
,
0110
0000
1000
0000
0010
0000
0001
0100
0001
0000
0001
0100
,
0001
1010
0010
1100
,
0100
0000
0010
0000
0100
0000
1000
0000
0010
0000
0100
0000
,
0001
0000
0001
1000
0000
1000
0010
0000
0000
0110
0000
0000
,
0001
0000
0001
0010
0000
0010
1000
0000
1000
0100
0000
0100
,
0001
0000
0001
0100
0000
0100
1000
0000
1000
0010
0000
0010
,
0001
0000
0001
0100
0000
0100
0010
0000
0010
1000
0000
1000
,
0100
0000
0100
0001
0000
0001
0010
0000
0000
0110
0000
0000
,
1001
0000
0000
0001
0000
0001
1000
0000
1000
0010
0000
0010
,
0001
0000
0001
0010
0000
0010
1000
0000
1000
0001
0000
0001
,
0100
0000
0100
1000
0000
1000
0010
0000
0010
0100
0000
0100
,
0001
0000
0001
0010
0000
0010
0100
0000
0100
1000
0000
1000
,
0002
2003
3010
1001
,
0200
2300
3001
1001
,
0020
0000
0000
0031
0100
0001
1000
0000
0100
0000
1000
0000
,
0100
0002
2003
3100
,
1002
0000
0000
0013
0000
0100
1000
0000
0100
1000
0000
0000
,
0001
0010
0001
0010
0100
1000
0100
0000
0000
0010
0000
0000
,
0102
1003
2010
3001
,
2002
0000
0000
3003
0000
0001
0200
0000
0000
0300
0000
1000
,
0010
0000
0100
0000
0010
0000
0001
0000
1000
0000
0100
0000
,
0020
0000
0000
0000
,
0000
0000
0030
0000
,
0001
0000
0010
0000
0100
0000
0010
0000
0001
0000
0010
0000
,
0001
0000
1000
0000
0001
0000
1000
0000
0001
0000
0100
0000
,
0010
0000
1000
0000
0100
0000
1000
0000
0010
0000
0100
0000
,
0010
0000
1000
0000
0100
0000
0001
0000
0100
0000
1000
0000
,
0010
0000
0100
0000
0001
0000
0010
0000
1000
0000
0010
0000
,
0001
0000
0100
0000
0010
0000
1000
0000
0100
0000
0010
0000
,
0001
0000
1000
0000
0001
0000
0010
0000
0100
0000
0010
0000
,
0001
1000
0001
0100
0010
0100
0001
0000
0000
1001
0000
0000
,
1000
0000
0000
0000
;

//---------------dance-single - ----------------
#NOTES:
     dance-single:
     :
     Medium:
     6:
     0.298843,0.318539,0.174325,0.071315,0.114896,264.000000,242.000000,22.000000,9.000000,0.000000,0.000000,0.298843,0.318539,0.174325,0.071315,0.114896,264.000000,242.000000,22.000000,9.000000,0.000000,0.000000:
// measure 0
0000
0000
0000
0000
,  // measure 1
0000
0000
0000
0000
,  // measure 2
0000
0000
0000
0000
,  // measure 3
0000
0000
0000
0000
,  // measure 4
0001
1000
0010
0100
,  // measure 5
0002
0000
1003
0001
,  // measure 6
1000
0100
0010
0001
,  // measure 7
0200
0000
0300
0000
,  // measure 8
1001
0000
0000
0010
0000
0000
0001
0000
0100
0000
1000
0000
,  // measure 9
0010
0100
0001
0010
,  // measure 10
0100
0000
0000
1000
0000
0000
0001
0000
0010
0000
0100
0000
,  // measure 11
1000
0010
0001
0010
,  // measure 12
1000
0000
0000
0001
0000
0000
1000
0000
0100
0000
0010
0000
,  // measure 13
0001
0100
1000
0100
,  // measure 14
0010
1000
0001
0100
,  // measure 15
0010
0000
1000
0010
0000
0000
1010
0000
0000
0000
0000
0000
,  // measure 16
1000
0001
0010
0110
,  // measure 17
0100
1000
0100
0001
,  // measure 18
0100
0010
0001
1001
,  // measure 19
0001
0100
0010
0100
,  // measure 20
0010
1000
0100
0110
,  // measure 21
1000
0001
1000
0010
,  // measure 22
0001
0010
1000
0110
,  // measure 23
0001
0100
1000
0100
,  // measure 24
0010
0000
0000
0001
0000
0000
1000
0000
0001
0000
1000
0000
,  // measure 25
0001
0100
1000
0000
,  // measure 26
0001
0100
0010
1000
,  // measure 27
0100
0010
0001
1001
,  // measure 28
1000
0000
0000
0010
0000
0000
0100
0000
0001
0000
0100
0000
,  // measure 29
0001
0010
0100
0000
,  // measure 30
1000
0001
0100
0010
,  // measure 31
1000
0001
0100
1001
,  // measure 32
0001
0000
0000
0010
0000
0000
0100
0000
1000
0000
0010
0000
,  // measure 33
0001
1000
0100
1001
,  // measure 34
1000
0000
0100
0000
0010
0000
0001
0000
0010
0000
0100
0000
,  // measure 35
1000
0010
0100
0001
,  // measure 36
1000
0000
0001
0000
0100
0000
0010
0000
1000
0000
0010
0000
,  // measure 37
0100
0001
0010
0100
,  // measure 38
1000
0000
0100
0000
0010
0000
0001
0000
0100
0000
0001
0000
,  // measure 39
1000
0001
1000
1001
,  // measure 40
0001
0010
1000
0100
,  // measure 41
0001
0100
1000
0010
,  // measure 42
0001
0100
0010
1000
,  // measure 43
0100
0001
0010
0110
,  // measure 44
1001
0001
1000
0010
,  // measure 45
0001
0010
1000
0001
,  // measure 46
0100
1000
0010
0100
,  // measure 47
0001
0010
0100
1000
,  // measure 48
2020
0030
0001
3100
,  // measure 49
0022
0030
1000
0103
,  // measure 50
0220
0000
0000
0330
0000
0000
0001
0000
0100
0000
1000
0000
,  // measure 51
0100
0010
0001
1000
,  // measure 52
0001
0011
1010
0000
,  // measure 53
1000
1100
0101
0000
,  // measure 54
0010
0100
0001
1000
,  // measure 55
0100
0010
0001
1000
,  // measure 56
0020
0000
0000
0000
,  // measure 57
0030
0000
0000
0000
,  // measure 58
0000
0000
0000
0000
,  // measure 59
1000
0000
1001
0000
,  // measure 60
0010
0001
0100
1000
,  // measure 61
0010
0000
1001
0000
,  // measure 62
0100
0001
0010
1000
,  // measure 63
0100
0010
0001
0100
,  // measure 64
1000
0010
0100
0001
,  // measure 65
0010
0100
1000
0001
,  // measure 66
0100
0000
0010
0100
0000
0010
0100
0000
0000
1001
0000
0000
,  // measure 67
0010
0000
0000
0000
;

//---------------dance-single - ----------------
#NOTES:
     dance-single:
     :
     Easy:
     4:
     0.252432,0.238905,0.007924,0.039619,0.000000,223.000000,222.000000,1.000000,5.000000,0.000000,0.000000,0.252432,0.238905,0.007924,0.039619,0.000000,223.000000,222.000000,1.000000,5.000000,0.000000,0.000000:
// measure 0
0000
0000
0000
0000
,  // measure 1
0000
0000
0000
0000
,  // measure 2
0000
0000
0000
0000
,  // measure 3
0000
0000
0000
0000
,  // measure 4
1000
0100
1000
1000
,  // measure 5
0002
0000
1003
0000
,  // measure 6
0001
0100
0001
0001
,  // measure 7
2000
0000
3000
0000
,  // measure 8
0001
0010
0100
0010
,  // measure 9
1000
0010
0100
0010
,  // measure 10
0001
0100
0010
0100
,  // measure 11
1000
0100
0010
0100
,  // measure 12
0001
0010
0100
0010
,  // measure 13
1000
0100
0010
0100
,  // measure 14
0001
0010
0100
0010
,  // measure 15
1000
0100
0001
0000
,  // measure 16
1000
0100
1000
1000
,  // measure 17
0001
0001
0100
0100
,  // measure 18
0001
0100
0001
0001
,  // measure 19
0010
0010
0100
0100
,  // measure 20
1000
0010
0001
0010
,  // measure 21
1000
0100
0001
0100
,  // measure 22
1000
0010
0100
0010
,  // measure 23
0001
0100
1000
0100
,  // measure 24
0010
0100
0010
0001
,  // measure 25
0100
0010
0100
0010
,  // measure 26
1000
0100
0010
0100
,  // measure 27
1000
0001
0100
0100
,  // measure 28
0010
0100
0001
0001
,  // measure 29
1000
1000
0100
0100
,  // measure 30
0010
0010
0001
0001
,  // measure 31
1000
0001
0100
0010
,  // measure 32
1000
0100
0010
0001
,  // measure 33
0100
0010
0100
1000
,  // measure 34
0100
0001
1000
0001
,  // measure 35
0020
0000
0130
0000
,  // measure 36
0001
0010
0100
0010
,  // measure 37
1000
0100
0010
0001
,  // measure 38
0100
0010
0100
1000
,  // measure 39
0010
0001
0100
0000
,  // measure 40
0001
1000
0100
0001
,  // measure 41
0010
1000
0100
0010
,  // measure 42
0001
0100
1000
0001
,  // measure 43
0100
0010
1000
0100
,  // measure 44
0010
0001
1000
0001
,  // measure 45
0100
0010
1000
0100
,  // measure 46
0010
0100
0010
0001
,  // measure 47
1000
0001
1000
0001
,  // measure 48
0200
0000
0320
0000
,  // measure 49
1030
0100
0010
0000
,  // measure 50
0001
1000
0001
0100
,  // measure 51
1000
0100
0001
0010
,  // measure 52
0100
0000
1000
0001
,  // measure 53
1000
0100
0010
0000
,  // measure 54
0001
1000
0001
0100
,  // measure 55
0010
0100
0001
1000
,  // measure 56
0100
0100
0100
0010
,  // measure 57
0010
0000
0000
0000
,  // measure 58
0000
0000
0000
0000
,  // measure 59
1001
0000
0010
0000
,  // measure 60
1000
0000
0010
0100
,  // measure 61
0001
0000
1000
0000
,  // measure 62
0001
0000
0010
0100
,  // measure 63
1000
0000
0001
0000
,  // measure 64
1000
0000
0100
0000
,  // measure 65
0010
0100
1000
0001
,  // measure 66
0100
0010
1000
0001
,  // measure 67
0100
0000
0000
0000
;

//---------------dance-single - ----------------
#NOTES:
     dance-single:
     :
     Beginner:
     2:
     0.142630,0.185815,0.000000,0.000000,0.000000,126.000000,126.000000,0.000000,0.000000,0.000000,0.000000,0.142630,0.185815,0.000000,0.000000,0.000000,126.000000,126.000000,0.000000,0.000000,0.000000,0.000000:
// measure 0
0000
0000
0000
0000
,  // measure 1
0000
0000
0000
0000
,  // measure 2
0000
0000
0000
0000
,  // measure 3
0000
0000
0000
0000
,  // measure 4
0010
0000
0010
0000
,  // measure 5
0100
0000
0000
0000
,  // measure 6
0001
0000
1000
0000
,  // measure 7
0100
0000
0000
0000
,  // measure 8
0010
0000
0100
0000
,  // measure 9
0010
0000
0010
0000
,  // measure 10
0001
0000
1000
0000
,  // measure 11
0001
0000
0100
0000
,  // measure 12
1000
0000
0100
0000
,  // measure 13
0001
0000
0010
0000
,  // measure 14
0100
0000
1000
0000
,  // measure 15
0001
0001
0001
0000
,  // measure 16
0100
0000
0010
0000
,  // measure 17
1000
0000
0001
0000
,  // measure 18
1000
0000
0100
0000
,  // measure 19
0010
0000
0100
0000
,  // measure 20
0010
0000
0001
0000
,  // measure 21
0100
0000
0010
0000
,  // measure 22
1000
0000
0001
0000
,  // measure 23
1000
0000
0100
0000
,  // measure 24
0010
0000
0010
0000
,  // measure 25
0100
0000
0100
0000
,  // measure 26
0010
0000
0010
0000
,  // measure 27
0100
0000
0100
0000
,  // measure 28
1000
0000
1000
0000
,  // measure 29
0001
0000
0001
0000
,  // measure 30
0100
0000
0100
0000
,  // measure 31
0010
0000
0010
0000
,  // measure 32
1000
0000
0010
0000
,  // measure 33
0001
0000
0010
0000
,  // measure 34
0100
0000
1000
0000
,  // measure 35
0100
0000
0001
0000
,  // measure 36
0010
0000
0100
0000
,  // measure 37
0010
0000
0100
0000
,  // measure 38
1000
0000
0001
0000
,  // measure 39
1000
0000
0010
0000
,  // measure 40
0100
0000
0001
0000
,  // measure 41
0010
0000
0100
0000
,  // measure 42
1000
0000
0001
0000
,  // measure 43
1000
0000
0100
0000
,  // measure 44
0010
0000
0100
0000
,  // measure 45
0010
0000
0001
0000
,  // measure 46
0100
0000
0010
0000
,  // measure 47
1000
0000
0001
0000
,  // measure 48
1000
0000
0100
0000
,  // measure 49
0001
0001
0001
0000
,  // measure 50
0001
0000
0100
0000
,  // measure 51
1000
1000
1000
0000
,  // measure 52
0001
0000
1000
0000
,  // measure 53
0001
0001
0001
0000
,  // measure 54
1000
0000
0001
0000
,  // measure 55
1000
1000
1000
0000
,  // measure 56
0010
0010
0010
0000
,  // measure 57
0000
0000
0000
0000
,  // measure 58
0000
0000
0000
0000
,  // measure 59
0000
0000
0100
0000
,  // measure 60
0100
0000
0100
0000
,  // measure 61
0001
0000
0001
0000
,  // measure 62
0001
0000
0001
0000
,  // measure 63
0010
0000
0010
0000
,  // measure 64
0010
0000
0010
0000
,  // measure 65
0100
0000
0100
0000
,  // measure 66
1000
0000
1000
0000
,  // measure 67
0001
0000
0000
0000
;
