#VERSION:0.83;
#TITLE:Phantom of Yore/Phantom's Legacy;
#SUBTITLE:(Music Box Boss);
#ARTIST:Rainbowdragoneyes;
#TITLETRANSLIT:;
#SUBTITLETRANSLIT:;
#ARTISTTRANSLIT:;
#GENRE:The Messenger;
#ORIGIN:;
#CREDIT:[Ness];
#BANNER:The Messenger - Phantom of Yore-Phantom's Legacy (Music Box Boss).png;
#BACKGROUND:The Messenger - Phantom of Yore-Phantom's Legacy (Music Box Boss)-bg.png;
#PREVIEWVID:;
#JACKET:The Messenger - Phantom of Yore-Phantom's Legacy (Music Box Boss)-jacket.png;
#CDIMAGE:;
#DISCIMAGE:;
#LYRICSPATH:;
#CDTITLE:;
#MUSIC:The Messenger - Phantom of Yore-Phantom's Legacy (Music Box Boss).mp3;
#OFFSET:-0.015000;
#SAMPLESTART:28.677540;
#SAMPLELENGTH:10.666668;
#SELECTABLE:YES;
#DISPLAYBPM:180.000000:360.000000;
#BPMS:0.000=180.000,
80.000=720.000,
85.000=360.000;
#STOPS:80.000=0.125,
80.500=0.250,
81.500=0.125,
82.000=0.250,
83.000=0.125,
83.500=0.250,
84.500=0.125,
85.000=0.167;
#DELAYS:;
#WARPS:;
#TIMESIGNATURES:0.000=4=4;
#TICKCOUNTS:0.000=2;
#COMBOS:0.000=1;
#SPEEDS:0.000=1.000=0.000=0;
#SCROLLS:0.000=1.000;
#FAKES:;
#LABELS:0.000=Song Start;
#LASTSECONDHINT:106.050873;
#BGCHANGES:;
#KEYSOUNDS:;
#ATTACKS:
;

//---------------dance-single - ----------------
#NOTEDATA:;
#CHARTNAME:;
#STEPSTYPE:dance-single;
#DESCRIPTION:;
#CHARTSTYLE:;
#DIFFICULTY:Challenge;
#METER:13;
#RADARVALUES:1.162829,1.658399,0.082778,0.000000,1.149690,885.000000,876.000000,9.000000,0.000000,223.000000,0.000000,0.000000,0.000000,0.000000,1.162829,1.658399,0.082778,0.000000,1.149690,885.000000,876.000000,9.000000,0.000000,223.000000,0.000000,0.000000,0.000000,0.000000;
#CREDIT:;
#DISPLAYBPM:0.000000;
#NOTES:
// measure 0
0000
0000
0000
0000
,  // measure 1
0000
0000
0000
0000
,  // measure 2
0000
0000
0000
0000
,  // measure 3
0000
0000
0000
0000
,  // measure 4
0100
0001
0010
0100
1000
0010
0100
0001
1000
0000
0010
0000
0100
0000
0001
0000
,  // measure 5
0010
0100
1000
0010
0100
0001
0010
0100
1000
0000
0001
0000
0100
0000
0010
0000
,  // measure 6
1000
0100
0010
0001
0100
0010
0100
0001
0010
0000
0100
0000
1000
0000
0010
0000
,  // measure 7
0100
0001
1000
0100
0010
0100
1000
0010
0100
0000
0001
0000
0010
0000
0100
0000
,  // measure 8
1000
0001
0100
0010
1000
0100
0010
0001
0100
0000
0010
0000
1000
0000
0100
0000
,  // measure 9
0010
0001
1000
0010
0100
0001
0010
0100
1000
0000
0001
0000
0100
0000
0010
0000
,  // measure 10
1000
0100
0010
0001
0100
0010
0100
0001
1000
0000
0010
0000
0100
0000
0001
0000
,  // measure 11
1000
0100
0010
0001
0100
0010
1000
0001
0100
0000
0010
0000
1000
0000
0100
0000
,  // measure 12
0010
0001
1000
0100
0010
0001
1000
0001
0100
0000
1000
0000
0100
0000
0001
0000
,  // measure 13
1000
0100
0010
0001
0100
0010
0100
0001
1000
0000
0100
0000
0001
0000
0100
0000
,  // measure 14
1000
0010
0100
0001
0010
0100
1000
0001
0100
0000
0010
0000
0001
0000
0010
0000
,  // measure 15
0100
0001
1000
0010
0100
0001
0010
0100
1000
0000
0010
0000
0001
0000
0010
0000
,  // measure 16
1000
0100
0010
0001
0100
0010
1000
0100
1000
0000
0001
0000
0010
0000
1000
0000
,  // measure 17
0001
0100
0010
0001
0100
0010
1000
0001
0100
0000
1000
0000
0100
0000
0001
0000
,  // measure 18
0010
0010
0100
0100
0110
0110
1100
1100
,  // measure 19
1000
0000
0001
0000
0101
0000
0101
0000
0001
1000
0010
0100
0001
1000
0010
0100
,  // measure 20
0001
0010
0000
1000
0010
0000
0001
0100
,  // measure 21
0000
1000
0010
0000
0110
0100
0001
1000
,  // measure 22
0010
0100
0001
0010
0100
1000
0100
0010
,  // measure 23
0001
0100
0001
1000
0010
0100
0010
0100
,  // measure 24
0001
0100
0001
0100
0010
0100
0010
0100
,  // measure 25
0001
0100
0001
0100
0010
1000
0001
0100
,  // measure 26
0010
1000
0100
0010
0001
1000
0010
0100
,  // measure 27
0001
0010
0100
1000
0001
1000
0001
1000
,  // measure 28
0010
1000
0010
1000
0001
0100
0010
1000
,  // measure 29
0100
0010
0001
0100
0001
1000
0100
0010
,  // measure 30
0001
0010
0100
1000
0010
0100
0001
0100
,  // measure 31
0010
1000
0010
0100
0001
0010
0100
1000
,  // measure 32
0100
0010
0001
1000
0100
0010
0100
1000
,  // measure 33
0001
0010
0100
1000
0001
0000
0100
0000
,  // measure 34
1000
0100
0010
1000
,  // measure 35
0100
0010
0001
1000
,  // measure 36
0100
0010
0001
0100
,  // measure 37
0001
0000
1000
0000
1100
1000
0100
0010
,  // measure 38
0001
1000
0100
0010
0001
0100
0001
1000
,  // measure 39
0010
0100
0001
0010
0100
1000
0001
1000
,  // measure 40
0010
1000
0001
1000
0100
1000
0001
1000
,  // measure 41
0010
1000
0001
1000
0100
0010
0001
0100
,  // measure 42
0001
0010
0100
1000
0100
0010
0001
1000
,  // measure 43
0100
0010
0001
0100
0010
0100
0001
0100
,  // measure 44
0010
0100
0001
0100
0010
1000
0001
0010
,  // measure 45
0100
1000
0100
0010
0001
1000
0010
0100
,  // measure 46
0001
1000
0100
0010
0001
1000
0100
1000
,  // measure 47
0001
0010
0001
1000
0010
0100
0001
0010
,  // measure 48
0100
1000
0001
0100
0010
1000
0001
0010
,  // measure 49
0100
1000
0001
0010
0100
1000
0010
0100
,  // measure 50
0001
0010
0100
1000
0010
0100
0001
0010
,  // measure 51
0100
1000
0010
0100
0001
0010
0100
1000
,  // measure 52
0010
0100
0001
0010
0100
1000
0010
0100
,  // measure 53
0001
0010
0100
1000
0001
0100
0001
0000
,  // measure 54
0010
0000
0100
1000
0010
0000
0100
0000
,  // measure 55
0001
1000
0100
0000
0010
0000
0001
0010
,  // measure 56
0100
0000
1000
0000
0010
0100
0001
1000
,  // measure 57
0010
0100
0001
0000
1000
0100
0010
0000
,  // measure 58
0001
0000
1000
0010
0100
0000
0001
0000
,  // measure 59
1000
0010
1000
0000
0100
0000
0010
0001
,  // measure 60
0100
0000
0001
0000
1000
0010
0100
0001
,  // measure 61
0010
0100
1000
0001
0100
0010
1000
0000
,  // measure 62
0100
0000
1000
0001
0100
0000
0001
0000
,  // measure 63
0010
0001
1000
0000
0010
0000
1000
0100
,  // measure 64
0010
0000
0100
0000
1000
0001
0100
0010
,  // measure 65
1000
0100
0010
0001
0100
0010
0100
0000
,  // measure 66
0001
0000
0010
0001
1000
0000
0001
0000
,  // measure 67
0100
0010
1000
0000
0100
0000
1000
0001
,  // measure 68
0100
0000
0010
0000
1000
0100
0010
0100
,  // measure 69
1000
0001
0010
0100
1000
0000
0001
0000
,  // measure 70
1000
0010
1000
0001
,  // measure 71
0100
0010
1000
0000
0100
0000
0001
0000
,  // measure 72
0010
0100
1000
0001
,  // measure 73
1000
0100
1000
0000
0001
0000
0010
0000
,  // measure 74
0001
1000
0001
0000
0010
0000
1000
0000
,  // measure 75
0001
0000
0100
0000
0010
1000
0100
0000
,  // measure 76
0010
0000
0001
0000
0100
0001
0010
0000
,  // measure 77
0100
1000
0010
0000
1000
0000
0100
0000
,  // measure 78
0001
0010
0100
0000
1000
0000
0001
0000
,  // measure 79
0100
0010
1000
0001
,  // measure 80
0010
0100
1000
0001
,  // measure 81
0100
0000
0010
0000
1000
0001
0100
0000
,  // measure 82
0001
0000
0100
0000
1000
0000
0001
1000
,  // measure 83
0100
0000
0010
0000
0001
0010
0001
0000
,  // measure 84
0010
1000
0010
0000
0001
0100
0001
0000
,  // measure 85
0100
1000
0100
0000
1001
0000
0100
1000
,  // measure 86
0010
0100
0001
0000
0010
0001
0010
0100
,  // measure 87
1000
0001
0100
0000
0001
0000
0010
0001
,  // measure 88
0100
0010
1000
0000
0100
1000
0001
0100
,  // measure 89
0001
1000
0100
0000
0001
0000
1000
0010
,  // measure 90
0100
0001
0010
0000
0100
1000
0100
0001
,  // measure 91
0100
0010
0100
0000
1000
0010
0100
0001
,  // measure 92
1000
0001
0010
0000
0100
1000
0010
0100
,  // measure 93
0001
1000
0100
0000
0010
0001
1000
0010
,  // measure 94
0100
0001
1000
0000
0100
0000
0001
1000
,  // measure 95
0010
0100
0001
0000
0010
0000
0100
1000
,  // measure 96
0001
0100
0010
0000
1000
0000
0001
0100
,  // measure 97
0010
1000
0100
0000
1000
0100
0010
0001
,  // measure 98
0100
0001
0010
0000
0010
0000
1000
0001
,  // measure 99
0010
0000
0100
0000
1000
0001
0100
0010
,  // measure 100
1000
0100
1000
0001
0010
0100
1000
0010
,  // measure 101
0100
0000
0000
0000
0001
0000
0000
0000
0010
0000
0000
0000
0100
0000
0000
0000
1000
0000
0000
0000
0000
0000
0000
0000
0001
0000
0010
0000
0000
0000
0000
M000
,  // measure 102
0M00
00M0
000M
0000
0000
0000
0000
0000
0010
0000
1000
0000
0000
0000
0000
000M
00M0
0M00
M000
0000
0000
0000
0000
0000
0010
0000
0001
0000
0000
0000
0000
M000
,  // measure 103
0M00
00M0
000M
0000
0000
0000
0000
0000
1000
0000
0100
0000
0000
0000
0000
000M
00M0
0M00
M000
0000
0000
0000
0000
0000
0100
0000
0001
0000
0000
0000
0000
M000
,  // measure 104
0M00
00M0
000M
0000
0000
0000
0000
0000
0010
0000
1000
0000
0000
0000
0000
000M
00M0
0M00
M000
0000
0000
0000
0000
0000
0100
0000
0001
0000
0000
0000
0000
M000
,  // measure 105
0M00
00M0
000M
0000
0000
0000
0000
0000
0100
0000
1000
0000
0000
0000
0000
000M
00M0
0M00
M000
0000
0000
0000
0000
0000
0001
0000
0010
0000
0000
0000
0000
M000
,  // measure 106
0M00
00M0
000M
0000
0000
0000
0000
0000
1000
0000
0100
0000
0000
0000
0000
000M
00M0
0M00
M000
0000
0000
0000
0000
0000
0100
0000
0010
0000
0000
0000
0000
M000
,  // measure 107
0M00
00M0
000M
0000
0000
0000
0000
0000
0010
0000
1000
0000
0000
0000
0000
000M
00M0
0M00
M000
0000
0000
0000
0000
0000
0100
0000
0001
0000
0000
0000
0000
M000
,  // measure 108
0M00
00M0
000M
0000
0000
0000
0000
0000
1000
0000
0100
0000
0000
0000
0000
000M
00M0
0M00
M000
0000
0000
0000
0000
0000
0100
0000
0001
0000
0000
0000
0000
M000
,  // measure 109
0M00
00M0
000M
0000
0000
0000
0000
0000
1000
0000
0100
0000
0000
0000
0000
000M
00M0
0M00
M000
0000
0000
0000
0000
0000
0001
0000
0010
0000
0000
0000
0000
M000
,  // measure 110
0M00
00M0
000M
0000
0000
0000
0000
0000
0010
0000
1000
0000
0000
0000
0000
000M
00M0
0M00
M000
0000
0000
0000
0000
0000
0001
0000
0010
0000
0000
0000
0000
M000
,  // measure 111
0M00
00M0
000M
0000
0000
0000
0000
0000
1000
0000
0100
0000
0000
0000
0000
000M
00M0
0M00
M000
0000
0000
0000
0000
0000
0100
0000
0010
0000
0000
0000
0000
M000
,  // measure 112
0M00
00M0
000M
0000
0000
0000
0000
0000
1000
0000
0100
0000
0000
0000
0000
000M
00M0
0M00
M000
0000
0000
0000
0000
0000
0001
0000
0010
0000
0000
0000
0000
M000
,  // measure 113
0M00
00M0
000M
0000
0000
0000
0000
0000
1000
0000
0010
0000
0000
0000
0000
000M
00M0
0M00
M000
0000
0000
0000
0000
0000
0001
0000
0100
0000
0000
0000
0000
M000
,  // measure 114
0M00
00M0
000M
0000
0000
0000
0000
0000
0100
0000
1000
0000
0000
0000
0000
000M
00M0
0M00
M000
0000
0000
0000
0000
0000
0010
0000
0001
0000
0000
0000
0000
M000
,  // measure 115
0M00
00M0
000M
0000
0000
0000
0000
0000
0100
0000
1000
0000
0000
0000
0000
000M
00M0
0M00
M000
0000
0000
0000
0000
0000
0010
0000
0001
0000
0000
0000
0000
M000
,  // measure 116
0M00
00M0
000M
0000
0000
0000
0000
0000
1000
0000
0100
0000
0000
0000
0000
000M
00M0
0M00
M000
0000
0000
0000
0000
0000
0100
0000
0001
0000
0000
0000
0000
M000
,  // measure 117
0M00
00M0
000M
0000
0000
0000
0000
0000
0010
0000
0000
0000
1000
0000
0000
0000
00M1
0M00
00M0
0000
0000
0000
0000
0000
0001
0000
0000
0000
0100
0000
0000
0000
,  // measure 118
00M1
M000
00M0
0000
0000
0000
0000
0000
0001
0000
0000
0000
0010
0000
0000
0000
010M
M000
000M
0000
0000
0000
0000
0000
0100
0000
0000
0000
1000
0000
0000
0000
,  // measure 119
010M
00M0
000M
0000
0000
0000
0000
0000
0100
0000
0000
0000
1000
0000
0000
0000
0M10
000M
0M00
0000
0000
0000
0000
0000
0010
0000
0000
0000
0100
0000
0000
0000
,  // measure 120
001M
M000
000M
0000
0000
0000
0000
0000
0010
0000
0000
0000
1000
0000
0000
0000
0M01
00M0
0M00
0000
0000
0000
0000
0000
0001
0000
0000
0000
1000
0000
0000
0000
,  // measure 121
00M1
0M00
00M0
0000
0000
0000
0000
0000
0001
0000
0000
0000
0010
0000
0000
0000
M100
000M
M000
0000
0000
0000
0000
0000
0100
0000
0000
0000
0001
0000
0000
0000
,  // measure 122
01M0
M000
00M0
0000
0000
0000
0000
0000
0100
0000
0000
0000
1000
0000
0000
0000
001M
0M00
000M
0000
0000
0000
0000
0000
0010
0000
0000
0000
0001
0000
0000
0000
,  // measure 123
0M10
M000
0M00
0000
0000
0000
0000
0000
0010
0000
0000
0000
0100
0000
0000
0000
M001
0M00
M000
0000
0000
0000
0000
0000
0001
0000
0000
0000
0010
0000
0000
0000
,  // measure 124
M001
0M00
M000
0000
0000
0000
0000
0000
0001
0000
0000
0000
0100
0000
0000
0000
10M0
000M
00M0
0000
0000
0000
0000
0000
1000
0000
0000
0000
0100
0000
0000
0000
,  // measure 125
100M
00M0
000M
0000
0000
0000
0000
0000
1000
0000
0000
0000
0010
0000
0000
0000
M100
000M
M000
0000
0000
0000
0000
0000
0100
0000
0000
0000
1000
0000
0000
0000
,  // measure 126
010M
00M0
000M
0000
0000
0000
0000
0000
0100
0000
0000
0000
0001
0000
0000
0000
M010
0M00
M000
0000
0000
0000
0000
0000
0010
0000
0000
0000
0100
0000
0000
0000
,  // measure 127
001M
M000
000M
0000
0000
0000
0000
0000
0010
0000
0000
0000
1000
0000
0000
0000
010M
00M0
000M
0000
0000
0000
0000
0000
0100
0000
0000
0000
0001
0000
0000
0000
,  // measure 128
M100
00M0
M000
0000
0000
0000
0000
0000
0100
0000
0000
0000
0010
0000
0000
0000
M001
0M00
M000
0000
0000
0000
0000
0000
0001
0000
0000
0000
1000
0000
0000
0000
,  // measure 129
0M10
000M
0M00
0000
0000
0000
0000
0000
0100
0000
0000
0000
0001
0000
0000
0000
10M0
0M00
00M0
0000
0000
0000
0000
0000
0010
0000
0000
0000
1000
0000
0000
0000
,  // measure 130
010M
00M0
000M
0000
0000
0000
0000
0000
0001
0000
0000
0000
0010
0000
0000
0000
1M00
000M
0M00
0000
0000
0000
0000
0000
0010
0000
0000
0000
0001
0000
0000
0000
,  // measure 131
M100
00M0
M000
0000
0000
0000
0000
0000
1000
0000
0000
0000
0010
0000
0000
0000
010M
M000
000M
0000
0000
0000
0000
0000
1000
0000
0000
0000
0100
0000
0000
0000
,  // measure 132
00M1
M000
00M0
0000
0000
0000
0000
0000
1000
0000
0000
0000
0010
0000
0000
0000
0M01
M000
0M00
0000
0000
0000
0000
0000
0100
0000
0000
0000
0010
0000
0000
0000
,  // measure 133
100M
0M00
000M
0000
0000
0000
0000
0000
0001
0000
0000
0000
0010
0000
0000
0000
M100
000M
M000
0000
0000
0000
0000
0000
0000
0000
0000
0000
0000
0000
0000
0000
;

//---------------dance-single - ----------------
#NOTEDATA:;
#CHARTNAME:;
#STEPSTYPE:dance-single;
#DESCRIPTION:;
#CHARTSTYLE:;
#DIFFICULTY:Hard;
#METER:10;
#RADARVALUES:0.733173,1.289262,0.082778,0.000000,0.018395,558.000000,549.000000,9.000000,0.000000,0.000000,0.000000,0.000000,0.000000,0.000000,0.733173,1.289262,0.082778,0.000000,0.018395,558.000000,549.000000,9.000000,0.000000,0.000000,0.000000,0.000000,0.000000,0.000000;
#CREDIT:;
#DISPLAYBPM:180.000000:360.000000;
#NOTES:
// measure 0
0000
0000
0000
0000
,  // measure 1
0000
0000
0000
0000
,  // measure 2
0000
0000
0000
0000
,  // measure 3
0000
0000
0000
0000
,  // measure 4
0010
1000
0000
0010
0001
0000
0010
0100
,  // measure 5
0000
0001
0010
0000
0000
0000
0000
0000
,  // measure 6
0010
1000
0000
0010
0001
0000
0010
0100
,  // measure 7
0000
0001
0010
0000
1000
0010
0000
0000
,  // measure 8
0010
0001
0000
0010
1000
0000
0010
0100
,  // measure 9
0000
1000
0010
0000
0000
0000
0000
0000
,  // measure 10
0010
0001
0000
0010
1000
0000
0010
0100
,  // measure 11
0000
0001
0010
0000
1000
0010
0000
0000
,  // measure 12
0010
1000
1001
0010
0100
0000
0001
0010
,  // measure 13
0000
0100
1001
0000
0000
0100
0000
0000
,  // measure 14
0010
0001
1001
0010
1000
0000
0010
0100
,  // measure 15
0000
0001
0010
0000
1001
0010
1000
0000
,  // measure 16
0010
0100
0001
0010
0100
0000
1000
0001
,  // measure 17
1000
0100
1000
0000
0001
0100
0010
0000
,  // measure 18
1000
0100
1000
0100
0001
0100
0001
0100
,  // measure 19
0010
0000
0001
0000
1000
0000
0100
0000
0010
0100
0010
0100
0010
0100
0010
0100
,  // measure 20
0010
0001
0000
0010
1000
0000
0010
0100
,  // measure 21
0000
0001
0010
0000
0100
0000
1000
0000
,  // measure 22
0010
1000
0100
0010
,  // measure 23
0001
0100
0010
1000
,  // measure 24
0100
0001
0100
1000
,  // measure 25
0010
0100
0001
0010
,  // measure 26
1000
0010
0001
0100
,  // measure 27
0010
1000
0100
0010
,  // measure 28
0001
1000
0010
0001
,  // measure 29
0010
1000
0100
0010
,  // measure 30
0100
1000
0001
0100
,  // measure 31
0010
0100
0001
0010
,  // measure 32
1000
0010
0001
0100
,  // measure 33
1000
0100
0001
0010
,  // measure 34
0100
1000
0010
0100
,  // measure 35
0001
0010
0100
1000
,  // measure 36
0010
1000
0100
0010
,  // measure 37
0001
0100
0010
1000
,  // measure 38
0001
1000
0010
0100
,  // measure 39
0001
0010
1000
0010
,  // measure 40
0001
0100
1000
0010
,  // measure 41
0001
0100
0010
1000
,  // measure 42
0100
0010
1000
0100
,  // measure 43
0001
0010
0100
1000
,  // measure 44
0010
0001
0100
0010
,  // measure 45
0001
0100
1000
0100
,  // measure 46
0001
0100
1000
0100
,  // measure 47
0001
0100
0010
1000
,  // measure 48
0100
0001
0010
0100
,  // measure 49
1000
0010
0001
0010
,  // measure 50
1000
0100
0010
0001
,  // measure 51
0100
0010
1000
0100
,  // measure 52
0001
0100
1000
0010
,  // measure 53
0100
0001
1000
0100
,  // measure 54
0000
0001
0100
0000
,  // measure 55
0010
1000
0000
0100
,  // measure 56
0010
0000
0001
0000
,  // measure 57
0101
0000
1000
0010
,  // measure 58
0000
0001
0010
0000
,  // measure 59
0100
1000
0000
0010
,  // measure 60
0100
0000
0001
1000
,  // measure 61
0100
0000
0010
0001
,  // measure 62
0000
1000
0010
0000
,  // measure 63
0100
0001
0000
1000
,  // measure 64
0100
0000
0010
0000
,  // measure 65
1001
0000
0001
1000
,  // measure 66
0000
0010
0100
0000
,  // measure 67
0001
0010
0000
0100
,  // measure 68
1000
0000
0001
1000
,  // measure 69
0010
0000
0100
0001
,  // measure 70
0010
0100
1000
0001
,  // measure 71
1000
0100
1000
0000
0100
0000
0010
0000
,  // measure 72
0001
0010
0100
1000
,  // measure 73
0001
1000
0001
0000
0100
0000
0010
0000
,  // measure 74
1000
0001
1000
0000
0010
0000
0001
0000
,  // measure 75
0100
0000
0010
0000
1000
0001
1000
0000
,  // measure 76
0010
0000
0100
0000
0001
0100
0001
0000
,  // measure 77
1000
0100
1000
0000
0010
0000
0100
0000
,  // measure 78
0001
1000
0001
0000
0010
0000
0100
0000
,  // measure 79
1000
0001
0100
0010
,  // measure 80
1000
0100
0010
0001
,  // measure 81
1000
0000
0100
0000
0010
0100
0010
0000
,  // measure 82
0001
0000
1000
0000
0010
0000
0100
0001
,  // measure 83
0100
0000
0010
0000
1000
0010
1000
0000
,  // measure 84
0001
0000
1000
0100
1000
0000
0001
0000
,  // measure 85
0100
0010
1000
0001
,  // measure 86
0100
0010
1000
0100
,  // measure 87
0010
0001
0010
0000
0100
0000
1000
0000
,  // measure 88
0001
0100
0001
1000
,  // measure 89
0100
1000
0100
0000
0010
0000
0001
0000
,  // measure 90
0100
0010
0100
0000
0001
0000
1000
0000
,  // measure 91
0100
0000
0010
0000
0001
0100
0010
0000
,  // measure 92
1000
0000
0100
0000
0010
0001
1000
0000
,  // measure 93
0001
0100
0001
0000
1000
0000
0100
0000
,  // measure 94
0010
0001
0100
0000
0010
0000
1000
0000
,  // measure 95
0001
0010
0100
1000
,  // measure 96
0100
0010
0001
0100
,  // measure 97
0010
0000
1000
0000
0100
0010
0100
0000
,  // measure 98
1000
0000
0001
0000
0010
0000
0100
1000
,  // measure 99
0100
0000
0001
0000
0001
0100
0001
0000
,  // measure 100
1000
0000
0001
1000
0001
0000
0010
0000
,  // measure 101
0100
0000
1000
0000
0100
0000
0001
0010
,  // measure 102
0000
0000
0010
1000
0000
0000
0010
0001
,  // measure 103
0000
0000
1000
0100
0000
0000
0100
0001
,  // measure 104
0000
0000
0010
1000
0000
0000
0100
0001
,  // measure 105
0000
0000
0100
1000
0000
0000
0001
0010
,  // measure 106
0000
0000
1000
0100
0000
0000
0100
0010
,  // measure 107
0000
0000
0010
1000
0000
0000
0100
0001
,  // measure 108
0000
0000
1000
0100
0000
0000
0100
0001
,  // measure 109
0000
0000
1000
0100
0000
0000
0001
0010
,  // measure 110
0000
0000
0010
1000
0000
0000
0001
0010
,  // measure 111
0000
0000
1000
0100
0000
0000
0100
0010
,  // measure 112
0000
0000
1000
0100
0000
0000
0001
0010
,  // measure 113
0000
0000
1000
0010
0000
0000
0001
0100
,  // measure 114
0000
0000
0100
1000
0000
0000
0010
0001
,  // measure 115
0000
0000
0100
1000
0000
0000
0010
0001
,  // measure 116
0000
0000
1000
0100
0000
0000
0100
0001
,  // measure 117
0000
0000
0010
1000
0000
0000
0001
0100
,  // measure 118
0000
0000
0001
0010
0000
0000
0100
1000
,  // measure 119
0000
0000
0100
0001
0000
0000
0010
0100
,  // measure 120
0000
0000
0010
1000
0000
0000
0001
1000
,  // measure 121
0000
0000
0001
0010
0000
0000
0100
0001
,  // measure 122
0000
0000
0100
1000
0000
0000
0010
0001
,  // measure 123
0000
0000
0010
0100
0000
0000
0001
0010
,  // measure 124
0000
0000
0001
0100
0000
0000
1000
0100
,  // measure 125
0000
0000
1000
0010
0000
0000
0100
1000
,  // measure 126
0000
0000
0100
0001
0000
0000
0010
0100
,  // measure 127
0000
0000
0010
1000
0000
0000
0100
0001
,  // measure 128
0000
0000
0100
0010
0000
0000
0001
1000
,  // measure 129
0000
0000
0100
0001
0000
0000
0010
1000
,  // measure 130
0000
0000
0001
0010
0000
0000
0010
0001
,  // measure 131
0000
0000
1000
0010
1000
0000
1000
0000
,  // measure 132
0001
0001
0100
0010
,  // measure 133
0110
0110
1001
0000
;

//---------------dance-single - ----------------
#NOTEDATA:;
#CHARTNAME:;
#STEPSTYPE:dance-single;
#DESCRIPTION:;
#CHARTSTYLE:;
#DIFFICULTY:Medium;
#METER:7;
#RADARVALUES:0.495352,0.798114,0.377098,0.045988,0.000000,377.000000,336.000000,41.000000,5.000000,0.000000,0.000000,0.000000,0.000000,0.000000,0.495352,0.798114,0.377098,0.045988,0.000000,377.000000,336.000000,41.000000,5.000000,0.000000,0.000000,0.000000,0.000000,0.000000;
#CREDIT:;
#DISPLAYBPM:180.000000:360.000000;
#NOTES:
0000
0000
0000
0000
,
0000
0000
0000
0000
,
0000
0000
0000
0000
,
0000
0000
0000
0000
,
1000
1000
0000
0001
0001
0000
0100
0100
,
0000
0010
0010
0000
0000
0000
0000
0000
,
1000
1000
0000
0100
0100
0000
0010
0010
,
0000
0001
0001
0000
0100
0100
0000
0000
,
0001
0001
0000
0010
0010
0000
1000
1000
,
0000
0010
0010
0000
0000
0000
0000
0000
,
0001
0001
0000
0100
0100
0000
1000
1000
,
0000
0100
0100
0000
0010
0010
0000
0000
,
1000
0100
1000
0000
0001
0000
0010
0000
,
0100
0000
1000
0000
0000
0001
0000
0000
,
1000
0010
1000
0000
0001
0000
0100
0000
,
0010
0000
0100
0000
0000
0001
0000
0000
,
0010
0100
0010
0000
0100
0000
1000
0000
,
0001
0000
0010
0000
0000
0100
0000
0000
,
1000
0100
1000
0000
0001
0100
0001
0000
,
1000
0010
1000
0000
0001
0010
0001
0000
,
0010
0010
0000
0100
0100
0000
1000
1000
,
0000
0001
0001
0000
0100
0000
0000
0000
,
0010
0000
1000
0000
,
0100
0000
0010
0000
,
0100
0000
1000
0000
,
0001
0000
0010
0000
,
1000
0000
0010
0000
,
0001
0000
0100
0000
,
0010
0000
1000
0100
,
1000
0000
0001
0000
,
0010
0000
0100
0000
,
1000
0000
0010
0000
,
0100
0000
0001
0000
,
2000
0000
3200
0000
,
0001
0000
1300
0000
,
0020
0000
0230
0000
,
1000
0000
0010
0000
,
0302
0000
1003
0000
,
0010
0000
0001
0000
,
0101
0000
0001
0000
,
0100
0000
1000
0000
,
0110
0000
0001
0000
,
0100
0000
1000
0000
,
1010
0000
1000
0000
,
0100
0000
0010
0000
,
1001
0000
1000
0000
,
0001
0000
0010
0000
,
1010
0000
0100
0000
,
1000
0000
0001
0000
,
0011
0000
0100
0000
,
0010
0000
0100
0000
,
1001
0000
0010
0000
,
0001
0000
0100
0000
,
1100
0000
0101
0000
,
1000
0000
0100
0000
,
0010
0000
0100
0000
,
1000
0000
0001
0010
,
0100
0000
1000
0000
,
0010
0000
0001
0000
,
0100
0000
0010
0000
,
1000
0000
0001
0100
,
1000
0000
0010
0000
,
0100
0000
1000
0000
,
0100
0000
0001
0000
,
0010
0000
0100
1000
,
0001
0000
1000
0000
,
0010
0000
0001
0000
,
0100
0000
0010
0000
,
1000
0000
0100
0001
,
1000
0000
0010
0010
,
0000
0100
0100
0000
,
0001
0001
0000
1000
,
1000
0000
0100
0000
,
0010
0000
0100
0100
,
0000
1000
1000
0000
,
0001
0001
0000
0010
,
0010
0000
0001
0001
,
1000
0000
0001
0100
,
0000
0001
0100
0000
,
1000
0100
0000
1000
,
0100
0000
0010
0000
,
0100
0000
0001
0010
,
0000
1000
0010
0000
,
0001
0100
0000
1000
,
0100
0000
0110
0000
,
0110
0000
1000
0100
,
1000
0001
0010
0001
,
0100
0000
0010
0000
,
0100
0000
0001
0000
,
1000
0000
0001
0010
,
0001
0100
0010
1000
,
0100
0000
1000
0000
,
0001
0000
1000
0000
,
0010
0000
1000
0100
,
0010
0001
0100
0010
,
1000
0000
0001
0000
,
1000
0000
0010
0000
,
0100
0000
0001
0010
,
0001
0100
0010
1000
,
0100
0000
0010
0000
,
0100
0000
1000
0000
,
0001
0000
1000
0001
,
0000
0101
0000
1000
,
0000
1010
0000
0100
,
0000
0110
0000
0001
,
0000
0011
0000
1000
,
0000
1001
0000
0010
,
0000
1010
0000
0100
,
0000
1100
0000
0001
,
0000
1001
0000
0010
,
0000
0011
0000
0100
,
0000
0110
0000
1000
,
0000
1010
0000
0001
,
0000
1100
0000
0010
,
0000
0110
0000
1000
,
0000
1001
0000
0010
,
0000
0101
0000
1000
,
0000
0011
0000
1000
,
0000
0011
0000
0001
,
0000
1100
0000
1000
,
0000
0101
0000
0001
,
0000
1010
0000
0100
,
0000
0011
0000
0010
,
0000
1001
0000
0010
,
0000
1100
0000
0100
,
0000
1001
0000
0100
,
0000
1010
0000
0001
,
0000
0110
0000
1000
,
0000
0101
0000
0010
,
0000
1001
0000
0010
,
0000
1100
0000
0100
,
0000
1000
0001
1000
,
0100
0010
0001
0100
,
0010
1000
1001
0000
;

//---------------dance-single - ----------------
#NOTEDATA:;
#CHARTNAME:;
#STEPSTYPE:dance-single;
#DESCRIPTION:;
#CHARTSTYLE:;
#DIFFICULTY:Easy;
#METER:5;
#RADARVALUES:0.349506,0.368361,0.000000,0.000000,0.000000,266.000000,266.000000,0.000000,0.000000,0.000000,0.000000,0.000000,0.000000,0.000000,0.349506,0.368361,0.000000,0.000000,0.000000,266.000000,266.000000,0.000000,0.000000,0.000000,0.000000,0.000000,0.000000,0.000000;
#CREDIT:;
#DISPLAYBPM:180.000000:360.000000;
#NOTES:
0000
0000
0000
0000
,
0000
0000
0000
0000
,
0000
0000
0000
0000
,
0000
0000
0000
0000
,
0100
0000
0000
0001
0000
0000
0010
0000
,
0000
0100
0000
0000
0000
0000
0000
0000
,
1000
0000
0000
0010
0000
0000
0001
0000
,
0000
1000
0000
0000
0100
0000
0000
0000
,
0001
0000
0000
0010
0000
0000
0100
0000
,
0000
1000
0000
0000
0000
0000
0000
0000
,
0100
0000
0000
0001
0000
0000
0010
0000
,
0000
1000
0000
0000
0100
0000
0000
0000
,
0010
0000
0000
0001
0000
0000
0100
0000
,
0000
1000
0000
0000
0000
0000
0000
0000
,
0001
0000
0000
0010
0000
0000
1000
0000
,
0000
0100
0000
0000
0010
0000
0000
0000
,
1000
0000
0000
0100
0000
0000
0001
0000
,
0000
1000
0000
0000
0000
0000
0000
0000
,
0100
0000
0000
0001
0000
0000
0010
0000
,
0000
0100
0000
0000
1000
0000
0000
0000
,
0001
0000
0000
0010
0000
0000
1000
0000
,
0000
0100
0000
0000
0010
0000
0000
0000
,
0010
0000
0001
0000
,
0001
0000
1000
0000
,
0100
0000
0001
0000
,
0100
0000
1000
0000
,
1000
0000
0001
0000
,
0001
0000
1000
0000
,
0010
0000
0100
0000
,
0001
0000
0010
0000
,
0010
0000
0100
0000
,
0100
0000
1000
0000
,
0100
0000
0010
0000
,
0001
0000
1000
0000
,
1000
0000
0001
0000
,
0001
0000
0100
0000
,
0010
0000
0100
0000
,
0010
0000
1000
0000
,
0100
0000
0001
0000
,
0100
0000
1000
0000
,
0010
0000
1000
0000
,
0100
0000
1000
0000
,
0010
0000
0001
0000
,
0010
0000
1000
0000
,
0100
0000
1000
0000
,
0010
0000
1000
0000
,
0100
0000
0001
0000
,
0100
0000
0001
0000
,
0010
0000
0001
0000
,
0100
0000
1000
0000
,
0100
0000
0001
0000
,
0010
0000
0100
0000
,
1000
0000
0010
0000
,
0100
0000
0001
0000
,
0001
0000
0010
0000
,
0010
0000
1000
0000
,
0100
0000
0001
0000
,
0100
0000
1000
0000
,
0010
0000
0001
0000
,
0010
0000
1000
0000
,
0100
0000
0010
0000
,
0001
0000
1000
0000
,
0100
0000
1000
0000
,
0100
0000
0001
0000
,
0010
0000
0100
0000
,
1000
0000
0001
0000
,
0100
0000
0001
0000
,
0100
0000
1000
0000
,
0010
0000
0100
0000
,
0001
0000
0010
0000
,
0100
0000
0010
0000
,
0100
0000
1000
0000
,
0001
0000
1000
0000
,
0001
0000
0100
0000
,
0010
0000
1000
0000
,
0100
0000
0010
0000
,
0001
0000
0100
0000
,
0010
0000
1000
0000
,
0100
0000
0010
0000
,
0100
0000
1000
0000
,
0001
0000
0010
0000
,
0100
0000
1000
0000
,
0010
0000
0001
0000
,
0010
0000
0100
0000
,
1000
0000
0001
0000
,
0100
0000
0001
0000
,
0010
0000
1000
0000
,
0100
0000
0010
0000
,
1000
0000
0001
0000
,
1000
0000
0001
0000
,
0010
0000
0001
0000
,
0100
0000
1000
0000
,
0100
0000
0001
0000
,
0010
0000
0100
0000
,
1000
0000
0010
0000
,
0100
0000
0001
0000
,
0010
0000
1000
0000
,
0010
0000
0001
0000
,
0100
0000
0010
0000
,
1000
0000
0100
0000
,
0010
0000
0100
0000
,
1000
0000
0001
1000
,
0000
0010
0000
0001
,
0000
0010
0000
0001
,
0000
0010
0000
0001
,
0000
0010
0000
1000
,
0000
0100
0000
1000
,
0000
0100
0000
1000
,
0000
0100
0000
1000
,
0000
0100
0000
0001
,
0000
0100
0000
0001
,
0000
0100
0000
0001
,
0000
0010
0000
0001
,
0000
0010
0000
1000
,
0000
0010
0000
1000
,
0000
0010
0000
1000
,
0000
0100
0000
0010
,
0000
0100
0000
1000
,
0000
0001
0000
0010
,
0000
0001
0000
0100
,
0000
0010
0000
1000
,
0000
0100
0000
0010
,
0000
0001
0000
1000
,
0000
0001
0000
0010
,
0000
0100
0000
1000
,
0000
0001
0000
1000
,
0000
0010
0000
0100
,
0000
0001
0000
0010
,
0000
0100
0000
1000
,
0000
0100
0000
0010
,
0000
0001
0000
1000
,
0000
0100
0000
0010
,
0000
0100
0000
0010
,
0000
0100
0010
0000
;

//---------------dance-single - ----------------
#NOTEDATA:;
#CHARTNAME:;
#STEPSTYPE:dance-single;
#DESCRIPTION:;
#CHARTSTYLE:;
#DIFFICULTY:Beginner;
#METER:3;
#RADARVALUES:0.176067,0.552541,0.000000,0.000000,0.000000,134.000000,134.000000,0.000000,0.000000,0.000000,0.000000,0.000000,0.000000,0.000000,0.176067,0.552541,0.000000,0.000000,0.000000,134.000000,134.000000,0.000000,0.000000,0.000000,0.000000,0.000000,0.000000,0.000000;
#CREDIT:;
#DISPLAYBPM:180.000000:360.000000;
#NOTES:
0000
0000
0000
0000
,
0000
0000
0000
0000
,
0000
0000
0000
0000
,
0000
0000
0000
0000
,
0001
0000
0000
0000
,
0010
0000
0000
0000
,
0001
0000
0000
0000
,
0010
0000
0000
0000
,
0100
0000
0000
0000
,
1000
0000
0000
0000
,
0100
0000
0000
0000
,
1000
0000
0000
0000
,
0001
0000
0000
0000
,
1000
0000
0000
0000
,
0001
0000
0000
0000
,
1000
0000
0000
0000
,
0001
0000
1000
0000
,
0001
0000
1000
0000
,
0100
0100
0100
0100
,
0100
0100
0100
0100
,
0100
0000
0000
0000
,
0000
0000
0010
0000
,
0000
0000
0000
0000
,
0000
0000
0001
0000
,
0000
0000
0000
0000
,
0000
0000
1000
0000
,
0000
0000
0000
0000
,
0000
0000
0100
0000
,
0000
0000
0000
0000
,
0000
0000
0010
0000
,
0000
0000
0000
0000
,
0000
0000
0001
0000
,
0000
0000
0000
0000
,
0000
0000
0100
0000
,
0000
0000
0000
0000
,
0000
0000
0010
0000
,
0000
0000
0000
0000
,
0000
0000
1000
0000
,
0000
0000
1000
0000
,
0000
0000
0100
0000
,
0000
0000
0100
0000
,
0000
0000
0010
0000
,
0000
0000
0010
0000
,
0000
0000
0001
0000
,
0000
0000
0001
0000
,
0000
0000
1000
0000
,
0000
0000
1000
0000
,
0000
0000
0001
0000
,
0000
0000
0001
0000
,
0000
0000
1000
0000
,
0000
0000
1000
0000
,
0000
0000
0001
0000
,
0000
0000
0001
0000
,
0000
0000
0100
0000
,
0000
0000
1000
0000
,
0000
0000
0100
0000
,
0000
0000
0001
0000
,
0000
0000
0010
0000
,
0000
0000
1000
0000
,
0000
0000
0010
0000
,
0000
0000
0001
0000
,
0000
0000
0100
0000
,
0000
0000
1000
0000
,
0000
0000
0010
0000
,
0000
0000
0001
0000
,
0000
0000
0100
0000
,
0000
0000
1000
0000
,
0000
0000
0010
0000
,
0000
0000
0001
0000
,
0000
0000
1000
0000
,
0000
0000
0001
0000
,
0000
0000
1000
0000
,
0000
0000
0001
0000
,
0000
0000
1000
0000
,
0000
0000
0001
0000
,
0000
0000
0100
0000
,
0000
0000
0010
0000
,
0000
0000
1000
0000
,
0000
0000
0100
0000
,
0000
0000
0010
0000
,
0000
0000
0001
0000
,
0000
0000
0100
0000
,
0000
0000
0010
0000
,
0000
0000
1000
0000
,
0000
0000
0100
0000
,
0000
0000
0010
0000
,
0000
0000
0010
0000
,
0000
0000
0001
0000
,
0000
0000
0001
0000
,
0000
0000
1000
0000
,
0000
0000
0100
0000
,
0000
0000
0010
0000
,
0000
0000
0001
0000
,
0000
0000
1000
0000
,
0000
0000
1000
0000
,
0000
0000
0100
0000
,
0000
0000
0100
0000
,
0000
0000
0010
0000
,
0000
0000
0001
0000
,
0000
0000
1000
0000
,
0000
0000
0100
0000
,
0000
0000
0010
0000
,
0000
0000
0010
0000
,
0000
0000
0100
0000
,
0000
0000
0100
0000
,
0000
0000
0010
0000
,
0000
0000
0010
0000
,
0000
0000
0100
0000
,
0000
0000
0100
0000
,
0000
0000
1000
0000
,
0000
0000
0001
0000
,
0000
0000
1000
0000
,
0000
0000
0001
0000
,
0000
0000
0100
0000
,
0000
0000
0010
0000
,
0000
0000
1000
0000
,
0000
0000
0001
0000
,
0000
0000
0010
0000
,
0000
0000
0010
0000
,
0000
0000
0100
0000
,
0000
0000
0100
0000
,
0000
0000
0010
0000
,
0000
0000
0010
0000
,
0000
0000
0001
0000
,
0000
0000
0001
0000
,
0000
0000
1000
0000
,
0000
0000
1000
0000
,
0000
0000
0100
0000
,
0000
0000
0100
0000
,
0000
0000
0010
0000
,
0010
0000
0010
0000
,
0010
0000
0100
0000
,
0100
0000
0100
0000
,
0100
0000
0100
0000
;
