#TITLE:Know the Way;
#SUBTITLE:(Dark Cave Future);
#ARTIST:Rainbowdragoneyes;
#TITLETRANSLIT:;
#SUBTITLETRANSLIT:;
#ARTISTTRANSLIT:;
#GENRE:The Messenger;
#CREDIT:[Ness];
#BANNER:The Messenger - Know the Way (Dark Cave Future).png;
#BACKGROUND:The Messenger - Know the Way (Dark Cave Future)-bg.png;
#LYRICSPATH:;
#CDTITLE:;
#MUSIC:The Messenger - Know the Way (Dark Cave Future).mp3;
#OFFSET:-0.035000;
#SAMPLESTART:15.366938;
#SAMPLELENGTH:23.039999;
#LASTBEATHINT:151.958313;
#SELECTABLE:YES;
#BPMS:0.000000=124.999992
;
#STOPS:
;
#BGCHANGES:;
#KEYSOUNDS:;
#ATTACKS:;

//---------------dance-single - ----------------
#NOTES:
     dance-single:
     :
     Challenge:
     12:
     0.927523,0.889976,0.078068,0.104091,1.763037,499.000000,493.000000,6.000000,8.000000,0.000000,0.000000,0.927523,0.889976,0.078068,0.104091,1.763037,499.000000,493.000000,6.000000,8.000000,0.000000,0.000000:
0000
0000
0000
0000
,
0000
0000
0000
0000
,
0101
0000
0000
1001
0000
0000
0010
0000
1100
0000
0000
1001
0000
0000
1000
1000
,
0010
0000
0000
0110
0000
0000
1000
0000
0001
0010
0000
0100
1000
0000
0001
0000
,
0100
0001
0100
0000
0001
0000
1000
0000
0000
0000
0010
0000
0100
0000
0010
0000
0100
0000
0010
0000
0100
0000
0000
0000
0000
0000
0100
0000
0001
0000
1000
0000
,
0001
0010
0001
0000
1000
0000
0010
0000
0000
0000
0000
0000
1000
0000
0010
0000
0100
0000
0001
0000
0100
0000
0010
0000
1000
0000
0000
0000
0001
0000
0000
0000
,
0100
0010
0100
0000
0010
0000
1000
0000
0000
0000
0000
0000
1000
0000
0100
0000
1000
0000
0001
0000
1000
0000
0001
0000
0010
0001
0010
0000
0100
1000
0100
0000
,
1000
0001
1000
0000
0001
0000
0100
0000
0000
0000
0001
0000
1000
0000
0000
0000
0100
0000
0010
0000
0100
0000
0010
0000
0100
0000
0010
0000
0001
0000
0000
0000
,
1000
0100
1000
0000
0020
0000
0100
0000
0000
0000
0000
0000
0130
0000
0000
0000
0001
0000
0100
0000
0020
0000
1000
0000
0000
0000
1030
0000
0010
0000
0100
0000
,
0001
0100
0001
0000
0200
0000
0001
0000
0000
0000
0000
0000
0310
0000
0100
0000
0010
0000
1000
0000
0001
0000
0100
0000
0010
0000
0000
0000
1000
0000
0000
0000
,
0010
0100
0010
0000
1000
0000
0002
0000
0000
0000
0003
0000
0100
0000
0010
0000
1000
0000
0100
0000
0010
0000
0000
0000
0001
1000
0001
0000
0100
0001
0100
0000
,
0010
1000
0010
0000
0100
0000
0001
0000
0000
0000
1000
0000
0100
0000
0000
0000
0010
0000
0001
0000
0010
0000
0001
0000
0010
0000
0001
0000
0100
0000
0000
0000
,
0001
1000
0001
0000
0200
0000
0010
0000
0000
0000
0000
0000
0310
0000
0000
0000
1000
0000
0001
0000
0020
0000
0100
0000
0000
0000
0000
0000
0130
0000
0000
0000
,
1000
0100
1000
0000
0010
0000
2000
0000
0000
0000
0000
0000
3010
0000
0100
0000
0001
0000
0100
0000
0010
0000
0100
0000
0001
0000
0000
0000
0110
0000
0000
0000
,
0100
0001
0100
0000
0001
0000
0020
0000
0000
0000
0000
0000
0130
0000
0000
0000
1000
0000
0010
0000
0100
0000
0001
0000
0010
0001
0010
0000
0100
1000
0100
0000
,
0010
0001
0010
0000
0100
0000
1000
0000
0000
0000
0001
0000
1000
0000
0000
0000
0010
1000
0010
0000
1000
0010
1000
0000
0001
1000
0001
0000
1000
0001
1000
0000
,
0001
0000
0000
0100
0000
0001
0000
0100
0000
0000
0000
0000
0010
0000
1000
0000
0010
0000
1000
0000
0000
0000
0000
0000
0000
0000
0000
0000
0000
0000
0001
0000
0010
0000
0001
0000
0010
0000
0000
0100
0000
1000
0000
0100
0000
1000
0000
0000
,
0010
0000
0000
0000
0000
0000
0010
0000
0000
0100
0000
0001
0000
0100
0000
0001
0000
1000
0000
0001
0000
0000
0000
0000
0010
0000
0000
0001
0000
0000
0010
0000
0000
0001
0000
0000
1000
0000
0000
0001
0000
0000
1000
0000
0000
0001
0000
0000
,
1000
0000
0000
0100
0000
0010
0000
0100
0000
0010
0000
0000
0001
0000
0010
0000
0001
0000
0010
0000
0000
0000
0000
0000
0000
0000
0000
0000
0000
0000
0100
0000
1000
0000
0000
0000
1000
0000
0001
0000
1000
0000
0000
0000
0000
0000
0000
0000
,
0010
0000
0100
0000
0010
0000
0000
0000
0000
0100
0000
0001
0000
0100
0000
0001
0000
1000
0000
0001
0000
0000
0000
0000
0100
0000
0000
0001
0000
0000
0100
0000
0000
0010
0000
0000
1000
0000
0000
0010
0000
0000
1000
0000
0000
0000
0000
0000
,
1000
0000
0000
0010
0000
1000
0000
0010
0000
0000
0000
0000
0100
0000
0001
0000
0100
0000
0001
0000
0000
0000
0000
0000
0000
0000
0000
0000
0000
0000
1000
0000
0100
0000
1000
0000
0100
0000
0000
0010
0000
0001
0000
0010
0000
0001
0000
0000
,
0100
0000
0000
0000
0000
0000
0100
0000
0000
0010
0000
1000
0000
0010
0000
1000
0000
0001
0000
1000
0000
0000
0000
0000
0100
0000
0000
1000
0000
0000
0100
0000
0000
1000
0000
0000
0001
0000
0000
1000
0000
0000
0001
0000
0000
1000
0000
0000
,
0001
0000
0000
0010
0000
0100
0000
0010
0000
0100
0000
0000
1000
0000
0100
0000
1000
0000
0100
0000
0000
0000
0000
0000
0000
0000
0000
0000
0000
0000
0010
0000
0001
0000
0000
0000
0001
0000
1000
0000
0001
0000
0000
0000
0000
0000
0000
0000
,
0100
0000
0010
0000
0100
0000
0000
0000
0000
0010
0000
1000
0000
0010
0000
1000
0000
0001
0000
1000
0000
0000
0000
0000
0010
0000
0000
1000
0000
0000
0010
0000
0000
0100
0000
0000
0001
0000
0000
0100
0000
0000
0001
0000
0000
0000
0000
0000
,
1000
0000
0100
1000
0001
0000
0010
0000
0001
0100
0001
1000
0100
0010
0100
1000
,
0001
0010
0001
0100
0000
0001
1000
0001
1000
0010
1000
0100
0000
1000
0001
1000
,
0100
0100
0000
1000
0001
0000
0010
0000
0001
1000
0100
0010
0001
1000
0100
1000
,
0001
0100
0010
1000
0100
0010
0001
0100
0010
1000
0100
0010
0001
1000
0001
0100
,
0010
1000
0000
0001
1000
0000
0010
0000
1000
0100
1000
0001
0010
0100
0010
0001
,
1000
0100
1000
0010
0000
1000
0001
1000
0001
0100
0001
0010
0000
0001
1000
0001
,
0010
0100
0000
1000
0001
0000
0010
0000
0001
0100
0010
1000
0100
1000
0010
0100
,
0001
0010
0100
1000
0001
0100
0010
1000
0100
0010
0001
1000
0010
0100
0001
1000
,
0100
0010
0100
0010
0001
1000
0100
0010
0001
1000
0001
1000
0100
0010
0001
1000
,
0100
0000
0010
0000
0001
0000
0010
0000
0100
0000
1000
0000
0100
0000
0010
0000
0001
0010
0001
0000
0010
0100
0010
0000
0100
1000
0100
0000
1000
0001
1000
0000
,
0010
1000
0010
1000
0001
0100
0010
1000
0001
0100
0001
0100
0010
1000
0001
0100
,
0010
1000
0001
1000
0100
1000
0001
1000
0001
0100
0001
1000
0001
0010
0001
0010
,
0001
0000
0000
0000
;

//---------------dance-single - ----------------
#NOTES:
     dance-single:
     :
     Hard:
     9:
     0.475843,0.491829,0.234204,0.247216,0.461903,256.000000,238.000000,18.000000,19.000000,0.000000,0.000000,0.475843,0.491829,0.234204,0.247216,0.461903,256.000000,238.000000,18.000000,19.000000,0.000000,0.000000:
0000
0000
0000
0000
,
0000
0000
0000
0000
,
0001
0000
0000
1100
0000
0000
0010
0000
0100
0000
0000
0011
0000
0000
0001
0000
,
1000
0000
0000
0101
0000
0000
0001
0000
0010
0001
0000
1000
0001
0000
0100
0000
,
0010
0000
0001
0100
0000
0000
0001
0000
1000
0000
0000
0000
0000
0000
0010
1000
,
0010
0000
0100
0001
0000
0000
1000
0000
0100
0000
0000
0000
0000
0000
0000
0000
,
0100
0000
0010
0001
0000
0000
1000
0000
0100
0000
0000
0000
0010
0001
0010
0000
,
0001
0000
1000
0010
0000
1000
0100
0000
0101
0000
0000
0000
0010
0000
0000
0000
,
0001
0100
0020
0000
0000
0000
0030
0000
1000
0100
2000
0000
0000
0000
0000
0000
,
3001
0000
1000
0020
0000
0000
0000
0000
0030
0000
0000
0000
0000
0000
0000
0000
,
0100
0000
0001
0020
0000
0000
0000
0000
0130
0000
1000
0002
0000
0000
0000
0000
,
1003
0000
0100
0010
0000
0100
2000
0000
0000
0000
3000
0000
0000
0000
0000
0000
,
0010
1000
0020
0000
0000
0000
0000
0000
0130
0000
0001
0200
0000
0000
0310
0000
,
1000
0000
0100
2000
0000
0000
0000
0000
3000
0000
0000
0000
0000
0000
0000
0000
,
0100
0000
0010
0002
0000
0000
0000
0000
1003
0000
0010
0200
0000
0000
0301
0000
,
2000
0000
0000
0000
3000
0000
0000
0000
0100
0010
0000
0100
0010
0000
0001
0000
,
1000
0100
0000
0001
0100
0000
0000
0000
0000
0000
0001
0010
0000
1000
0010
0000
,
0100
0000
0001
1000
0000
0100
0000
0000
0012
0000
0000
0000
1003
0000
0000
0000
,
0001
0010
0000
1000
0010
0000
0000
0000
0000
0000
1000
0100
0000
0001
0100
0000
,
0010
0000
1000
0001
0000
0100
0000
0000
1200
0000
0000
0000
0310
0000
0000
0000
,
0001
0100
0000
1000
0100
0000
0000
0000
0000
0000
0010
0001
0000
0001
1000
0000
,
0010
0000
0100
0001
0000
1000
0000
0000
1002
0000
0000
0000
0103
0000
0000
0000
,
0001
0010
0000
1000
0010
0000
0000
0000
0000
0000
0100
0001
0000
1000
0100
0000
,
1001
0000
0000
0101
0000
0000
0110
0000
0000
1010
0000
0000
1001
0000
0000
0000
,
0010
0000
1000
0100
1000
0000
0001
0000
1000
0100
0000
0000
0010
0000
0001
0000
,
0100
0000
0001
0020
0000
0000
0130
0000
1000
0000
0001
2000
0000
0000
3010
0000
,
0100
0000
0000
0000
0001
0000
0010
0000
0001
1000
0000
1000
0001
0000
0010
0000
,
0100
0000
0000
1001
0000
0000
0010
0000
0000
1001
0000
0000
0110
0000
0000
0000
,
0100
0000
0001
1000
0001
0000
0010
0000
0001
0000
1000
0100
1000
0000
0010
0000
,
0100
0000
0001
2000
0000
0000
3001
0000
0010
0000
0100
0020
0000
0000
0031
0000
,
0100
0000
0000
0000
1000
0000
0100
0000
1000
0001
0000
0000
1000
0000
0100
0000
,
0010
0000
0000
0011
0000
0000
1000
0000
0000
1010
0000
0000
1001
0000
0000
0000
,
0001
0100
0001
0000
0100
0000
0001
0000
1000
0100
1000
0000
0100
0000
1000
0000
,
0001
0100
0010
0100
0001
1000
0010
0100
,
0010
1000
0001
0000
0010
0000
0100
0000
0010
0001
1000
0000
0100
0000
0010
0000
,
0100
1000
0001
0000
0100
0000
0010
0000
1000
0001
0100
0000
0010
0000
1000
0000
,
0100
0000
0000
0000
;

//---------------dance-single - ----------------
#NOTES:
     dance-single:
     :
     Medium:
     7:
     0.362459,0.398147,0.143125,0.091079,0.247216,195.000000,184.000000,11.000000,7.000000,0.000000,0.000000,0.362459,0.398147,0.143125,0.091079,0.247216,195.000000,184.000000,11.000000,7.000000,0.000000,0.000000:
0000
0000
0000
0000
,
0000
0000
0000
0000
,
1000
0000
0000
1000
0000
0000
0000
0000
0001
0000
0000
0001
0000
0000
0000
0000
,
0100
0000
0000
0100
0000
0000
0100
0000
0010
0000
0000
0000
0110
0000
0000
0000
,
1000
0000
0000
0001
0000
0000
0100
0000
0010
0000
0000
1000
0000
0000
0010
0000
,
0100
0000
0000
0001
0000
0000
1000
0000
0100
0000
0000
0010
0000
0000
0001
0000
,
0100
0000
0000
0001
0000
0000
1000
0000
0100
0000
0000
1000
0000
0000
0001
0000
,
0100
0000
0000
0010
0000
0000
1000
0000
0200
0000
0000
0000
0310
0000
0000
0000
,
0001
0000
0000
1000
0000
0000
0010
0000
0100
0000
0000
0001
0000
0000
0010
0000
,
0100
0000
0000
1000
0000
0000
0001
0000
0100
0000
0001
0000
1000
0000
0000
0000
,
0010
0000
0000
1000
0000
0000
0001
0000
0010
0000
0000
0001
0000
0000
1000
0000
,
0010
0000
0000
0100
0000
0000
0001
0000
0020
0000
0000
0000
0130
0000
0000
0000
,
1000
0000
0000
0100
0000
0000
0010
0000
0001
0000
0000
1000
0000
0000
0010
0000
,
0100
0000
0000
0001
0000
0000
0010
0000
0001
0000
1000
0000
0001
0000
0000
0000
,
0100
0000
0000
0001
0000
0000
1000
0000
0100
0000
0000
1000
0000
0000
0001
0000
,
0100
0000
0000
0010
0000
0000
1000
0000
0200
0000
0000
0000
0310
0000
0000
0000
,
0000
0001
0000
0000
0001
0000
0000
0000
0000
0000
1000
0000
0000
1000
0000
0000
,
0100
0000
0000
0100
0000
0100
0000
0000
0010
0000
0000
0010
0000
0000
0010
0000
,
0000
0100
0000
0000
0100
0000
0000
0000
0000
0000
1000
0000
1000
0000
0000
0000
,
0001
0000
0000
0001
0000
0001
0000
0000
0100
0000
0001
0000
1000
0000
0000
0000
,
0000
0100
0000
0000
0010
0000
0000
0000
0000
0000
1000
0000
0000
0001
0000
0000
,
0100
0000
0000
0001
0000
1000
0000
0000
0100
0000
0000
0100
0000
0000
0100
0000
,
0000
0010
0000
0000
0001
0000
0000
0000
0000
0000
1000
0000
0010
0000
0000
0000
,
0100
0000
0000
0001
0000
0000
0010
0000
0000
0100
0000
0000
1000
0000
0000
0000
,
0001
0000
1000
0001
1000
0000
0100
1000
,
0020
0130
0002
0013
,
0100
0000
1000
0001
1000
0000
0100
0010
,
0002
0103
2000
3001
,
1000
0100
1000
0010
1000
0000
0110
0000
,
0001
0100
0001
0010
0001
0000
0110
0000
,
0001
0010
0001
0000
1000
0010
1000
0000
,
0001
1100
0101
1001
,
1000
1000
0001
0001
0100
0100
0010
0010
,
0100
0101
1010
0100
,
0010
0010
0100
0100
1000
1000
0001
0001
,
0100
1010
0011
0100
,
1001
0000
0000
0000
;

//---------------dance-single - ----------------
#NOTES:
     dance-single:
     :
     Easy:
     4:
     0.219334,0.281045,0.091079,0.286250,0.000000,118.000000,111.000000,7.000000,22.000000,0.000000,0.000000,0.219334,0.281045,0.091079,0.286250,0.000000,118.000000,111.000000,7.000000,22.000000,0.000000,0.000000:
0000
0000
0000
0000
,
0000
0000
0000
0000
,
1000
0000
0100
0000
,
0001
0000
1000
0100
,
0010
0001
0100
0000
,
0001
0010
1000
0000
,
0100
1000
0010
0000
,
0001
0100
1000
0000
,
0002
0013
2000
3010
,
0100
0000
0000
0000
,
0002
0103
2000
3100
,
0010
0001
1000
0000
,
0002
0103
0020
1030
,
0100
0000
0001
0000
,
0020
0031
2000
3100
,
0001
1000
0100
0000
,
1000
1000
0001
0001
,
0202
0303
2020
3030
,
1000
1000
0100
0100
,
0010
0000
2002
3003
,
0010
0010
0001
0001
,
1000
1000
0101
0101
,
0100
0100
0010
0010
,
1000
1000
1100
1000
,
1001
0001
0010
0001
,
0200
0000
0320
0000
,
1030
0010
0100
0001
,
0200
0000
0302
0000
,
0013
0100
0010
0001
,
0020
0000
0230
0000
,
1300
0100
0010
0100
,
2000
0000
3002
0000
,
0103
0001
0100
1000
,
0100
0010
1000
0001
,
1000
0100
0010
0001
,
0100
0001
1000
0100
,
1000
0000
0000
0000
;

//---------------dance-single - ----------------
#NOTES:
     dance-single:
     :
     Beginner:
     1:
     0.128255,0.117102,0.000000,0.000000,0.000000,69.000000,69.000000,0.000000,0.000000,0.000000,0.000000,0.128255,0.117102,0.000000,0.000000,0.000000,69.000000,69.000000,0.000000,0.000000,0.000000,0.000000:
// measure 0
0000
0000
0000
0000
,  // measure 1
0000
0000
0000
0000
,  // measure 2
0100
0000
0010
0000
,  // measure 3
0001
0000
1000
0000
,  // measure 4
0010
0000
0100
0000
,  // measure 5
0001
0000
0010
0000
,  // measure 6
0001
0000
1000
0000
,  // measure 7
0001
0000
0010
0000
,  // measure 8
0100
0000
1000
0000
,  // measure 9
0010
0000
0100
0000
,  // measure 10
0010
0000
0010
0000
,  // measure 11
1000
0000
0001
0000
,  // measure 12
0010
0000
0010
0000
,  // measure 13
0100
0000
0100
0000
,  // measure 14
1000
0000
0001
0000
,  // measure 15
1000
0000
0010
0000
,  // measure 16
0100
0000
0100
0000
,  // measure 17
0001
0000
0001
0000
,  // measure 18
1000
0000
1000
0000
,  // measure 19
0100
0000
0010
0000
,  // measure 20
0100
0000
0100
0000
,  // measure 21
1000
0000
0001
0000
,  // measure 22
1000
0000
0010
0000
,  // measure 23
0001
0000
1000
0000
,  // measure 24
0001
0000
0001
0000
,  // measure 25
1000
0000
1000
0000
,  // measure 26
0010
0000
0010
0000
,  // measure 27
0100
0000
0100
0000
,  // measure 28
0010
0000
1000
0000
,  // measure 29
0001
0000
1000
0000
,  // measure 30
0001
0000
1000
0000
,  // measure 31
0100
0000
0010
0000
,  // measure 32
0001
0000
0100
0000
,  // measure 33
1000
0000
0010
0000
,  // measure 34
0001
0000
0010
0000
,  // measure 35
0100
0000
1000
0000
,  // measure 36
0010
0000
0000
0000
;
