#TITLE:Hills of Intent;
#SUBTITLE:(Autumn Hills Future);
#ARTIST:Rainbowdragoneyes;
#TITLETRANSLIT:;
#SUBTITLETRANSLIT:;
#ARTISTTRANSLIT:;
#GENRE:The Messenger;
#CREDIT:[Ness];
#BANNER:The Messenger - Hills of Intent (Autumn Hills Future).png;
#BACKGROUND:The Messenger - Hills of Intent (Autumn Hills Future)-bg.png;
#LYRICSPATH:;
#CDTITLE:;
#MUSIC:The Messenger - Hills of Intent (Autumn Hills Future).mp3;
#OFFSET:-0.027000;
#SAMPLESTART:0.000000;
#SAMPLELENGTH:15.000000;
#LASTBEATHINT:175.995010;
#SELECTABLE:YES;
#DISPLAYBPM:150.000000;
#BPMS:0.000000=150.000000
;
#STOPS:
;
#BGCHANGES:;
#KEYSOUNDS:;
#ATTACKS:;

//---------------dance-single - ----------------
#NOTES:
     dance-single:
     :
     Challenge:
     10:
     0.701982,0.721131,0.054297,0.027148,0.848389,362.000000,358.000000,4.000000,2.000000,0.000000,0.000000,0.701982,0.721131,0.054297,0.027148,0.848389,362.000000,358.000000,4.000000,2.000000,0.000000,0.000000:
0000
0000
0000
0000
,
0000
0000
0000
0000
,
0000
0000
0000
0000
,
0000
0000
0000
0000
,
0001
0010
0000
0000
0001
0010
0000
0000
0000
0000
0000
0000
0100
1000
0000
0000
0100
1000
0000
0000
0000
0000
0000
0000
0010
0100
0000
0000
0010
0100
0000
0000
,
0000
0000
0000
0000
0001
1000
0000
0000
0001
1000
0000
0000
0000
0000
0000
0000
0100
1000
0000
0000
0100
1000
0000
0000
0100
1000
0000
0000
0100
1000
0000
0000
,
0001
0100
0000
0000
0001
0100
0000
0000
0000
0000
0000
0000
0001
1000
0000
0000
0001
1000
0000
0000
0000
0000
0000
0000
0010
1000
0000
0000
0010
1000
0000
0000
,
0000
0000
0000
0000
0001
1000
0000
0000
0001
1000
0000
0000
0000
0000
0000
0000
0010
0100
0000
0000
0010
0100
0000
0000
0010
0100
0000
0000
0010
0100
0000
0000
,
0001
0010
0000
0000
0001
0010
0000
0000
0000
0000
0000
0000
0100
1000
0000
0000
0100
1000
0000
0000
0000
0000
0000
0000
0010
0100
0000
0000
0010
0100
0000
0000
,
0000
0000
0000
0000
0001
1000
0000
0000
0001
1000
0000
0000
0000
0000
0000
0000
0100
0010
0000
0000
0100
0010
0000
0000
0100
0010
0000
0000
0100
0010
0000
0000
,
0001
0010
0000
0000
0001
0010
0000
0000
0000
0000
0000
0000
0001
0100
0000
0000
0001
0100
0000
0000
0000
0000
0000
0000
0010
1000
0000
0000
0010
1000
0000
0000
,
0000
0000
0000
0000
0100
1000
0000
0000
0100
1000
0000
0000
0000
0000
0000
0000
0001
1000
0000
0000
0001
1000
0000
0000
0001
1000
0000
0000
0001
1000
0000
0000
,
0010
1000
0000
0000
0010
1000
0000
0000
0000
0000
0000
0000
0001
0010
0000
0000
0001
0010
0000
0000
0000
0000
0000
0000
0100
1000
0000
0000
0100
1000
0000
0000
,
0000
0000
0000
0000
0010
0100
0000
0000
0010
0100
0000
0000
0000
0000
0000
0000
0001
0100
0000
0000
0001
0100
0000
0000
0001
0100
0000
0000
0001
0100
0000
0000
,
0001
1000
0000
0000
0001
1000
0000
0000
0000
0000
0000
0000
0100
1000
0000
0000
0100
1000
0000
0000
0000
0000
0000
0000
0010
0100
0000
0000
0010
0100
0000
0000
,
0000
0000
0001
0000
0001
2000
0000
0000
3100
0010
0001
0000
0001
0000
1001
0000
,
0010
1000
0010
0001
0010
0100
0001
0010
,
0100
1000
0001
0001
1000
1000
0100
0010
,
0001
1000
0010
0100
0001
0010
1000
0010
,
0001
0100
0010
0010
1000
1000
0001
0001
,
0010
0000
0100
0000
1000
0000
0001
0000
0100
0000
0010
1000
0000
0000
0001
1000
,
0100
0010
0001
0001
1000
1000
0100
0010
,
0001
0000
0010
0000
0001
0000
1000
0000
0100
0000
0010
0001
0000
1000
0100
0010
,
0001
0000
1000
0000
0100
0000
0100
0000
1000
0010
0100
0001
1000
0010
1000
0001
,
0100
0010
0000
0000
0100
0010
0000
0000
0000
0000
0000
0000
1000
0010
0000
0000
1000
0010
0000
0000
0000
0000
0000
0000
1000
0001
0000
0000
1000
0001
0000
0000
,
0000
0000
0000
0000
0010
0001
0000
0000
0010
0001
0000
0000
0000
0000
0000
0000
0100
0000
0100
0000
1000
0000
1000
0000
0100
0000
0100
0000
1000
0000
1000
0000
,
0001
0010
0000
1001
0000
0000
0010
0000
1000
0000
0010
0100
0000
0001
0000
1000
,
0000
0000
0000
0000
0000
0000
1000
0000
0100
0000
0010
0000
0100
1000
0001
0100
,
0001
1000
0100
0010
0001
0100
1000
0100
,
0000
0000
0000
0000
0000
0000
0000
0000
0100
0010
0000
0000
1000
0100
0000
0000
,
0010
0001
0000
1000
0000
0000
0001
0000
0100
0000
0010
1000
0000
0010
0000
0100
,
0000
0000
0000
0000
0000
0000
0001
0000
0010
0000
0100
0000
1000
0010
1000
0001
,
0100
0010
1000
0001
0010
0100
0010
0001
,
0000
0000
0000
0000
0000
0000
0000
0000
1000
0010
1000
0000
0001
0010
0000
0000
,
0100
1000
0000
0001
0000
0000
1000
0000
0010
0000
1000
0001
0000
0100
0000
0010
,
1000
0000
0100
0000
1000
0000
0001
0000
0001
0000
0010
0000
0100
1000
0010
0100
,
0001
0010
0100
0001
0100
1000
0001
1000
,
0000
0000
0010
0000
0101
0000
0000
0000
1000
0010
0000
0000
0001
0100
0000
0000
,
0010
1000
0000
0001
0000
0000
0010
0000
0100
0000
0010
0001
0000
1000
0000
0100
,
0000
0000
0000
0000
0001
0000
0100
0000
0010
0000
0001
0000
0001
1000
0100
0010
,
0001
1000
0010
0100
0001
0010
0100
1000
,
0000
0000
0010
0000
0100
0000
0000
0000
0001
1000
0000
0000
0100
0010
0000
0000
,
0021
1000
0030
0000
;

//---------------dance-single - ----------------
#NOTES:
     dance-single:
     :
     Hard:
     8:
     0.482855,0.516160,0.122168,0.325782,0.196826,249.000000,240.000000,9.000000,24.000000,0.000000,0.000000,0.482855,0.516160,0.122168,0.325782,0.196826,249.000000,240.000000,9.000000,24.000000,0.000000,0.000000:
0000
0000
0000
0000
,
0000
0000
0000
0000
,
0000
0000
0000
0000
,
0000
0000
0000
0010
,
2100
0000
3010
0100
0010
0000
1010
0100
,
0000
0010
0101
0000
0010
0010
0110
0010
,
0200
0000
0301
1000
1000
0000
1100
1000
,
0000
0100
1100
0000
0101
0100
1100
0000
,
0100
0001
0000
1000
0100
0000
1000
0001
,
0000
1000
0100
0000
0010
0100
0010
0001
,
0001
0100
0000
0010
1000
0000
0100
0010
,
0000
0001
1000
0000
0001
0100
0001
0001
,
1000
0010
0000
1000
0100
0000
0010
0001
,
0000
1000
0001
0000
0100
0010
0100
0100
,
0001
0010
0000
0100
1000
0000
0001
1000
,
0000
0000
0010
0000
0100
0000
0000
0000
0001
0100
0001
0000
0010
0000
0000
0000
,
0001
1000
0001
1000
0010
0100
0001
0010
,
0001
0100
0020
2030
3020
2030
3100
0000
,
0010
1000
0010
0100
0001
1000
0100
0010
,
0100
1000
0002
0203
0302
0203
0302
0003
,
0001
0010
0001
1000
0010
0100
0010
1000
,
0001
0100
0020
0230
0320
0230
0320
0030
,
0001
1000
0100
0010
0001
1000
0010
0100
,
0001
0010
0200
2300
3200
2300
3200
0300
,
0001
1000
0000
1000
0001
0000
0100
0010
,
0000
0010
0100
0000
0002
0000
2003
0000
,
3100
1000
0000
0001
0000
0000
0100
0000
0010
0000
0000
1000
0000
0100
0000
0001
,
0000
0000
0000
0000
0010
0000
0100
1000
,
0001
0100
0001
1000
0010
0100
0001
1000
,
0000
0000
0000
0000
0000
0000
0000
0000
0001
0010
0000
0000
0100
1000
0000
0000
,
0001
1000
0000
0010
0000
0000
0100
0000
0001
0000
0000
1000
0000
0010
0000
0001
,
0000
0000
0000
1000
0001
0000
0010
0100
,
1000
0001
0100
0001
0010
0100
1000
0100
,
0000
0000
0000
0000
0000
0000
0000
0000
1000
0010
0000
0000
0001
0100
0000
0000
,
0001
1000
0000
0100
0000
0000
1000
0000
0001
0000
0000
0010
0000
0100
0000
1000
,
0000
0000
0000
1000
0100
0010
0001
1000
,
0100
0010
0100
0000
1000
0010
0100
0001
,
0000
0000
0000
0000
0000
0000
0000
0000
0100
0010
0000
0000
1000
0001
0000
0000
,
0010
0001
0000
1000
0000
0000
0010
0000
0100
0000
0000
0001
0000
0100
0000
1000
,
0000
0000
0000
0001
0010
0001
1000
0100
,
1000
0010
1000
0001
1000
0100
1000
0001
,
0000
0000
0000
0000
0000
0000
0000
0000
0100
0010
0000
0000
1000
0001
0000
0000
,
0201
0310
0000
0000
;

//---------------dance-single - ----------------
#NOTES:
     dance-single:
     :
     Medium:
     6:
     0.337417,0.372782,0.190039,0.149317,0.000000,174.000000,160.000000,14.000000,11.000000,0.000000,0.000000,0.337417,0.372782,0.190039,0.149317,0.000000,174.000000,160.000000,14.000000,11.000000,0.000000,0.000000:
0000
0000
0000
0000
,
0000
0000
0000
0000
,
0000
0000
0000
0000
,
0000
0000
0000
0010
,
2000
3001
0100
1001
,
0100
1001
0100
1001
,
0002
1003
0100
1001
,
0100
0000
1001
0000
0010
0010
0010
0000
,
0200
0000
0301
1000
0100
0000
1000
0000
,
0001
0100
0010
1000
,
0020
0000
0130
0001
1000
0000
0001
0000
,
0010
0100
1000
0001
,
0200
0000
0310
1000
0100
0000
1000
0000
,
0001
0010
0100
1000
,
0002
0000
1003
0010
0100
0000
0010
0000
,
1000
0001
0010
0100
,
1000
0100
1000
0000
0001
0000
0010
0001
,
0200
0000
0000
0300
,
1000
0001
1000
0000
0001
0000
0100
0010
,
0002
0000
0000
0003
,
0010
0001
0010
0000
0100
0000
1000
0001
,
0020
0000
0000
0030
,
1000
0001
0100
0000
0010
0000
1000
0100
,
0002
0000
0000
0003
,
0010
0100
0010
0100
,
1000
0100
0000
0000
,
1000
0000
0001
0000
0100
0010
0100
0000
,
0001
0000
1000
0001
,
0010
0100
1000
0000
0001
0010
0100
1000
,
0000
0000
0011
1100
,
0001
0000
0100
0000
0010
0000
1000
0100
,
0001
0000
1001
0010
,
0100
0010
1000
0001
1000
0100
1000
0100
,
0000
0000
0101
1100
,
0010
0000
1000
0000
0001
0000
0010
0001
,
1000
0000
0001
0010
,
0100
1000
0010
0000
0100
0001
0100
0001
,
0000
0000
1010
0011
,
1000
0000
0100
0000
0010
0000
0100
1000
,
0001
0000
0010
0001
,
1000
0010
1000
0001
0100
0001
0100
0001
,
0000
0000
1001
0110
,
0002
0103
0000
0000
;

//---------------dance-single - ----------------
#NOTES:
     dance-single:
     :
     Easy:
     3:
     0.207492,0.229404,0.000000,0.081445,0.000000,107.000000,107.000000,0.000000,6.000000,0.000000,0.000000,0.207492,0.229404,0.000000,0.081445,0.000000,107.000000,107.000000,0.000000,6.000000,0.000000,0.000000:
0000
0000
0000
0000
,
0000
0000
0000
0000
,
0000
0000
0000
0000
,
0000
0000
0000
0100
,
0002
0013
0000
0100
,
0000
1000
0000
0100
,
2000
3010
0000
0100
,
0000
0001
0000
0100
,
0002
1003
0000
0010
,
0000
0001
0000
0100
,
0020
0031
0000
0100
,
0000
0010
0000
1000
,
0002
0103
0000
1000
,
0000
0001
0000
0010
,
2000
3001
0000
0010
,
0000
0001
0001
0000
,
1000
1000
0010
0010
,
0100
0000
0000
0000
,
0001
0001
1000
1000
,
0100
0000
0000
0000
,
0010
0010
0100
0100
,
0010
0000
0000
0000
,
0001
0001
1000
1000
,
0001
0000
0000
0000
,
0100
0000
0100
0000
,
0100
0000
0000
0000
,
0001
0001
0010
0100
,
0010
0000
0100
0000
,
1000
0000
0001
0000
,
0100
0000
0010
0010
,
1000
1000
0001
1000
,
0100
0000
1000
1000
,
0001
0000
0100
0100
,
0000
0000
0010
0010
,
1000
0001
1000
0010
,
1000
0000
0001
0001
,
0010
0001
0010
0001
,
0010
0000
0100
0100
,
1000
1000
0001
0100
,
0001
0000
1000
1000
,
0001
0001
0100
0010
,
0100
0000
0001
1000
,
0100
0010
0000
0000
;

//---------------dance-single - ----------------
#NOTES:
     dance-single:
     :
     Beginner:
     1:
     0.114411,0.143378,0.000000,0.000000,0.000000,59.000000,59.000000,0.000000,0.000000,0.000000,0.000000,0.114411,0.143378,0.000000,0.000000,0.000000,59.000000,59.000000,0.000000,0.000000,0.000000,0.000000:
// measure 0
0000
0000
0000
0000
,  // measure 1
0000
0000
0000
0000
,  // measure 2
0000
0000
0000
0000
,  // measure 3
0000
0000
0000
0000
,  // measure 4
0010
0010
0000
0000
,  // measure 5
0000
0000
0000
0000
,  // measure 6
0100
0100
0000
0000
,  // measure 7
0000
0000
0000
0000
,  // measure 8
0001
0001
0000
0000
,  // measure 9
0000
0000
0000
0000
,  // measure 10
1000
1000
0000
0000
,  // measure 11
0000
0000
0000
0000
,  // measure 12
0001
0001
0000
0000
,  // measure 13
0000
0000
0000
0000
,  // measure 14
0010
0010
0000
0000
,  // measure 15
0000
0000
0000
0000
,  // measure 16
0100
0000
1000
0000
,  // measure 17
0001
0000
0000
0000
,  // measure 18
0100
0000
0001
0000
,  // measure 19
1000
0000
0000
0000
,  // measure 20
0001
0000
0010
0000
,  // measure 21
0001
0000
0000
0000
,  // measure 22
1000
0000
0100
0000
,  // measure 23
1000
0000
0000
0000
,  // measure 24
0001
0000
0000
0000
,  // measure 25
0000
0000
0000
0000
,  // measure 26
1000
0000
1000
0000
,  // measure 27
0001
0000
0001
0000
,  // measure 28
0100
0000
0100
0000
,  // measure 29
0010
0000
0010
0000
,  // measure 30
1000
0000
1000
0000
,  // measure 31
0001
0000
0001
0000
,  // measure 32
0100
0000
0100
0000
,  // measure 33
0010
0000
0010
0000
,  // measure 34
0001
0000
1000
0000
,  // measure 35
0001
0000
1000
0000
,  // measure 36
0010
0000
0100
0000
,  // measure 37
0010
0000
0100
0000
,  // measure 38
0001
0000
1000
0000
,  // measure 39
0001
0000
1000
0000
,  // measure 40
0010
0000
0100
0000
,  // measure 41
0010
0000
0100
0000
,  // measure 42
0001
0001
0000
0000
;
