#VERSION:0.83;
#TITLE:Hills of Destiny;
#SUBTITLE:(Autumn Hills Past);
#ARTIST:Rainbowdragoneyes;
#TITLETRANSLIT:;
#SUBTITLETRANSLIT:;
#ARTISTTRANSLIT:;
#GENRE:The Messenger;
#ORIGIN:;
#CREDIT:[Ness];
#BANNER:The Messenger - Hills of Destiny (Autumn Hills Past).png;
#BACKGROUND:The Messenger - Hills of Destiny (Autumn Hills Past)-bg.png;
#PREVIEWVID:;
#JACKET:The Messenger - Hills of Destiny (Autumn Hills Past)-jacket.png;
#CDIMAGE:;
#DISCIMAGE:04_AtumnHill_8-1768x992.png;
#LYRICSPATH:;
#CDTITLE:;
#MUSIC:The Messenger - Hills of Destiny (Autumn Hills Past).mp3;
#OFFSET:-0.027000;
#SAMPLESTART:-0.020000;
#SAMPLELENGTH:15.000000;
#SELECTABLE:YES;
#DISPLAYBPM:150.000000;
#BPMS:0.000=150.000;
#STOPS:;
#DELAYS:;
#WARPS:;
#TIMESIGNATURES:0.000=4=4;
#TICKCOUNTS:0.000=2;
#COMBOS:0.000=1;
#SPEEDS:0.000=1.000=0.000=0;
#SCROLLS:0.000=1.000;
#FAKES:;
#LABELS:0.000=Song Start;
#LASTSECONDHINT:70.456940;
#BGCHANGES:;
#KEYSOUNDS:;
#ATTACKS:
;

//---------------dance-single - ----------------
#NOTEDATA:;
#CHARTNAME:;
#STEPSTYPE:dance-single;
#DESCRIPTION:;
#CHARTSTYLE:;
#DIFFICULTY:Challenge;
#METER:9;
#RADARVALUES:0.418571,0.403750,0.070000,0.120000,0.250000,293.000000,286.000000,7.000000,12.000000,0.000000,0.000000,0.000000,0.000000,0.000000,0.418571,0.403750,0.070000,0.120000,0.250000,293.000000,286.000000,7.000000,12.000000,0.000000,0.000000,0.000000,0.000000,0.000000;
#CREDIT:;
#DISPLAYBPM:0.000000;
#NOTES:
0000
0000
0000
0000
,
0000
0000
0000
0000
,
0000
0000
0000
0000
,
0000
0000
0000
1000
,
0201
0000
0310
0100
0100
0001
1000
1000
,
0001
0000
0010
0000
0010
0000
0000
0100
1000
0000
0100
0000
0010
0000
0100
0000
,
1200
0000
0310
0001
1000
1000
0010
0100
,
0100
0000
0000
0001
0000
0000
1000
0000
0100
0010
0100
0000
1000
0000
0001
0000
,
0201
0000
0310
1000
1000
0001
0010
0010
,
0000
0000
0100
0000
0100
0000
0000
1000
0000
0000
0010
0000
0100
0000
0001
0000
,
1200
0000
0310
0100
0100
1000
0001
0001
,
0100
0010
0010
1000
0001
0001
1000
0001
,
0201
0000
0310
1000
0001
0010
0100
1000
,
0000
0001
0100
0010
1000
1000
0001
1000
,
1200
0000
0310
0001
1000
0010
0100
0100
,
0001
0000
0000
0000
0001
2000
0000
0000
3100
0000
0010
0000
0001
0100
0001
0100
,
0010
1000
0010
0001
0010
0100
0001
0010
,
0100
1000
0001
0001
1000
1000
0100
0000
,
0001
1000
0010
0100
0001
0010
1000
0010
,
0001
0100
0010
0010
1000
1000
0001
0001
,
0010
0000
0100
0000
1000
0000
0001
0000
0100
0000
0010
1000
0000
0000
0001
1000
,
0100
0010
0001
0001
1000
1000
0100
0010
,
0001
0000
0010
0000
0001
0000
1000
0000
0100
0000
0010
0001
0000
1000
0100
0010
,
0001
1000
0100
0100
1000
1000
0001
0001
,
0200
1000
0300
0200
0001
0300
2000
0010
,
3000
0000
0002
0000
0010
0000
0003
0000
0100
1000
0000
0000
0001
0100
0000
0000
,
0010
0100
0000
0001
0000
0000
1000
0000
0100
0000
0010
0100
0000
0010
0000
0001
,
0000
0000
0000
0000
0000
0000
1000
0000
0100
0000
0010
0000
0100
1000
0001
0100
,
0001
1000
0100
0010
0001
0100
1000
0100
,
0000
0000
0000
0000
0000
0000
0000
0000
0100
0010
0000
0000
1000
0100
0000
0000
,
0010
0001
0000
1000
0000
0000
0001
0000
0100
0000
0010
1000
0000
0010
0000
0100
,
0000
0000
0000
0000
0000
0000
0001
0000
0010
0000
0100
0000
1000
0010
1000
0001
,
0100
0010
1000
0001
0010
0100
0010
0001
,
0000
0000
0000
0000
0000
0000
0000
0000
1000
0010
1000
0000
0001
0010
0000
0000
,
0100
1000
0000
0001
0000
0000
1000
0000
0010
0000
1000
0001
0000
0100
0000
0010
,
0000
0000
0000
0000
0000
0000
1000
0000
0001
0000
0100
0000
0001
1000
0010
0100
,
0001
0010
0100
0001
0100
1000
0001
1000
,
0000
0000
0010
0000
0100
0000
0000
0000
1000
0010
0000
0000
0001
0100
0000
0000
,
0010
1000
0000
0001
0000
0000
0010
0000
0100
0000
0010
0001
0000
1000
0000
0100
,
0000
0000
0000
0000
0000
0000
0001
0000
0100
0000
0010
0000
0001
1000
0100
0010
,
0001
1000
0010
0100
0001
0010
0100
1000
,
0000
0000
0010
0000
0100
0000
0000
0000
0001
1000
0000
0000
0100
0010
0000
0000
,
0021
1000
0030
0000
;

//---------------dance-single - ----------------
#NOTEDATA:;
#CHARTNAME:;
#STEPSTYPE:dance-single;
#DESCRIPTION:;
#CHARTSTYLE:;
#DIFFICULTY:Hard;
#METER:7;
#RADARVALUES:0.282857,0.295750,0.030000,0.050000,0.120000,198.000000,195.000000,3.000000,5.000000,0.000000,0.000000,0.000000,0.000000,0.000000,0.282857,0.295750,0.030000,0.050000,0.120000,198.000000,195.000000,3.000000,5.000000,0.000000,0.000000,0.000000,0.000000,0.000000;
#CREDIT:;
#DISPLAYBPM:0.000000;
#NOTES:
0000
0000
0000
0000
,
0000
0000
0000
0000
,
0000
0000
0000
0000
,
0000
0000
0000
0010
,
2100
3010
0000
0100
,
0000
0001
0000
0010
,
0102
0013
0000
0100
,
0000
1000
0000
0010
,
0100
0001
0000
1000
0100
0000
1000
0001
,
0000
1000
0100
0000
0010
0100
0010
0000
,
0001
0100
0000
0010
1000
0000
0100
0010
,
0000
0001
1000
0000
0001
0100
0001
0000
,
1000
0010
0000
1000
0100
0000
0010
0001
,
0000
1000
0001
0000
0100
0010
0100
0000
,
0001
0010
0000
0100
1000
0000
0001
1000
,
0000
0010
0100
0000
0001
0000
0010
0000
,
0001
1000
0001
1000
0010
0100
0001
0010
,
0001
0100
0000
0000
0000
0000
0000
0000
,
0010
1000
0010
0100
0001
1000
0100
0010
,
0100
1000
0000
0000
0000
0000
0000
0000
,
0001
0010
0001
1000
0010
0100
0010
1000
,
0001
0100
0000
0000
0000
0000
0000
0000
,
0001
1000
0100
0010
0001
1000
0010
0100
,
0001
0010
0000
0000
0000
0000
0000
0000
,
0001
1000
0000
1000
0001
0000
0100
0010
,
0000
0010
0100
0000
0002
0000
2003
0000
,
3100
0000
0000
0010
0000
0000
0001
0000
0100
0000
0000
0001
0000
1000
0000
0001
,
0000
0000
0000
0000
0010
0000
0100
1000
,
0001
0000
1000
0000
0010
0100
0001
1000
,
0000
0000
0000
0000
0000
0000
0000
0000
0001
0010
0000
0000
0100
1000
0000
0000
,
0001
0000
0000
1000
0000
0000
0010
0000
0100
0000
0000
0010
0000
1000
0000
0010
,
0000
0000
0000
1000
0001
0000
0010
0100
,
1000
0001
0100
0000
0010
1000
0001
1000
,
0000
0000
0000
0000
0000
0000
0000
0000
0001
0100
0000
0000
0010
1000
0000
0000
,
0001
0000
0000
1000
0000
0000
0100
0000
0010
0000
0000
0001
0000
1000
0000
0010
,
0000
0000
0000
1000
0100
0010
0001
1000
,
0100
0010
0100
0000
1000
0001
1000
0001
,
0000
0000
0000
0000
0000
0000
0000
0000
0100
0010
0000
0000
1000
0001
0000
0000
,
0010
0000
0000
0100
0000
0000
1000
0000
0010
0000
0000
0100
0000
0001
0000
1000
,
0000
0000
0000
0001
0010
0001
1000
0100
,
1000
0010
1000
0001
1000
0100
1000
0001
,
0000
0000
0000
0000
0000
0000
0000
0000
0100
0010
0000
0000
1000
0001
0000
0000
,
0201
0310
0000
0000
;

//---------------dance-single - ----------------
#NOTEDATA:;
#CHARTNAME:;
#STEPSTYPE:dance-single;
#DESCRIPTION:;
#CHARTSTYLE:;
#DIFFICULTY:Medium;
#METER:5;
#RADARVALUES:0.188571,0.211250,0.000000,0.110000,0.000000,132.000000,132.000000,0.000000,11.000000,0.000000,0.000000,0.000000,0.000000,0.000000,0.188571,0.211250,0.000000,0.110000,0.000000,132.000000,132.000000,0.000000,11.000000,0.000000,0.000000,0.000000,0.000000,0.000000;
#CREDIT:;
#DISPLAYBPM:0.000000;
#NOTES:
0000
0000
0000
0000
,
0000
0000
0000
0000
,
0000
0000
0000
0000
,
0000
0000
0000
0010
,
2000
3001
0000
0000
,
0000
0000
0000
0010
,
0002
1003
0000
0000
,
0000
0000
0010
0010
,
0200
0301
1000
0100
,
0010
0100
1000
0001
,
0020
0130
1000
0001
,
0100
0010
1000
0001
,
0200
0310
1000
0100
,
0010
0001
1000
0100
,
2000
3001
0100
0010
,
1000
0001
0010
0100
,
1000
0100
1000
0000
0001
0000
0010
0000
,
0200
0000
0000
0300
,
1000
0001
1000
0000
0010
0000
0100
0000
,
0002
0000
0000
0003
,
0010
0001
0010
0000
0100
0000
1000
0000
,
0020
0000
0000
0030
,
1000
0001
1000
0000
0010
0000
0100
0000
,
0002
0000
0000
0003
,
0010
0100
0010
0100
,
1000
0100
0000
0000
,
1000
0000
0001
0000
0100
0010
0100
0000
,
0001
0000
1000
0001
,
0010
0000
0100
0000
0010
0001
0010
0000
,
0000
0000
0001
1000
,
0001
0000
0100
0000
0010
0000
1000
0100
,
1000
0000
0001
0010
,
0100
0000
1000
0000
0001
1000
0001
0000
,
0000
0000
0100
0100
,
0010
0000
1000
0000
0001
0000
1000
0001
,
1000
0000
0001
0010
,
0100
1000
0010
0100
,
0001
0000
1000
0001
,
1000
0000
0100
0000
0010
0000
0100
1000
,
0100
0000
0010
0001
,
1000
0001
0100
0010
,
1000
0000
0001
1000
,
0002
0103
0000
0000
;

//---------------dance-single - ----------------
#NOTEDATA:;
#CHARTNAME:;
#STEPSTYPE:dance-single;
#DESCRIPTION:;
#CHARTSTYLE:;
#DIFFICULTY:Easy;
#METER:3;
#RADARVALUES:0.137143,0.169000,0.000000,0.000000,0.000000,96.000000,96.000000,0.000000,0.000000,0.000000,0.000000,0.000000,0.000000,0.000000,0.137143,0.169000,0.000000,0.000000,0.000000,96.000000,96.000000,0.000000,0.000000,0.000000,0.000000,0.000000,0.000000,0.000000;
#CREDIT:;
#DISPLAYBPM:0.000000;
#NOTES:
// measure 0
0000
0000
0000
0000
,  // measure 1
0000
0000
0000
0000
,  // measure 2
0000
0000
0000
0000
,  // measure 3
0000
0000
0000
0100
,  // measure 4
0001
0010
0000
0000
,  // measure 5
0000
0000
0000
0100
,  // measure 6
1000
0010
0000
0000
,  // measure 7
0000
0000
0000
0100
,  // measure 8
0001
1000
0000
0000
,  // measure 9
0000
0000
0000
0100
,  // measure 10
0010
0001
0000
0000
,  // measure 11
0000
0000
0000
1000
,  // measure 12
0001
0100
0000
0000
,  // measure 13
0000
0000
0000
0010
,  // measure 14
1000
0001
0000
0000
,  // measure 15
0000
0001
0001
0000
,  // measure 16
1000
1000
0010
0010
,  // measure 17
0100
0000
0000
0000
,  // measure 18
0001
0001
1000
1000
,  // measure 19
0100
0000
0000
0000
,  // measure 20
0010
0010
0100
0100
,  // measure 21
0010
0000
0000
0000
,  // measure 22
0001
0001
1000
1000
,  // measure 23
0001
0000
0000
0000
,  // measure 24
0100
0000
0100
0000
,  // measure 25
0100
0000
0000
0000
,  // measure 26
0001
0001
0010
0100
,  // measure 27
0010
0000
0100
0000
,  // measure 28
1000
0000
0001
0000
,  // measure 29
0100
0000
0010
0010
,  // measure 30
1000
1000
0001
1000
,  // measure 31
0100
0000
1000
1000
,  // measure 32
0001
0000
0100
0100
,  // measure 33
0000
0000
0010
0010
,  // measure 34
1000
0001
1000
0010
,  // measure 35
1000
0000
0001
0001
,  // measure 36
0010
0001
0010
0001
,  // measure 37
0010
0000
0100
0100
,  // measure 38
1000
1000
0001
0100
,  // measure 39
0001
0000
1000
1000
,  // measure 40
0001
0001
0100
0010
,  // measure 41
0100
0000
0001
1000
,  // measure 42
0100
0010
0000
0000
;

//---------------dance-single - ----------------
#NOTEDATA:;
#CHARTNAME:;
#STEPSTYPE:dance-single;
#DESCRIPTION:;
#CHARTSTYLE:;
#DIFFICULTY:Beginner;
#METER:1;
#RADARVALUES:0.084286,0.105625,0.000000,0.000000,0.000000,59.000000,59.000000,0.000000,0.000000,0.000000,0.000000,0.000000,0.000000,0.000000,0.084286,0.105625,0.000000,0.000000,0.000000,59.000000,59.000000,0.000000,0.000000,0.000000,0.000000,0.000000,0.000000,0.000000;
#CREDIT:;
#DISPLAYBPM:0.000000;
#NOTES:
// measure 0
0000
0000
0000
0000
,  // measure 1
0000
0000
0000
0000
,  // measure 2
0000
0000
0000
0000
,  // measure 3
0000
0000
0000
0000
,  // measure 4
1000
1000
0000
0000
,  // measure 5
0000
0000
0000
0000
,  // measure 6
0001
0001
0000
0000
,  // measure 7
0000
0000
0000
0000
,  // measure 8
1000
1000
0000
0000
,  // measure 9
0000
0000
0000
0000
,  // measure 10
0001
0001
0000
0000
,  // measure 11
0000
0000
0000
0000
,  // measure 12
1000
1000
0000
0000
,  // measure 13
0000
0000
0000
0000
,  // measure 14
0001
0001
0000
0000
,  // measure 15
0000
0000
0000
0000
,  // measure 16
1000
0000
0001
0000
,  // measure 17
1000
0000
0000
0000
,  // measure 18
0001
0000
1000
0000
,  // measure 19
0001
0000
0000
0000
,  // measure 20
1000
0000
0001
0000
,  // measure 21
1000
0000
0000
0000
,  // measure 22
0001
0000
1000
0000
,  // measure 23
0001
0000
0000
0000
,  // measure 24
1000
0000
0000
0000
,  // measure 25
0000
0000
0000
0000
,  // measure 26
0001
0000
0001
0000
,  // measure 27
1000
0000
1000
0000
,  // measure 28
0001
0000
0001
0000
,  // measure 29
1000
0000
1000
0000
,  // measure 30
0001
0000
0001
0000
,  // measure 31
1000
0000
1000
0000
,  // measure 32
0001
0000
0001
0000
,  // measure 33
1000
0000
1000
0000
,  // measure 34
1000
0000
0001
0000
,  // measure 35
1000
0000
0001
0000
,  // measure 36
1000
0000
0001
0000
,  // measure 37
1000
0000
0001
0000
,  // measure 38
1000
0000
0001
0000
,  // measure 39
1000
0000
0001
0000
,  // measure 40
1000
0000
0001
0000
,  // measure 41
1000
0000
0001
0000
,  // measure 42
1000
1000
0000
0000
;
